<?xml version="1.0" standalone="no"?>
<!DOCTYPE svg PUBLIC "-//W3C//DTD SVG 1.1//EN" "http://www.w3.org/Graphics/SVG/1.1/DTD/svg11.dtd" >
<svg xmlns="http://www.w3.org/2000/svg" xmlns:xlink="http://www.w3.org/1999/xlink" version="1.1">
<metadata>
Created by FontForge 20201107 at Thu Nov 23 11:15:48 2023
 By 
Copyright (c) 2010 by Laura Worthington. All rights reserved.
</metadata>
<defs>
<font id="Sheila-Bold" horiz-adv-x="1769" >
  <font-face 
    font-family="Sheila"
    font-weight="700"
    font-stretch="normal"
    units-per-em="2048"
    panose-1="2 0 8 7 0 0 0 2 0 2"
    ascent="1638"
    descent="-410"
    x-height="518"
    cap-height="1544"
    bbox="-1397 -1192 3178 1937"
    underline-thickness="102"
    underline-position="-307"
    unicode-range="U+000D-F8FF"
  />
<missing-glyph horiz-adv-x="606" 
 />
    <glyph glyph-name="es" unicode="es" horiz-adv-x="1241" 
d="M479 455q0 -46 -56 -98.5t-143 -88t-167 -35.5q-29 0 -47 5q-50 -63 -50 -132q0 -73 111 -73q82 0 188 31t203 81q12 53 56.5 97.5t82.5 44.5q13 0 23.5 -8.5t13.5 -20.5q41 20 90 65.5t90 102.5q36 50 79.5 82.5t66.5 32.5q14 0 27.5 -21t13.5 -41q0 -21 -37.5 -57.5
t-67.5 -36.5q-10 0 -22 6q27 -79 27 -160q0 -133 -123 -206q100 17 207.5 63t183.5 115q11 10 16 27t17 26q30 27 47 27q4 0 8 -6.5t4 -14.5q0 -28 -84 -96q-107 -87 -243 -135.5t-277 -48.5q-42 0 -74 5t-62.5 17.5t-47 39.5t-17.5 67q-226 -123 -397 -123
q-82 0 -135.5 35.5t-53.5 113.5q0 59 37 127t107 129q77 65 157 96t146 31q102 0 102 -65zM879 307q0 41 -2 64q-76 -90 -172 -148q0 -38 -39.5 -82.5t-73.5 -44.5q-15 0 -29 19q-3 6 -8 6q-4 0 -4 -23q0 -9 8.5 -21.5t34 -25t61.5 -12.5q71 0 147.5 89t76.5 179zM389 467
q-51 0 -149 -66.5t-156 -132.5q14 -2 39 -2q70 0 142 31t115.5 72.5t43.5 74.5q0 10 -10.5 16.5t-24.5 6.5z" />
    <glyph glyph-name="bs" unicode="bs" horiz-adv-x="1417" 
d="M1110 391q27 -79 27 -160q0 -133 -123 -206q100 17 207.5 63t183.5 115q11 10 16 27t17 26q30 27 47 27q4 0 8 -6.5t4 -14.5q0 -28 -84 -96q-107 -87 -243 -135.5t-277 -48.5q-201 0 -201 133q0 28 8 49q-55 47 -151 63q-184 -239 -397 -239q-119 0 -119 67q0 34 32.5 71
t87.5 68t134.5 50.5t165.5 19.5q44 52 70 104.5t26 84.5q0 14 -9 22t-22 8q-59 0 -216.5 -120t-266.5 -234q-19 -20 -39 -50t-30 -51l-11 -20q-8 -14 -25 -14t-30 21.5t-13 41.5q0 41 125.5 253.5t281.5 459.5t177 285q33 56 33 88q0 1 -1 12t-1 21q0 48 69 133q19 24 47 24
q18 0 39 -31.5t21 -54.5q0 -22 -10 -37q-151 -242 -373.5 -611t-222.5 -384q0 -2 6 4q322 305 471 305q38 0 62 -25t24 -67q0 -77 -68 -180q81 -15 146 -62q22 41 57 69t64 28q13 0 23 -8.5t13 -20.5q42 20 91 65.5t90 102.5q36 50 79 82.5t66 32.5q14 0 30.5 -21t16.5 -39
q0 -21 -40 -58.5t-70 -37.5q-11 0 -23 6zM729 104q0 -7 5 -16.5t15.5 -21t32 -19.5t49.5 -8q71 0 147.5 89t76.5 179q0 41 -2 64q-76 -90 -172 -148q0 -38 -39.5 -81.5t-73.5 -43.5q-27 0 -39 6zM125 31q51 0 146 65.5t159 139.5q-64 0 -132 -19t-117 -46t-81 -57.5
t-32 -54.5q0 -14 18 -21t39 -7z" />
    <glyph glyph-name="bx" unicode="bx" horiz-adv-x="1437" 
d="M78 219q322 305 471 305q38 0 62 -25t24 -67q0 -77 -68 -180q17 -1 38.5 -5.5t46 -13t41 -24.5t16.5 -37q0 -5 -5 -12.5t-10 -7.5q-14 0 -41.5 20t-27.5 33q-2 4 -19 10q-20 8 -61 8q-181 -235 -393 -235q-119 0 -119 67q0 34 32.5 71t87.5 68t134.5 50.5t165.5 19.5
q44 52 70 104.5t26 84.5q0 14 -9 22t-22 8q-59 0 -216.5 -120t-266.5 -234q-19 -20 -39 -50t-30 -51l-11 -20q-8 -14 -25 -14t-30 21.5t-13 41.5q0 41 125.5 253.5t281.5 459.5t177 285q33 56 33 88q0 1 -1 12t-1 21q0 48 69 133q19 24 47 24q18 0 39 -31.5t21 -54.5
q0 -22 -10 -37q-151 -242 -373.5 -611t-222.5 -384q0 -2 6 4zM125 31q51 0 146 65.5t159 139.5q-64 0 -132 -19t-117 -46t-81 -57.5t-32 -54.5q0 -14 18 -21t39 -7zM1075 45q79 0 184.5 48.5t172.5 111.5q11 10 15.5 27t16.5 26q31 25 41 25q5 0 10 -6.5t5 -12.5
q0 -33 -80 -92q-113 -83 -213.5 -130.5t-206.5 -47.5q-38 0 -66 15t-44 42.5t-25 54t-15 60.5q-240 -172 -340 -172q-30 0 -53.5 10.5t-23.5 34.5q0 37 28 37q19 0 29 -10.5t10 -22.5q0 -14 29 -14q38 0 137 57.5t176 134.5q-6 50 -16 82.5t-22.5 57t-14.5 30.5
q-6 16 -33.5 36.5t-27.5 41.5q0 22 21.5 38.5t45.5 16.5q41 0 66.5 -30t36.5 -70q15 -59 28 -152q134 94 160 152q3 6 5.5 31t16.5 43q41 47 91 47q17 0 32 -11.5t15 -25.5q0 -24 -52 -82q-56 -64 -108 -106.5t-150 -108.5q8 -78 35 -122t84 -44z" />
    <glyph glyph-name="cs" unicode="cs" horiz-adv-x="1296" 
d="M1038 541q14 0 29.5 -20.5t15.5 -39.5q0 -21 -39 -58.5t-69 -37.5q-11 0 -23 6q27 -79 27 -160q0 -133 -123 -206q100 17 207.5 63t183.5 115q11 10 16 27t17 26q30 27 47 27q4 0 8 -6.5t4 -14.5q0 -28 -84 -96q-107 -87 -243 -135.5t-277 -48.5q-42 0 -74 5t-62.5 18
t-47 41t-16.5 69v10q-117 -63 -237 -105.5t-206 -42.5q-68 0 -116 39t-48 103q0 61 40.5 132t103.5 129t147.5 97t165.5 39q35 0 64.5 -13t39.5 -28q20 47 82 47q19 0 19 -12q0 -46 -65.5 -114t-121.5 -68q-16 0 -16 8q0 3 18.5 22t37 43.5t18.5 42.5q0 11 -13 20t-42 9
q-53 0 -142 -59t-161 -148.5t-72 -161.5q0 -39 22.5 -59t63.5 -20q81 0 194.5 38.5t223.5 98.5q21 53 57 91t78 38q13 0 26.5 -10.5t16.5 -22.5q41 20 90 65.5t90 102.5q36 50 79 82.5t66 32.5zM897 307q0 41 -2 64q-76 -90 -172 -148q0 -34 -40 -79.5t-73 -45.5
q-15 0 -28 17q-3 6 -9 6q-4 0 -4 -23q0 -9 8.5 -21.5t34.5 -25t62 -12.5q71 0 147 89t76 179z" />
    <glyph glyph-name="cx" unicode="cx" horiz-adv-x="1368" 
d="M803 174q-125 -77 -303 -133.5t-350 -56.5q-38 0 -72.5 7t-70 23.5t-56.5 50t-21 80.5q0 68 40.5 137t102.5 119.5t139.5 82.5t149.5 32q36 0 65.5 -13t39.5 -28q18 47 82 47q18 0 18 -12q0 -46 -65 -114t-121 -68q-16 0 -16 8q0 3 18.5 22t36.5 43.5t18 42.5
q0 11 -13 20t-42 9q-40 0 -98.5 -30.5t-112.5 -77t-92.5 -108t-38.5 -116.5q0 -43 38 -73.5t109 -30.5q189 0 331.5 52t266.5 147q-5 32 -12 59.5t-12 42t-12 32t-9 23.5q-6 16 -33.5 36.5t-27.5 41.5q0 22 21.5 38.5t46.5 16.5q74 0 102 -100q17 -68 29 -152
q133 93 159 152q3 6 5.5 31t17.5 43q41 47 90 47q17 0 32 -11.5t15 -25.5q0 -25 -51 -82q-56 -64 -108 -106.5t-150 -108.5q8 -78 35 -122t84 -44q79 0 184 48.5t172 111.5q11 10 16 27t17 26q31 25 41 25q4 0 9 -6.5t5 -12.5q0 -33 -80 -92q-114 -83 -215 -131.5
t-207 -48.5q-32 0 -56.5 12t-39 28t-25.5 43t-16 47t-10 50z" />
    <glyph glyph-name="ex" unicode="ex" horiz-adv-x="1298" 
d="M721 223q-6 50 -15.5 82t-21.5 56.5t-14 29.5q-6 16 -34 36.5t-28 41.5q0 22 21.5 38.5t46.5 16.5q74 0 102 -100q17 -68 29 -152q134 94 160 152q3 6 5.5 31t16.5 43q41 47 90 47q17 0 32 -11.5t15 -25.5q0 -25 -51 -82q-56 -64 -108 -106.5t-150 -108.5q8 -78 35 -122
t84 -44q79 0 184 48.5t172 111.5q11 10 16 27t17 26q31 25 41 25q4 0 9 -6.5t5 -12.5q0 -33 -80 -92q-113 -83 -213 -130.5t-206 -47.5q-38 0 -66 15t-44 42.5t-25 54t-15 60.5q-133 -83 -298.5 -130.5t-313.5 -47.5q-82 0 -135.5 35.5t-53.5 113.5q0 59 37 127t107 129
q77 65 157 96t146 31q102 0 102 -65q0 -46 -56 -98.5t-143 -88t-167 -35.5q-29 0 -47 5q-50 -63 -50 -132q0 -40 35 -57.5t84 -17.5q71 0 117.5 4.5t119.5 21.5t158.5 58t190.5 108zM424 444q0 10 -10.5 16.5t-24.5 6.5q-51 0 -149 -66.5t-156 -132.5q14 -2 39 -2
q70 0 142 31t115.5 72.5t43.5 74.5z" />
    <glyph glyph-name="fg" unicode="fg" horiz-adv-x="1452" 
d="M1069 199q0 1 1 3t1 3q0 2 -6 2q-10 -9 -27 -23.5t-67.5 -52t-97 -66t-105.5 -52t-104 -23.5q-38 0 -62 28t-24 64q-95 -76 -185 -76q-73 0 -143 51q2 -8 2 -28q0 -61 -33 -167t-89.5 -224t-124 -224t-146.5 -175.5t-146 -69.5q-61 0 -97 48t-36 107q0 273 416 957
q76 124 208 316t165 247q31 52 42 85.5t13 62t8 46.5q21 69 76.5 120.5t116.5 51.5q20 0 38.5 -7t18.5 -17q0 -16 -23 -49q-212 -305 -583 -901q-185 -295 -297.5 -545t-112.5 -377q0 -39 20.5 -66.5t45.5 -27.5q58 0 140 88t153 212t121.5 267.5t50.5 245.5q0 52 -13 90.5
t-26 66.5t-13 54q0 24 9.5 46.5t25.5 22.5q28 0 64.5 -54.5t36.5 -86.5q0 -10 -4.5 -25t-4.5 -22q0 -26 40.5 -56t80.5 -30q57 0 109.5 29t83.5 82q219 370 553 370q94 0 154.5 -42.5t60.5 -82.5q0 -12 -11 -23.5t-22 -11.5q-10 0 -22.5 15t-20.5 35q-26 67 -121 67
q-58 0 -144 -45.5t-161 -109t-128.5 -135.5t-53.5 -121q0 -13 7 -23t17 -10q63 0 185.5 78t193.5 151q87 90 111 137l2 5q1 4 3.5 8.5l5 9t7 7.5t8.5 3t13.5 -5.5t13.5 -10.5q25 -36 25 -82q0 -31 -20 -71t-44 -40q-4 0 -9.5 -6t-14.5 -20.5t-18 -30.5t-23 -43.5t-26.5 -52
t-32.5 -63.5t-36 -70q244 76 412 206q12 8 19 38.5t18 39.5q4 3 11.5 9.5t12 10t10.5 7.5t11 6t10 2q7 0 15 -6.5t8 -16.5q0 -48 -95 -124q-171 -135 -456 -220q-128 -243 -246 -434q-138 -219 -309.5 -361.5t-315.5 -142.5q-84 0 -126 50.5t-42 138.5q0 23 12.5 61.5
t44.5 94t79.5 116t124.5 128.5t171 130.5t227.5 123.5t287.5 106q41 79 87 175t60 124zM668 -516q156 238 235 379q-196 -65 -364.5 -162t-278.5 -200t-172.5 -206.5t-62.5 -187.5q0 -53 27.5 -77.5t68.5 -24.5q89 0 259 149.5t288 329.5z" />
    <glyph glyph-name="fj" unicode="fj" horiz-adv-x="985" 
d="M-381 -426q18 14 23 16q105 283 354 691q76 124 208 316t165 247q31 52 42 85.5t13 62t8 46.5q21 69 76.5 120.5t116.5 51.5q20 0 38.5 -7t18.5 -17q0 -16 -23 -49q-212 -305 -583 -901q-187 -300 -303 -558q171 99 391 162q33 115 33 193q0 52 -13 90.5t-26 66.5t-13 54
q0 24 9.5 46.5t25.5 22.5q28 0 64.5 -54.5t36.5 -86.5q0 -10 -4.5 -25t-4.5 -22q0 -26 40.5 -56t80.5 -30q91 0 162 74l78 141q22 39 22 82q0 2 -1 14t-1 23q0 32 42.5 92.5t76.5 60.5q20 0 38.5 -26t18.5 -47q0 -22 -10 -37q-55 -102 -148.5 -271.5t-111.5 -201.5
q239 73 406 202q12 8 21 40.5t20 41.5q41 33 53 33q20 0 20 -27q0 -19 -27.5 -55.5t-66.5 -64.5q-185 -135 -448 -213q-126 -243 -254 -445q-140 -223 -330.5 -378.5t-349.5 -155.5q-101 0 -171.5 68.5t-70.5 166.5q0 103 69.5 216t188.5 202zM-420 -676q0 80 35 193
q-81 -73 -130.5 -169.5t-49.5 -181.5q0 -60 46 -102.5t111 -42.5q123 0 295 138.5t293 322.5q183 275 246 389q-108 -23 -223 -57q-38 -106 -93 -215.5t-120.5 -207.5t-139 -160t-137.5 -62q-61 0 -97 48t-36 107zM-268 -780q59 0 141.5 88t157 221.5t119.5 269.5
q-229 -73 -406 -188q-78 -196 -78 -297q0 -39 20.5 -66.5t45.5 -27.5zM250 57q2 -8 2 -28q0 -59 -37 -172q139 36 231 55l70 129q-65 -35 -123 -35q-73 0 -143 51zM926 756q37 -53 37 -92q0 -29 -25.5 -60t-52.5 -31q-22 0 -43 24t-21 44q0 15 6.5 29.5t22 36t18.5 26.5
q2 5 4 15.5t2 11.5q4 14 25 14q5 0 9 -2t6.5 -4t6 -6t5.5 -6z" />
    <glyph glyph-name="fx" unicode="fx" horiz-adv-x="1239" 
d="M377 74q112 0 278 125q-13 94 -55 200q-4 9 -17.5 17.5t-24.5 20t-11 32.5q0 22 21.5 38.5t45.5 16.5q41 0 67.5 -30.5t35.5 -69.5q9 -43 26 -162q54 46 76 65.5t47.5 47.5t34.5 49q3 6 5.5 31t17.5 43q20 23 46.5 35t47.5 12q17 0 31 -11.5t14 -25.5q0 -27 -49 -82
q-61 -70 -116 -122t-142 -120q8 -73 33.5 -106t84.5 -33q77 0 178.5 48.5t172.5 109.5q11 10 18 29t19 28q31 25 41 25q5 0 10.5 -7.5t5.5 -13.5q0 -33 -80 -92q-113 -83 -213.5 -130.5t-206.5 -47.5q-73 0 -104 36.5t-45 110.5q-156 -112 -299 -112q-63 0 -121 28
q2 -8 2 -28q0 -61 -33 -167t-89.5 -224t-124 -224t-146.5 -175.5t-146 -69.5q-61 0 -97 48t-36 107q0 273 416 957q76 124 208 316t165 247q31 52 42 85.5t13 62t8 46.5q21 69 76.5 120.5t116.5 51.5q20 0 38.5 -7t18.5 -17q0 -16 -23 -49q-212 -305 -583 -901
q-185 -295 -297.5 -545t-112.5 -377q0 -39 20.5 -66.5t45.5 -27.5q58 0 140 88t153 212t121.5 267.5t50.5 245.5q0 52 -13 90.5t-26 66.5t-13 54q0 24 9.5 46.5t25.5 22.5q28 0 64.5 -54.5t36.5 -86.5q0 -10 -4.5 -25t-4.5 -22q0 -24 30.5 -37.5t74.5 -13.5z" />
    <glyph glyph-name="fy" unicode="fy" horiz-adv-x="1445" 
d="M688 346q0 34 11.5 64t23 46t33.5 42q28 28 51 28q19 0 37 -32t18 -52q0 -21 -10 -36q-4 -7 -56.5 -91.5t-93 -153.5t-40.5 -81t9.5 -18.5t20.5 -6.5q64 0 226 117q188 137 262 256q6 10 15 26t15 25.5t13.5 20t14 15.5t13.5 5q22 0 40 -35.5t18 -58.5q0 -36 -20.5 -75.5
t-49.5 -45.5q-31 -6 -63 -76q-7 -15 -37 -71.5t-66.5 -124t-48.5 -90.5q239 74 401 200q12 8 21 40.5t20 41.5q41 33 58 33q14 0 14 -25q0 -27 -25.5 -56t-74.5 -68q-173 -134 -437 -213q-77 -147 -260 -441q-134 -214 -307.5 -358t-298.5 -144q-92 0 -136 50t-44 114
q0 79 57.5 178.5t156 197.5t240.5 190t300 153q129 51 202 72q149 276 189 354l-2 6q-1 0 -37.5 -29.5t-92.5 -71.5t-118.5 -84t-126.5 -71.5t-107 -29.5q-29 0 -49 15.5t-20 47.5q0 12 2 18q-73 -57 -156 -57q-73 0 -143 51q2 -8 2 -28q0 -61 -33 -167t-89.5 -224
t-124 -224t-146.5 -175.5t-146 -69.5q-61 0 -97 48t-36 107q0 273 416 957q76 124 208 316t165 247q31 52 42 85.5t13 62t8 46.5q21 69 76.5 120.5t116.5 51.5q20 0 38.5 -7t18.5 -17q0 -16 -23 -49q-212 -305 -583 -901q-185 -295 -297.5 -545t-112.5 -377
q0 -39 20.5 -66.5t45.5 -27.5q58 0 140 88t153 212t121.5 267.5t50.5 245.5q0 52 -13 90.5t-26 66.5t-13 54q0 24 9.5 48.5t25.5 24.5q28 0 64.5 -56.5t36.5 -88.5q0 -10 -4.5 -25t-4.5 -22q0 -26 40.5 -56t80.5 -30q98 0 172 84q15 35 69 110.5t54 112.5zM4 -899
q0 -32 21 -66t69 -34q113 0 271.5 147t287.5 340q165 251 234 377q-199 -66 -369.5 -164.5t-280.5 -203t-171.5 -208t-61.5 -188.5z" />
    <glyph glyph-name="gg" unicode="gg" horiz-adv-x="1673" 
d="M1290 205q0 1 1 3t1 3q0 2 -6 2q-10 -9 -27 -24t-67 -53.5t-96.5 -68t-105 -53.5t-103.5 -24q-41 0 -62.5 28.5t-21.5 71.5q-157 -119 -432 -201q-128 -243 -246 -434q-140 -223 -330.5 -378.5t-349.5 -155.5q-99 0 -168.5 65t-69.5 160q0 103 74.5 219.5t196.5 208.5
q173 130 334.5 195.5t470.5 136.5q41 79 88 175.5t61 123.5q0 1 1 3t1 3q0 2 -6 2q-10 -9 -27 -24t-67 -53.5t-96.5 -68t-105 -53.5t-103.5 -24q-38 0 -61 28t-23 64q0 69 51 148t129.5 142.5t179 105.5t191.5 42q94 0 154.5 -42.5t60.5 -82.5q0 -12 -11 -23.5t-22 -11.5
q-10 0 -22.5 15t-20.5 35q-26 67 -121 67q-58 0 -144 -45.5t-161 -109t-128.5 -135.5t-53.5 -121q0 -13 7 -23t17 -10q63 0 185.5 78t193.5 151q87 90 111 137l1 5q2 4 4.5 8.5l5 9t7 7.5t8.5 3t13.5 -5.5t13.5 -10.5q24 -35 24 -82q0 -31 -19.5 -71t-43.5 -40q-4 0 -9.5 -6
t-14.5 -20.5t-18 -30.5t-23 -43.5t-26.5 -52t-32.5 -63.5t-36 -70q241 75 418 210q28 88 114 174.5t202.5 142.5t224.5 56q94 0 154.5 -42.5t60.5 -82.5q0 -12 -11 -23.5t-22 -11.5q-10 0 -22.5 15t-20.5 35q-26 67 -121 67q-58 0 -144 -45.5t-161 -109t-128.5 -135.5
t-53.5 -121q0 -13 7 -23t17 -10q63 0 185.5 78t193.5 151q87 90 111 137l1 5q2 4 4.5 8.5l5 9t7 7.5t8.5 3t13.5 -5.5t13.5 -10.5q25 -36 25 -82q0 -31 -20 -71t-44 -40q-4 0 -9.5 -6t-14.5 -20.5t-18 -30.5t-23 -43.5t-26.5 -52t-32.5 -63.5t-36 -70q244 76 412 206
q12 8 19 38.5t18 39.5q4 3 11.5 9.5t12 10t10.5 7.5t11 6t10 2q7 0 15 -6.5t8 -16.5q0 -49 -94 -124q-170 -134 -457 -220q-128 -243 -246 -434q-139 -220 -301.5 -354.5t-310.5 -134.5q-94 0 -148.5 48.5t-54.5 145.5q0 111 72 222.5t196 207.5q93 73 243 144.5t462 171.5
q41 79 88 175.5t61 123.5zM31 -516q112 171 229 379q-273 -64 -433 -131t-319 -187q-96 -72 -162.5 -190t-66.5 -199q0 -57 44.5 -96t111.5 -39q121 0 299 140.5t297 322.5zM889 -516q122 186 227 373q-133 -44 -217.5 -75.5t-205.5 -91t-224 -130.5q-101 -69 -178.5 -188
t-77.5 -197q0 -58 36.5 -97t94.5 -39q118 0 270 128.5t275 316.5z" />
    <glyph glyph-name="gj" unicode="gj" horiz-adv-x="1208" 
d="M504 -543q-140 -223 -330.5 -378.5t-349.5 -155.5q-51 0 -100.5 20t-75.5 53q-106 -59 -203 -59q-99 0 -164 61t-65 156q0 118 74 240.5t196 214.5q141 108 278.5 156t485.5 128q21 5 31 7q41 79 89 178.5t62 126.5q0 1 1 3t1 3q0 2 -6 2q-10 -9 -27 -24t-67 -53.5
t-96.5 -68t-105 -53.5t-103.5 -24q-38 0 -61 28t-23 64q0 69 51 148t129.5 142.5t179 105.5t191.5 42q94 0 154.5 -42.5t60.5 -82.5q0 -12 -11 -23.5t-22 -11.5q-10 0 -22.5 15t-20.5 35q-26 67 -121 67q-58 0 -144 -45.5t-161 -109t-128.5 -135.5t-53.5 -121q0 -13 7 -23
t17 -10q63 0 185.5 78t193.5 151q87 90 111 137l1 5q2 4 4.5 8.5l5 9t7 7.5t8.5 3t13.5 -5.5t13.5 -10.5q24 -35 24 -82q0 -31 -19.5 -71t-43.5 -40q-5 0 -14 -12.5t-24.5 -41.5t-30.5 -58t-42 -83t-49 -96q212 64 398 207l61 117q23 44 23 82q0 2 -1.5 14t-1.5 23
q0 32 42.5 92.5t76.5 60.5q20 0 40 -26.5t20 -46.5q0 -21 -11 -37q-55 -102 -145.5 -265.5t-112.5 -203.5q241 74 402 198q12 8 21 40.5t20 41.5q41 33 53 33q20 0 20 -26q0 -22 -25.5 -57t-64.5 -64q-184 -134 -450 -213q-117 -225 -256 -445zM-492 -430q-95 -71 -156 -193
t-61 -215q0 -60 39.5 -102.5t104.5 -42.5q71 0 162 51q-31 71 -31 131q0 172 159.5 327.5t483.5 248.5l51 88q-304 -71 -453.5 -125.5t-298.5 -167.5zM299 -248q-59 -104 -92 -160.5t-81.5 -133.5t-85 -124t-86 -103t-103 -101.5t-117.5 -90.5q34 -18 80 -18
q123 0 298.5 139.5t295.5 323.5q150 225 237 375zM-150 -432q-99 -70 -155.5 -167t-56.5 -192q0 -66 22 -100q89 63 159.5 128t133 144.5t109 150t112.5 181.5q-223 -74 -324 -145zM373 -111q-14 -26 -41 -77q40 12 156.5 46t183.5 56l71 135q-155 -94 -370 -160zM1141 754
q37 -53 37 -92q0 -29 -25.5 -60t-52.5 -31q-22 0 -43 24t-21 44q0 15 6.5 29.5t22 36t18.5 26.5q1 1 7 27q4 14 24 14q5 0 9 -2t6.5 -4t6 -6t5.5 -6z" />
    <glyph glyph-name="gx" unicode="gx" horiz-adv-x="1527" 
d="M31 -516q112 171 229 379q-273 -64 -433 -131t-319 -187q-96 -72 -162.5 -190t-66.5 -199q0 -57 44.5 -96t111.5 -39q121 0 299 140.5t297 322.5zM944 219q-6 50 -14.5 82t-21.5 60.5t-13 29.5q-6 16 -33.5 36.5t-27.5 41.5q0 22 21.5 38.5t45.5 16.5q41 0 66.5 -30
t36.5 -70q15 -59 28 -152q134 94 160 152q3 6 5.5 31t16.5 43q41 47 91 47q17 0 32 -11.5t15 -25.5q0 -24 -52 -82q-56 -64 -108 -106.5t-150 -108.5q8 -78 35 -122t84 -44q79 0 184.5 48.5t172.5 111.5q11 10 15.5 27t16.5 26q31 25 41 25q5 0 10 -6.5t5 -12.5
q0 -33 -80 -92q-113 -83 -213.5 -130.5t-206.5 -47.5q-38 0 -66 14.5t-44 41t-25 52.5t-15 60q-124 -98 -251.5 -155t-333.5 -118q-128 -243 -246 -434q-140 -223 -330.5 -378.5t-349.5 -155.5q-99 0 -168.5 65t-69.5 160q0 103 74.5 219.5t196.5 208.5q173 130 334.5 195.5
t470.5 136.5q41 79 88 175.5t61 123.5q0 1 1 3t1 3q0 2 -6 2q-10 -9 -27 -24t-67 -53.5t-96.5 -68t-105 -53.5t-103.5 -24q-38 0 -61 28t-23 64q0 69 51 148t129.5 142.5t179 105.5t191.5 42q94 0 154.5 -42.5t60.5 -82.5q0 -12 -11 -23.5t-22 -11.5q-10 0 -22.5 15
t-20.5 35q-26 67 -121 67q-58 0 -144 -45.5t-161 -109t-128.5 -135.5t-53.5 -121q0 -13 7 -23t17 -10q63 0 185.5 78t193.5 151q87 90 111 137l1 5q2 4 4.5 8.5l5 9t7 7.5t8.5 3t13.5 -5.5t13.5 -10.5q24 -35 24 -82q0 -31 -19.5 -71t-43.5 -40q-4 0 -9.5 -6t-14.5 -20.5
t-18 -30.5t-23 -43.5t-26.5 -52t-32.5 -63.5t-36 -70q172 51 299.5 117.5t249.5 164.5z" />
    <glyph glyph-name="gy" unicode="gy" horiz-adv-x="1667" 
d="M915 350q0 34 11.5 64t23 46t33.5 42q28 28 51 28q19 0 37.5 -32t18.5 -52t-11 -36q-4 -7 -56.5 -91.5t-93 -153.5t-40.5 -81t10 -18.5t21 -6.5q63 0 225 117q188 137 262 256q6 9 15.5 25.5t15.5 26t13.5 20t14 15.5t13.5 5q22 0 39.5 -35.5t17.5 -58.5q0 -35 -22.5 -73
t-51.5 -44q-32 -7 -63 -75q-24 -52 -150 -293q239 75 404 202q12 8 21 40.5t20 41.5q41 33 57 33q11 0 14 -24q0 -20 -29 -57t-71 -68q-50 -37 -85 -60.5t-138.5 -74t-218.5 -84.5q-135 -257 -246 -435q-139 -221 -309 -357t-330 -136q-85 0 -138 52.5t-53 147.5
q0 14 5 41.5t27.5 85.5t58.5 113q45 69 130.5 143.5t196.5 135.5q172 96 572 225q25 46 69 126.5t71.5 132t49.5 97.5l-2 6q-1 0 -39 -29.5t-96 -72t-122.5 -85t-130 -72t-108.5 -29.5q-29 0 -47 19t-18 48v12q-161 -105 -393 -174q-128 -243 -246 -434
q-140 -223 -330.5 -378.5t-349.5 -155.5q-99 0 -168.5 65t-69.5 160q0 103 74.5 219.5t196.5 208.5q173 130 334.5 195.5t470.5 136.5q41 79 88 175.5t61 123.5q0 1 1 3t1 3q0 2 -6 2q-10 -9 -27 -24t-67 -53.5t-96.5 -68t-105 -53.5t-103.5 -24q-38 0 -61 28t-23 64
q0 69 51 148t129.5 142.5t179 105.5t191.5 42q94 0 154.5 -42.5t60.5 -82.5q0 -12 -11 -23.5t-22 -11.5q-10 0 -22.5 15t-20.5 35q-26 67 -121 67q-58 0 -144 -45.5t-161 -109t-128.5 -135.5t-53.5 -121q0 -13 7 -23t17 -10q63 0 185.5 78t193.5 151q87 90 111 137l1 5
q2 4 4.5 8.5l5 9t7 7.5t8.5 3t13.5 -5.5t13.5 -10.5q24 -35 24 -82q0 -31 -19.5 -71t-43.5 -40q-4 0 -9.5 -6t-14.5 -20.5t-18 -30.5t-23 -43.5t-26.5 -52t-32.5 -63.5t-36 -70q238 74 398 196q13 21 49 71t54.5 85t18.5 61zM31 -516q112 171 229 379q-273 -64 -433 -131
t-319 -187q-96 -72 -162.5 -190t-66.5 -199q0 -57 44.5 -96t111.5 -39q121 0 299 140.5t297 322.5zM195 -831q0 -55 36 -92.5t103 -37.5q82 0 228 111.5t274 280.5q67 90 145 215t125 213q-314 -102 -531 -221q-172 -95 -276 -224t-104 -245z" />
    <glyph glyph-name="jg" unicode="jg" horiz-adv-x="1230" 
d="M537 -547q-138 -219 -299.5 -353t-305.5 -134q-100 0 -154 48t-54 142q0 112 75.5 225t167.5 185q37 30 56 44t86 55t135 73t188 77.5t262 88.5q41 79 89 176t61 123q0 1 1 3t1 3q0 2 -6 2q-10 -9 -27 -24t-67 -53.5t-96.5 -68t-105.5 -53.5t-104 -24q-38 0 -61 28
t-23 64v14q-157 -113 -422 -194q-131 -252 -253 -445q-140 -223 -330.5 -378.5t-349.5 -155.5q-101 0 -171.5 68.5t-70.5 166.5q0 103 69.5 216t188.5 202q171 129 341 197t486 141l187 342q22 39 22 82q0 2 -1 14t-1 23q0 32 42.5 92.5t76.5 60.5q20 0 38.5 -26t18.5 -47
q0 -22 -10 -37q-55 -102 -148.5 -271.5t-111.5 -201.5q238 72 405 202q2 0 7 5q28 87 113 172.5t201 140.5t224 55q94 0 154.5 -42.5t60.5 -82.5q0 -12 -10.5 -23.5t-21.5 -11.5q-10 0 -22.5 15t-20.5 35q-26 67 -121 67q-78 0 -195.5 -74.5t-205 -173.5t-87.5 -164
q0 -12 7.5 -22t17.5 -10q63 0 185.5 78t193.5 151q85 87 110 137l2 5q2 4 4 8.5t5 9t7.5 7.5t8.5 3t13.5 -5.5t13.5 -10.5q24 -34 24 -82q0 -31 -19.5 -71t-43.5 -40q-5 0 -14 -11.5t-25 -41t-30 -56.5t-42.5 -83t-48.5 -95q241 75 412 207q12 8 18.5 38.5t17.5 39.5
q3 2 11.5 9.5t12.5 10t10.5 7t11.5 6.5t10 2q7 0 14.5 -6.5t7.5 -16.5q0 -26 -29 -61t-65 -64q-171 -135 -453 -219q-111 -211 -249 -434zM-948 -453q-97 -73 -158 -179.5t-61 -201.5q0 -60 46 -102.5t111 -42.5q123 0 295 138.5t293 322.5q183 275 246 389
q-276 -64 -444.5 -134t-327.5 -190zM442 -518q144 220 230 373q-199 -61 -356.5 -133.5t-258 -143t-166.5 -145t-93 -139.5t-27 -128q0 -52 35.5 -89.5t89.5 -37.5q118 0 270.5 128t275.5 315zM328 756q37 -53 37 -92q0 -29 -25.5 -60t-52.5 -31q-22 0 -43 24t-21 44
q0 15 6.5 29.5t22 36t18.5 26.5q2 5 4 15.5t2 11.5q4 14 25 14q5 0 9 -2t6.5 -4t6 -6t5.5 -6z" />
    <glyph glyph-name="jx" unicode="jx" horiz-adv-x="1087" 
d="M-948 -453q-97 -73 -158 -179.5t-61 -201.5q0 -60 46 -102.5t111 -42.5q123 0 295 138.5t293 322.5q183 275 246 389q-276 -64 -444.5 -134t-327.5 -190zM506 223q-6 50 -14.5 82t-21.5 60.5t-13 29.5q-6 16 -34 36.5t-28 41.5q0 22 21.5 38.5t46.5 16.5q74 0 102 -100
q17 -68 29 -152q134 94 160 152q3 6 5.5 31t16.5 43q41 47 90 47q17 0 32 -11.5t15 -25.5q0 -25 -51 -82q-56 -64 -108 -106.5t-150 -108.5q8 -78 35 -122t84 -44q79 0 184 48.5t172 111.5q11 10 16 27t17 26q31 25 41 25q4 0 9 -6.5t5 -12.5q0 -33 -80 -92
q-113 -83 -213 -130.5t-206 -47.5q-38 0 -66 15t-44 42.5t-25 54t-15 60.5q-228 -172 -584 -270q-131 -252 -253 -445q-140 -223 -330.5 -378.5t-349.5 -155.5q-101 0 -171.5 68.5t-70.5 166.5q0 103 69.5 216t188.5 202q171 129 341 197t486 141l187 342q22 39 22 82
q0 2 -1 14t-1 23q0 32 42.5 92.5t76.5 60.5q20 0 38.5 -26t18.5 -47q0 -22 -10 -37q-55 -102 -148.5 -271.5t-111.5 -201.5q188 57 291.5 108.5t257.5 171.5zM328 756q37 -53 37 -92q0 -29 -25.5 -60t-52.5 -31q-22 0 -43 24t-21 44q0 15 6.5 29.5t22 36t18.5 26.5
q2 5 4 15.5t2 11.5q4 14 25 14q5 0 9 -2t6.5 -4t6 -6t5.5 -6z" />
    <glyph glyph-name="jy" unicode="jy" horiz-adv-x="1222" 
d="M471 352q0 34 11.5 64t23 46t33.5 42q28 28 51 28q19 0 37 -31.5t18 -51.5q0 -22 -10 -37l-57.5 -92t-93 -153t-40.5 -81t10 -18.5t21 -6.5q63 0 225 117q190 138 263 256q6 10 15 26t15 25.5t13.5 20t14 15.5t13.5 5q22 0 40 -35.5t18 -58.5q0 -35 -22.5 -73t-51.5 -44
q-33 -7 -64 -75q-31 -67 -149 -293q235 73 403 203q12 8 21 40t20 41q41 33 58 33q11 0 14 -24q0 -20 -29 -57t-71 -68q-198 -146 -443 -219q-135 -257 -246 -435q-139 -222 -308.5 -357.5t-329.5 -135.5q-85 0 -138 53t-53 148q0 15 5 42t27 84.5t58 112.5q45 69 131 143.5
t197 135.5q174 97 571 225q27 50 69.5 127t71 130.5t50.5 98.5l-2 6q-1 0 -39 -29.5t-96 -72t-122.5 -85t-130 -72t-108.5 -29.5q-29 0 -47.5 19t-18.5 48v17q-148 -98 -385 -170q-131 -252 -253 -445q-140 -223 -330.5 -378.5t-349.5 -155.5q-101 0 -171.5 68.5
t-70.5 166.5q0 103 69.5 216t188.5 202q171 129 341 197t486 141l187 342q22 39 22 82q0 2 -1 14t-1 23q0 32 42.5 92.5t76.5 60.5q20 0 38.5 -26t18.5 -47q0 -22 -10 -37q-55 -102 -148.5 -271.5t-111.5 -201.5q240 73 391 192q13 22 49 71.5t55 84.5t19 61zM-948 -453
q-97 -73 -158 -179.5t-61 -201.5q0 -60 46 -102.5t111 -42.5q123 0 295 138.5t293 322.5q183 275 246 389q-276 -64 -444.5 -134t-327.5 -190zM-250 -829q0 -55 36 -92t103 -37q83 0 228.5 111t273.5 280q67 90 146 216t125 212q-314 -102 -531 -221q-172 -95 -276.5 -224
t-104.5 -245zM328 756q37 -53 37 -92q0 -29 -25.5 -60t-52.5 -31q-22 0 -43 24t-21 44q0 15 6.5 29.5t22 36t18.5 26.5q2 5 4 15.5t2 11.5q4 14 25 14q5 0 9 -2t6.5 -4t6 -6t5.5 -6z" />
    <glyph glyph-name="ks" unicode="ks" horiz-adv-x="1466" 
d="M1243 541q14 0 30.5 -21t16.5 -39q0 -21 -40 -58.5t-70 -37.5q-11 0 -23 6q27 -79 27 -160q0 -133 -123 -206q100 17 207.5 63t183.5 115q11 10 16 27t17 26q30 27 47 27q4 0 8 -6.5t4 -14.5q0 -28 -84 -96q-107 -87 -243 -135.5t-277 -48.5q-38 0 -68.5 4t-59.5 14.5
t-47.5 32t-23.5 53.5q-125 -92 -276 -92q-63 0 -115.5 24.5t-82 60t-45 71t-15.5 63.5q0 15 10.5 29t22.5 14q13 0 34.5 -7t32.5 -7q55 0 123 48t68 101q0 35 -29 35q-55 0 -164 -74.5t-210.5 -173.5t-143.5 -170q-8 -14 -25 -14q-15 0 -28 18t-13 51q0 11 17.5 45.5
t51.5 94.5t46 82q22 41 240.5 399t224.5 369q33 56 33 88q0 1 -1 12t-1 21q0 48 59 118q36 41 59 41q16 0 37 -33t21 -53q0 -22 -10 -37q-6 -11 -57.5 -91t-76.5 -122q-124 -204 -287 -479t-175 -299q0 -10 4 -10l20 17q20 17 53 44.5t74.5 60t88.5 65.5t92 60.5t87.5 44.5
t71.5 17q32 0 55 -18.5t23 -46.5q0 -98 -100 -180.5t-199 -82.5q-8 0 -8 -20q0 -46 52 -85.5t128 -39.5q115 0 231 76q3 58 51.5 112t90.5 54q13 0 23.5 -8.5t13.5 -20.5q41 20 90 65.5t90 102.5q36 50 79 82.5t66 32.5zM1102 307q0 41 -2 64q-76 -90 -172 -148
q-3 -48 -41.5 -87.5t-87.5 -39.5q-17 0 -25 2q0 -9 8.5 -21.5t34.5 -25t62 -12.5q71 0 147 89t76 179z" />
    <glyph glyph-name="kz" unicode="kz" horiz-adv-x="1355" 
d="M938 516q4 0 54.5 -11t113.5 -22.5t98 -11.5q41 0 74 11.5t50.5 23.5t19.5 12q9 0 18.5 -12.5t9.5 -24.5q0 -16 -30 -37q-79 -52 -231.5 -119t-201.5 -96q-44 -26 -73 -54t-38 -44t-9 -25q0 -16 6 -16l8 4q38 23 70 23q35 0 125 -45t128 -45q30 0 35 22q3 12 12 20.5
t21 8.5q9 0 20 -8.5t11 -18.5q0 -32 -44 -47.5t-87 -15.5q-66 0 -152 30.5t-112 30.5q-59 0 -107 -45q-14 -14 -27 -14q-10 0 -19.5 13.5t-10.5 39.5q-91 -51 -201 -51q-64 0 -117 24.5t-83 61t-46 72t-16 63.5q0 15 10.5 29t22.5 14q13 0 34.5 -7t32.5 -7q55 0 123 48
t68 101q0 35 -29 35q-55 0 -164 -74.5t-210.5 -173.5t-143.5 -170q-8 -14 -25 -14q-15 0 -28 18t-13 51q0 11 17.5 45.5t51.5 94.5t46 82q22 41 240.5 399t224.5 369q33 56 33 88q0 1 -1 12t-1 21q0 48 59 118q36 41 59 41q16 0 37 -33t21 -53q0 -22 -10 -37
q-6 -11 -57.5 -91t-76.5 -122q-124 -204 -287 -479t-175 -299q0 -10 4 -10l20 17q20 17 53 44.5t74.5 60t88.5 65.5t92 60.5t87.5 44.5t71.5 17q32 0 55 -18.5t23 -46.5q0 -98 -100 -180.5t-199 -82.5q-8 0 -8 -20q0 -45 54.5 -86t135.5 -41q90 0 154 35q11 50 71 113.5
t170 115.5q60 28 186 74.5t163 69.5q-53 -13 -93 -13q-27 0 -60 3t-40 3q-14 0 -18 -4q-37 -30 -62 -30q-34 0 -84.5 7.5t-50.5 22.5q0 29 28 52.5t56 23.5z" />
    <glyph glyph-name="px" unicode="px" horiz-adv-x="1441" 
d="M121 29q52 0 146 66.5t159 142.5q-78 0 -163 -29t-140 -71.5t-55 -80.5q0 -28 53 -28zM8 158q-1 -1 1.5 -2.5t4.5 -1.5q52 52 115.5 108t142 117.5t153.5 101t124 39.5q36 0 61 -29t25 -69q0 -76 -64 -170q45 0 93.5 -23.5t48.5 -60.5q0 -7 -5 -11.5t-10 -4.5
q-15 0 -55 32q-10 8 -14 18.5t-17 12.5q-32 7 -61 10q-178 -237 -401 -237q-117 0 -117 71q0 17 14.5 41t48 53t80 53.5t118.5 41t155 16.5q94 124 94 174q0 16 -7 28.5t-18 12.5q-55 0 -225.5 -131.5t-255.5 -218.5q-79 -83 -96 -109q-116 -186 -293.5 -506.5
t-278.5 -531.5q-5 -11 -14 -31t-15.5 -34t-14.5 -29t-16 -23t-16 -8t-20 15q-39 49 -39 71q0 19 14 41q63 105 164.5 284t234 417t199.5 356q9 17 70 124t66 118q24 50 24 71q0 4 -2 15t-2 20t2.5 18t5 15.5t9.5 16.5t11 15.5t14.5 19t16.5 20.5q21 30 48 30
q16 0 35.5 -33.5t19.5 -54.5q0 -22 -10 -37q-23 -49 -83.5 -143t-62.5 -98zM1075 45q79 0 184.5 48.5t172.5 111.5q11 10 15.5 27t16.5 26q31 25 41 25q5 0 10 -6.5t5 -12.5q0 -33 -80 -92q-113 -83 -213.5 -130.5t-206.5 -47.5q-38 0 -66 15t-44 42.5t-25 54t-15 60.5
q-240 -172 -340 -172q-30 0 -53.5 10.5t-23.5 34.5q0 37 28 37q19 0 29 -10.5t10 -22.5q0 -14 29 -14q38 0 137 57.5t176 134.5q-6 50 -16 82.5t-22.5 57t-14.5 30.5q-6 16 -33.5 36.5t-27.5 41.5q0 22 21.5 38.5t45.5 16.5q41 0 66.5 -30t36.5 -70q15 -59 28 -152
q134 94 160 152q3 6 5.5 31t16.5 43q41 47 91 47q17 0 32 -11.5t15 -25.5q0 -24 -52 -82q-56 -64 -108 -106.5t-150 -108.5q8 -78 35 -122t84 -44z" />
    <glyph glyph-name="qf" unicode="qf" horiz-adv-x="1384" 
d="M260 -496q19 32 19 56q0 5 -3.5 15t-3.5 15q0 59 36.5 114.5t92.5 55.5q31 0 31 -18q0 -21 -13.5 -53.5t-29 -58.5t-42 -69t-36.5 -61q-49 -84 -128.5 -189t-165 -207.5t-101.5 -123.5q-13 -20 -31 -20q-21 0 -35 25.5t-14 56.5q0 49 66 221t166 370q87 171 158 294.5
t107 176.5t85 117q2 10 2 12q-2 0 -8 -6q-87 -81 -206 -158t-196 -77q-35 0 -58.5 26t-23.5 66q0 68 52 147t130.5 142t176.5 105t184 42q99 0 158 -43t59 -88q0 -10 -7.5 -18.5t-18.5 -8.5q-25 0 -41 41q-28 74 -123 74q-78 0 -197 -78t-207 -177.5t-88 -158.5
q0 -28 41 -28q42 0 167.5 82.5t193.5 150.5q37 37 63.5 70t43 58t17.5 26t5 6t7 7.5t8 5.5t9 3q9 0 21 -16q30 -43 30 -82q0 -38 -21.5 -82.5t-55.5 -52.5q-52 -15 -144.5 -162t-247.5 -459q-123 -247 -196 -489q120 122 179 200.5t134 202.5zM1034 57q2 -8 2 -28
q0 -77 -52 -220.5t-128 -286t-175.5 -248t-182.5 -105.5q-61 0 -97 48t-36 107q0 275 415 957q76 124 208 316t165 247q31 52 42.5 85.5t13.5 62t8 46.5q21 69 76 120.5t116 51.5q20 0 38.5 -7t18.5 -17q0 -17 -22 -49q-222 -319 -584 -901q-184 -294 -296.5 -544
t-112.5 -378q0 -39 20 -66.5t45 -27.5q58 0 140 88t153 212t121.5 267.5t50.5 245.5q0 52 -12.5 90.5t-25.5 66.5t-13 54q0 24 9.5 46.5t25.5 22.5q28 0 64 -54.5t36 -86.5q0 -10 -4 -25t-4 -22q0 -26 40.5 -56t80.5 -30q54 0 104.5 29.5t87.5 81.5q6 8 11 26t16 29
q40 35 53 35q16 0 16 -27q0 -17 -14 -35t-59 -63q-109 -109 -215 -109q-74 0 -144 51z" />
    <glyph glyph-name="qp" unicode="qp" horiz-adv-x="1509" 
d="M229 -455q13 26 13 56q0 9 -9.5 25.5t-9.5 33.5q0 58 29.5 108t81.5 50q26 0 26 -25q0 -27 -12 -65t-36 -95.5t-31 -78.5q-20 -55 -52.5 -117t-63 -111.5t-73.5 -111t-68 -94.5t-63.5 -82.5t-44.5 -57.5q-13 -20 -31 -20q-21 0 -35 25.5t-14 56.5q0 49 66 221t166 370
q87 171 158 294.5t107 176.5t85 117q2 10 2 12q-2 0 -8 -6q-87 -81 -206 -158t-196 -77q-35 0 -58.5 26t-23.5 66q0 68 52 147t130.5 142t176.5 105t184 42q99 0 158 -43t59 -88q0 -10 -7.5 -18.5t-18.5 -8.5q-25 0 -41 41q-28 74 -123 74q-78 0 -197 -78t-207 -177.5
t-88 -158.5q0 -28 41 -28q42 0 167.5 82.5t193.5 150.5q37 37 63.5 70t43 58t17.5 26t5 6t7 7.5t8 5.5t9 3q9 0 21 -16q30 -43 30 -82q0 -38 -21.5 -82.5t-55.5 -52.5q-52 -15 -144.5 -162t-247.5 -459q-123 -247 -196 -489q51 58 92 112t65.5 88.5t48.5 79.5t32 61t25 57.5
t19 45.5zM922 31q52 0 146 66.5t159 142.5q-78 0 -163 -29t-140.5 -71.5t-55.5 -80.5q0 -28 54 -28zM809 160q-1 -1 1.5 -2.5t4.5 -1.5q52 52 115.5 108t142 117.5t153.5 101t124 39.5q36 0 60 -29t24 -69q0 -76 -64 -170q51 -8 129 -51t78 -82q0 -7 -4.5 -13t-9.5 -6
q-12 0 -43 25q-11 8 -19.5 26t-21.5 25q-68 39 -129 51q-180 -239 -400 -239q-116 0 -116 71q0 17 14.5 41t48 53t79.5 53.5t118 41t155 16.5q94 124 94 174q0 16 -6.5 28.5t-17.5 12.5q-55 0 -225.5 -131.5t-255.5 -218.5q-9 -9 -28.5 -29.5t-28.5 -30t-21 -23.5t-19 -25
q-116 -185 -307 -531.5t-293 -558.5q-3 -6 -21 -48.5t-30 -59.5t-24 -17q-10 0 -21 14q-39 49 -39 72q0 19 14 41q63 105 171.5 296.5t249 443t206.5 368.5q9 16 69.5 123.5t65.5 118.5q25 52 25 71q0 4 -2 15t-2 20t2.5 18t5 15.5t9.5 16.5t11 15.5t14.5 19t16.5 20.5
q21 30 47 30q16 0 36 -33.5t20 -54.5q0 -20 -11 -37q-23 -49 -83 -143t-62 -98z" />
    <glyph glyph-name="qy" unicode="qy" horiz-adv-x="1538" 
d="M836 -545q-136 -216 -303 -352.5t-304 -136.5q-89 0 -144 42.5t-67 119.5q-70 -90 -94 -148q-9 -20 -30 -20t-35.5 25.5t-14.5 56.5q0 37 65.5 221t158.5 370q85 172 158 298t106 173t86 117q2 10 2 12q-2 0 -8 -6q-87 -81 -206 -158t-196 -77q-35 0 -58.5 26t-23.5 66
q0 68 52 147t130.5 142t176.5 105t184 42q99 0 158 -43t59 -88q0 -10 -7.5 -18.5t-18.5 -8.5q-25 0 -41 41q-28 74 -123 74q-78 0 -197 -78t-207 -177.5t-88 -158.5q0 -28 41 -28q42 0 167.5 82.5t193.5 150.5q37 37 63.5 70t43 58t17.5 26t5 6t7 7.5t8 5.5t9 3q9 0 21 -16
q30 -43 30 -82q0 -38 -21.5 -82.5t-55.5 -52.5q-52 -15 -144.5 -162t-247.5 -459q-139 -279 -200 -481q22 32 75 88q9 68 64.5 167.5t148.5 174.5q165 132 312.5 201.5t455.5 165.5q149 278 187 356l-2 6q-1 0 -37.5 -29.5t-92.5 -71.5t-118.5 -84t-126.5 -71.5t-107 -29.5
q-29 0 -48 18t-19 47q0 42 21.5 87.5t48 78t48 69.5t21.5 64q0 34 11.5 64t23 46t33.5 42q28 28 51 28q19 0 37 -32t18 -52q0 -21 -10 -36q-4 -7 -56.5 -91.5t-93 -153.5t-40.5 -81t9.5 -18.5t20.5 -6.5q64 0 226 117q188 137 262 256q6 10 15 26t15 25.5t13.5 20t14 15.5
t13.5 5q22 0 40 -35.5t18 -58.5q0 -35 -22.5 -73t-51.5 -44q-32 -7 -64 -76q-27 -59 -149 -292q238 74 403 202q12 8 24.5 42.5t23.5 43.5q41 33 57 33q7 0 13.5 -6t6.5 -16q0 -20 -32 -61.5t-74 -72.5q-171 -126 -445 -208q-146 -278 -249 -443zM748 -512q109 167 223 373
q-289 -98 -413 -159.5t-292 -188.5q-71 -53 -122 -126t-72 -137q98 94 178 154q131 99 207 125q25 8 51 8q16 -4 16 -22q0 -59 -50.5 -98.5t-106.5 -39.5q-3 0 -18 4.5t-23 4.5t-43 -21q-115 -74 -222 -190q6 -63 40.5 -100.5t88.5 -37.5q116 0 276 134t282 317z" />
    <glyph glyph-name="tt" unicode="tt" horiz-adv-x="716" 
d="M862 897q100 0 160 29q17 8 25 14.5t13.5 14.5t10.5 12q25 22 47 22q23 0 23 -28q0 -13 -11 -21q-68 -40 -124.5 -56t-163.5 -16q-29 -45 -98.5 -151t-116.5 -180.5t-90 -151.5q-56 -98 -112.5 -221t-62.5 -156q-3 -18 -16 -18q-19 0 -43 25.5t-24 41.5q0 11 68 141.5
t128 233.5q67 114 281 440q-119 8 -277 33q-37 -60 -148.5 -235t-170.5 -285q-56 -103 -112 -224.5t-62 -152.5q-3 -18 -17 -18q-20 0 -43.5 24.5t-23.5 42.5q0 11 68 141.5t128 233.5q54 90 163 258t145 228q-70 8 -87 8q-56 0 -88 -37q-34 -37 -135 -37q-13 0 -20.5 7.5
t-7.5 17.5q0 11 10 38q11 32 64 47t116 15q27 0 55 -3t64.5 -9t56.5 -9q60 98 79 139.5t19 69.5q0 2 -1 11t-1 18q0 51 66 129q18 23 49 23q25 0 55 -62q5 -8 5 -18q0 -20 -11 -37q-29 -50 -96.5 -143.5t-97.5 -143.5q130 -26 276 -41q101 164 144 245t43 118q0 3 -2.5 10.5
t-2.5 11.5q0 43 62 135q15 23 45 23q21 0 57 -62q6 -9 6 -22q0 -21 -8 -33q-22 -44 -60.5 -109t-107 -175t-90.5 -146z" />
    <glyph glyph-name="yg" unicode="yg" horiz-adv-x="1648" 
d="M481 -367q100 70 226 124t409 155q41 79 89 176t61 123q0 1 1 3t1 3q0 2 -6 2q-10 -9 -27 -24.5t-67 -54.5t-96.5 -69t-105.5 -54.5t-104 -24.5q-42 0 -64 28t-22 66v14q-165 -121 -428 -200q-114 -216 -256 -445q-140 -223 -330.5 -378.5t-349.5 -155.5
q-101 0 -171 68.5t-70 166.5q0 103 69.5 216t188.5 202q170 128 342.5 196t492.5 142q25 47 68 125t70 128.5t49 96.5l-2 6q-1 0 -37.5 -29.5t-92.5 -71.5t-118.5 -84t-126.5 -71.5t-107 -29.5q-29 0 -48 18t-19 47q0 42 21.5 87.5t48 78t48 69.5t21.5 64q0 34 11 64
t22.5 46t33.5 42q28 28 52 28q19 0 37 -32t18 -52q0 -21 -10 -36l-57.5 -92t-93 -153t-40.5 -81t10 -18.5t21 -6.5q63 0 225 117q188 137 262 256q6 9 15.5 25.5t15.5 26t13.5 20t14 15.5t13.5 5q22 0 39.5 -35.5t17.5 -58.5q0 -35 -22 -73t-51 -44q-32 -7 -64 -76
q-27 -59 -149 -292q238 74 403 202q7 4 10 9q28 85 114 171t204 142.5t225 56.5q94 0 154.5 -40.5t60.5 -80.5q0 -12 -11 -23t-22 -11q-10 0 -22.5 14.5t-20.5 34.5q-13 35 -41 49t-79 14q-78 0 -196 -73.5t-206 -172t-88 -163.5q0 -13 7.5 -25t17.5 -12q62 0 185.5 80.5
t195.5 154.5q84 86 110 138l2 4q2 5 4 9t5 8.5t7.5 7.5t8.5 3q3 0 12.5 -5t13.5 -11q25 -36 25 -82q0 -33 -17.5 -79t-41.5 -46q-13 0 -50.5 -64.5t-111.5 -207.5q108 34 201.5 79.5t129 70t78.5 57.5q12 8 19 38t18 39q3 2 11.5 9.5t12.5 10t10.5 7t11.5 6.5t10 2
q7 0 14.5 -6t7.5 -16q0 -26 -29 -61t-65 -64q-169 -134 -455 -219q-120 -228 -248 -435q-137 -217 -304.5 -356t-305.5 -139q-90 0 -147.5 49.5t-57.5 128.5q0 129 79 247t259 242zM4 -512q162 247 238 385q-261 -59 -439.5 -132t-339.5 -194q-96 -72 -157.5 -176
t-61.5 -188q0 -74 46 -119t118 -45q118 0 297 144.5t299 324.5zM410 -473q-83 -63 -151.5 -161t-68.5 -193q0 -61 33.5 -98.5t91.5 -37.5q96 0 264.5 138t284.5 315q152 233 230 371q-220 -81 -364 -147.5t-194.5 -98.5t-125.5 -88z" />
    <glyph glyph-name="yj" unicode="yj" horiz-adv-x="1183" 
d="M39 346q0 34 11 64t22.5 46t33.5 42q28 28 52 28q19 0 40 -29t21 -48q0 -30 -49 -111.5t-98 -158.5t-49 -97q0 -27 20 -27q63 0 225 117q188 137 262 256q6 9 15.5 25.5t15.5 26t13.5 20t14 15.5t13.5 5q28 0 45 -34.5t17 -59.5q0 -34 -24.5 -74.5t-53.5 -46.5
q-34 -7 -64 -72q-27 -59 -149 -292q220 68 391 192l65 121q23 41 23 82q0 2 -1 14t-1 23q0 32 42.5 92.5t76.5 60.5q20 0 38.5 -26t18.5 -47q0 -22 -10 -37q-55 -102 -148.5 -271.5t-111.5 -201.5q238 72 405 202q12 8 21 40.5t20 41.5q41 33 53 33q21 0 21 -27
q0 -19 -27.5 -55.5t-66.5 -64.5q-185 -134 -449 -213q-126 -243 -254 -445q-140 -223 -330.5 -378.5t-349.5 -155.5q-89 0 -166 67q-118 -67 -221 -67q-101 0 -168 68t-67 167q0 104 67.5 217t184.5 201q170 128 342.5 196t492.5 142q25 47 68 125t70 128.5t49 96.5l-2 6
q-1 0 -37.5 -29.5t-92.5 -71.5t-118.5 -84t-126.5 -71.5t-107 -29.5q-29 0 -48 18t-19 47q0 42 21.5 87.5t48 78t48 69.5t21.5 64zM-227 -418q145 105 409 189l58 100q-262 -59 -439.5 -131.5t-337.5 -192.5q-96 -72 -157.5 -176t-61.5 -188q0 -74 46 -119t118 -45
q66 0 164 53q-29 60 -29 117q0 107 57 208.5t173 184.5zM377 -518q130 196 229 375q-112 -34 -332 -107q-24 -43 -53.5 -92.5t-68.5 -112t-56 -90.5q-75 -121 -173.5 -229.5t-201.5 -183.5q35 -21 68 -21q123 0 295 138.5t293 322.5zM-356 -883q78 54 149 121.5t133.5 148
t111.5 154t107 170.5q-246 -85 -338 -155q-94 -73 -142 -166.5t-48 -190.5q0 -36 27 -82zM354 -100l-51 -95q54 16 340 107l84 154q-176 -107 -373 -166zM1126 756q37 -53 37 -92q0 -29 -25.5 -60t-52.5 -31q-22 0 -42.5 24t-20.5 44q0 15 6.5 29.5t22 36t18.5 26.5
q2 5 4 15.5t2 11.5q3 14 25 14q5 0 9 -2t6 -4t5.5 -6t5.5 -6z" />
    <glyph glyph-name="yx" unicode="yx" horiz-adv-x="1503" 
d="M-537 -453q-96 -72 -157.5 -176t-61.5 -188q0 -74 46 -119t118 -45q118 0 297 144.5t299 324.5q162 247 238 385q-261 -59 -439.5 -132t-339.5 -194zM920 221q-6 50 -15 82t-21.5 59.5t-13.5 30.5q-6 16 -33.5 36.5t-27.5 41.5q0 22 21.5 38.5t46.5 16.5q74 0 102 -100
q17 -68 29 -152q133 93 159 152q3 6 5.5 31t17.5 43q41 47 90 47q17 0 32 -11.5t15 -25.5q0 -25 -51 -82q-56 -64 -108 -106.5t-150 -108.5q8 -78 35 -122t84 -44q79 0 184 48.5t172 111.5q11 10 16 27t17 26q31 25 41 25q4 0 9 -6.5t5 -12.5q0 -33 -80 -92
q-113 -83 -213.5 -130.5t-206.5 -47.5q-38 0 -65.5 15t-44 42.5t-25 53.5t-14.5 61q-150 -109 -258 -156t-326 -112q-114 -216 -256 -445q-140 -223 -330.5 -378.5t-349.5 -155.5q-101 0 -171 68.5t-70 166.5q0 103 69.5 216t188.5 202q170 128 342.5 196t492.5 142
q25 47 68 125t70 128.5t49 96.5l-2 6q-1 0 -37.5 -29.5t-92.5 -71.5t-118.5 -84t-126.5 -71.5t-107 -29.5q-29 0 -48 18t-19 47q0 42 21.5 87.5t48 78t48 69.5t21.5 64q0 34 11 64t22.5 46t33.5 42q28 28 52 28q19 0 37 -32t18 -52q0 -21 -10 -36l-57.5 -92t-93 -153
t-40.5 -81t10 -18.5t21 -6.5q63 0 225 117q188 137 262 256q6 9 15.5 25.5t15.5 26t13.5 20t14 15.5t13.5 5q22 0 39.5 -35.5t17.5 -58.5q0 -35 -22 -73t-51 -44q-32 -7 -64 -76q-20 -44 -149 -290q181 55 306.5 116.5t240.5 161.5z" />
    <glyph glyph-name="yy" unicode="yy" horiz-adv-x="1640" 
d="M39 346q0 34 11 64t22.5 46t33.5 42q28 28 52 28q19 0 37 -32t18 -52q0 -21 -10 -36l-57.5 -92t-93 -153t-40.5 -81t10 -18.5t21 -6.5q63 0 225 117q188 137 262 256q6 9 15.5 25.5t15.5 26t13.5 20t14 15.5t13.5 5q22 0 39.5 -35.5t17.5 -58.5q0 -35 -22 -73t-51 -44
q-32 -7 -64 -76q-27 -59 -149 -292q233 72 377 186q15 24 52.5 73t60 86.5t22.5 63.5q0 34 11 64t22.5 46t33.5 42q28 28 52 28q19 0 37 -32t18 -52q0 -21 -10 -36q-2 -3 -55 -90t-91.5 -154.5t-38.5 -79.5q0 -13 7.5 -20t17.5 -7q63 0 225 117q188 137 262 256
q6 9 15.5 25.5t15.5 26t13.5 20t14 15.5t13.5 5q22 0 39.5 -35.5t17.5 -58.5q0 -35 -22 -73t-51 -44q-33 -7 -64 -75q-31 -67 -149 -293q238 74 403 202q12 8 21 40.5t20 41.5q41 33 57 33q7 0 12 -6t5 -16q0 -45 -55 -96.5t-144.5 -98.5t-173.5 -83t-172 -68
q-135 -257 -246 -435q-139 -221 -309 -357t-330 -136q-85 0 -137.5 52.5t-52.5 147.5q0 15 5 42t27 85t58 113q45 69 131 143.5t197 135.5q174 97 571 225q25 46 69 126.5t71.5 132t49.5 97.5l-2 6q-1 0 -39 -29.5t-95.5 -72t-122 -85t-130 -72t-108.5 -29.5q-30 0 -48 17
t-18 46q0 13 2 21q-150 -98 -387 -168q-114 -216 -256 -445q-140 -223 -330.5 -378.5t-349.5 -155.5q-101 0 -171 68.5t-70 166.5q0 103 69.5 216t188.5 202q170 128 342.5 196t492.5 142q25 47 68 125t70 128.5t49 96.5l-2 6q-1 0 -37.5 -29.5t-92.5 -71.5t-118.5 -84
t-126.5 -71.5t-107 -29.5q-29 0 -48 18t-19 47q0 42 21.5 87.5t48 78t48 69.5t21.5 64zM-537 -453q-96 -72 -157.5 -176t-61.5 -188q0 -74 46 -119t118 -45q118 0 297 144.5t299 324.5q162 247 238 385q-261 -59 -439.5 -132t-339.5 -194zM164 -831q0 -55 36 -92.5
t103 -37.5q82 0 228 111.5t274 280.5q67 90 145 215t125 213q-311 -101 -530 -221q-172 -95 -276.5 -224t-104.5 -245z" />
    <glyph glyph-name="zx" unicode="zx" horiz-adv-x="1275" 
d="M299 45q86 0 173.5 37t219.5 137q-6 50 -14.5 82t-21.5 60.5t-13 29.5q-6 16 -33.5 36.5t-27.5 41.5q0 22 21.5 38.5t45.5 16.5q41 0 66.5 -30t36.5 -70q15 -59 28 -152q134 94 160 152q3 6 5.5 31t17.5 43q41 47 90 47q17 0 32 -11.5t15 -25.5q0 -25 -51 -82
q-56 -64 -108 -106.5t-150 -108.5q9 -78 35 -122t83 -44q79 0 184.5 48.5t172.5 111.5q11 10 15.5 27t16.5 26q31 25 41 25q5 0 10 -6.5t5 -12.5q0 -33 -80 -92q-113 -83 -213.5 -130.5t-206.5 -47.5q-38 0 -65.5 15t-44 42.5t-25 53.5t-14.5 61q-100 -70 -224 -121
q-125 -51 -225 -51q-72 0 -127.5 14t-91 27.5t-60.5 13.5q-62 0 -110 -45q-14 -14 -27 -14q-12 0 -21 18.5t-9 52.5q0 47 61 118t182 128q60 28 185.5 74.5t162.5 69.5q-53 -13 -92 -13q-27 0 -60 3t-40 3q-15 0 -19 -4q-37 -30 -61 -30q-34 0 -84.5 7.5t-50.5 22.5
q0 29 28 52.5t56 23.5q171 -45 266 -45q41 0 74 11.5t50 23.5t19 12q9 0 19 -12.5t10 -24.5q0 -15 -31 -37q-79 -52 -231 -119t-201 -96q-44 -26 -73.5 -54t-38.5 -44t-9 -25q0 -14 5 -14q6 0 14 8q35 23 65 23q20 0 61 -19.5t100 -39t122 -19.5z" />
    <glyph glyph-name=".notdef" horiz-adv-x="606" 
 />
    <glyph glyph-name=".null" horiz-adv-x="0" 
 />
    <glyph glyph-name=".null" horiz-adv-x="0" 
 />
    <glyph glyph-name="nonmarkingreturn" horiz-adv-x="682" 
 />
    <glyph glyph-name="CR" unicode="&#xd;" horiz-adv-x="606" 
 />
    <glyph glyph-name="space" unicode=" " horiz-adv-x="606" 
 />
    <glyph glyph-name="exclam" unicode="!" horiz-adv-x="600" 
d="M231 209q-19 -49 -38 -49q-17 0 -43.5 31t-26.5 49q0 16 14 39q29 56 289 475t266 430l6 12l6 12l5 10t5 10.5t3.5 9.5t3.5 10.5t2 9.5t1.5 11t0.5 11q0 2 -1 14t-1 27q0 53 78 152q27 36 69 36q27 0 66 -77q6 -12 6 -27q0 -16 -32.5 -70.5t-84 -131t-53.5 -79.5
q-49 -80 -132 -215.5t-140 -228t-118 -195.5t-99.5 -172.5t-51.5 -103.5zM61 127q38 0 61 -25t23 -51q0 -27 -24 -59.5t-53 -32.5q-18 0 -46 18t-28 31q0 7 5.5 16t16.5 25t19 29q3 5 3.5 19t5 22t17.5 8z" />
    <glyph glyph-name="quotedbl" unicode="&#x22;" horiz-adv-x="319" 
d="M76 1323q22 0 39.5 -14t17.5 -37q-3 -46 -19.5 -115.5t-39.5 -69.5t-41.5 73.5t-18.5 103.5q0 27 18 43t44 16zM244 1323q22 0 39.5 -14t17.5 -37q-3 -46 -19.5 -115.5t-39.5 -69.5t-41.5 73.5t-18.5 103.5q0 27 18 43t44 16z" />
    <glyph glyph-name="numbersign" unicode="#" horiz-adv-x="997" 
d="M846 1245q8 17 49 17q22 0 40.5 -10t18.5 -23q0 -1 -1 -4t-1 -4q-10 -24 -40 -103t-52 -133h178q8 0 14.5 -10.5t6.5 -24.5q0 -32 -18.5 -51.5t-36.5 -19.5h-189l-125 -318h172q8 0 14.5 -9.5t6.5 -25.5q0 -30 -19.5 -50.5t-38.5 -20.5q-13 0 -64 -1t-116 -1l-106 -265
q-3 -7 -16 -12.5t-27 -5.5q-25 0 -45.5 12t-20.5 27q0 1 1 4t1 4q8 29 92 236h-170q-27 -65 -52.5 -132t-37.5 -98.5t-14 -34.5q-11 -18 -45 -18q-21 0 -42.5 12.5t-21.5 26.5q0 1 1 4t1 4q6 21 93 236q-24 0 -57 1t-56.5 2t-24.5 1q-8 0 -13 13t-5 24q0 25 19.5 47t35.5 22
h150l123 314q-159 0 -175 4q-7 1 -12.5 10t-5.5 18q0 29 18.5 53.5t36.5 24.5h185l102 258q6 17 47 17q23 0 42.5 -10t19.5 -23q0 -6 -2 -8l-95 -234q35 0 87 -1t87 -1zM403 563h170l123 314h-172q-27 -63 -67 -170.5t-54 -143.5z" />
    <glyph glyph-name="dollar" unicode="$" horiz-adv-x="802" 
d="M657 498q0 48 -40.5 83.5t-97.5 57.5t-114.5 45t-98 60.5t-40.5 89.5q0 55 34.5 105.5t86.5 84t108.5 55t104.5 25.5q2 11 29 78q9 25 29 31t53 6q37 0 37 -9q0 -5 -8.5 -17.5t-24.5 -37t-29 -49.5q89 -4 146 -40t57 -67q0 -6 -8 -14q-18 -13 -52.5 -59.5t-56.5 -46.5
q-8 0 -20.5 7.5t-12.5 14.5q0 1 11.5 25t11.5 53q0 76 -103 76q-57 0 -121 -21t-114.5 -65t-50.5 -99q0 -24 30.5 -43.5t76 -32.5t99 -35.5t99 -49t76 -76t30.5 -113.5q0 -60 -27 -112.5t-70.5 -90t-97.5 -65t-110.5 -40.5t-107.5 -13q-2 -37 -11.5 -61t-26 -33.5t-28.5 -12
t-31 -2.5q-49 0 -49 12q0 7 28 45t32 52q-106 13 -166 57q-24 14 -47 37.5t-23 42.5q0 10 8 18q21 19 36 41t24 41t12 23q5 8 27 8q9 0 17.5 -7t8.5 -14q0 -5 -7 -30.5t-7 -50.5q0 -59 42.5 -85t108.5 -26q76 0 153.5 31.5t131 89.5t53.5 123z" />
    <glyph glyph-name="percent" unicode="%" horiz-adv-x="1075" 
d="M1040 1165q-126 -142 -499.5 -577.5t-417.5 -489.5q-5 -8 -21 -8q-32 0 -57 19.5t-25 50.5q0 9 7 16q18 23 406.5 476t514.5 597q6 6 17 6q34 0 58 -22t24 -51q0 -10 -7 -17zM98 979q0 103 86.5 182.5t200.5 79.5q85 0 145 -54.5t60 -142.5q0 -103 -84.5 -184.5
t-196.5 -81.5q-85 0 -148 56.5t-63 144.5zM229 991q0 -68 35 -118t76 -50q45 0 79 58t34 137q0 65 -35 113.5t-74 48.5q-47 0 -81 -57.5t-34 -131.5zM528 334q0 103 86.5 182.5t200.5 79.5q85 0 145 -54.5t60 -142.5q0 -103 -84.5 -184.5t-196.5 -81.5q-85 0 -148 56.5
t-63 144.5zM659 346q0 -68 35 -118t76 -50q45 0 79 58t34 137q0 65 -35 113.5t-74 48.5q-47 0 -81 -57.5t-34 -131.5z" />
    <glyph glyph-name="ampersand" unicode="&#x26;" horiz-adv-x="1835" 
d="M899 762q26 0 83 3t93 3q72 0 72 -12q0 -13 -10 -38t-31 -50q-48 -57 -197 -70q-65 -5 -162.5 -39.5t-194 -85.5t-165 -122t-68.5 -140q0 -93 75.5 -142t205.5 -49q403 0 813 406q-128 27 -172 27q-49 0 -82 -41q-5 -11 -14 -11q-5 0 -11 4t-6 9q0 11 5 26
q28 50 67.5 76.5t110.5 26.5q59 0 176.5 -29t154.5 -29q51 0 74 23q6 6 13 6q6 0 12 -4t6 -10q0 -13 -4 -21q-16 -36 -54 -62t-96 -26q-27 0 -125 19q-175 -216 -420.5 -334.5t-527.5 -118.5q-75 0 -137.5 12.5t-116 39.5t-84 76.5t-30.5 117.5q0 82 53 159t135.5 134
t184.5 103.5t199.5 74t180.5 37.5q10 3 10 6q0 4 -8 4q-23 0 -69 -1t-86 -1q-56 0 -100.5 3.5t-93 15.5t-81 31.5t-53.5 54t-21 81.5q0 120 130 224.5t344.5 165.5t453.5 61q93 0 127 -37q29 -33 29 -64q0 -19 -23 -33.5t-56.5 -22t-64 -11.5t-53.5 -4q-40 0 -69 16.5
t-66 20.5q-18 2 -55 2q-112 0 -256.5 -45t-255.5 -123t-111 -158q0 -26 10 -46.5t26.5 -35t46.5 -24t60.5 -15.5t79 -9t92 -4t107.5 -1z" />
    <glyph glyph-name="quotesingle" unicode="'" horiz-adv-x="161" 
d="M82 1298q22 0 39.5 -14t17.5 -37q-3 -45 -19.5 -114.5t-39.5 -69.5t-41.5 73t-18.5 103q0 27 18 43t44 16z" />
    <glyph glyph-name="parenleft" unicode="(" horiz-adv-x="294" 
d="M-133 555q0 232 91 440t247.5 367.5t369.5 277.5q2 2 9 2q5 0 9.5 -7.5t4.5 -12.5q0 -9 -8 -14q-276 -185 -420.5 -476t-144.5 -632q0 -230 63.5 -412t187.5 -268q9 -6 9 -13q0 -6 -5.5 -14t-11.5 -8t-8 2q-182 95 -287.5 306t-105.5 462z" />
    <glyph glyph-name="parenright" unicode=")" horiz-adv-x="491" 
d="M455 872q0 -344 -191.5 -624.5t-517.5 -460.5q-2 -2 -8 -2q-5 0 -9.5 7.5t-4.5 12.5q0 10 8 15q276 185 420.5 476t144.5 632q0 230 -64 412t-188 268q-8 5 -8 12q0 6 5 14t11 8t8 -2q182 -95 288 -306t106 -462z" />
    <glyph glyph-name="asterisk" unicode="*" horiz-adv-x="630" 
d="M573 1333l-200 -110l194 -105q13 -6 13 -20q0 -18 -17.5 -41t-34.5 -23q-2 0 -10 4l-170 136l19 -226q0 -10 -15.5 -16t-32.5 -6q-20 0 -35.5 7t-15.5 21q0 6 8.5 85t8.5 135l-170 -136q-4 -4 -11 -4q-15 0 -35 24.5t-20 41.5q0 12 12 18l203 105l-209 112q-10 7 -10 19
q0 18 18 41.5t35 23.5q7 0 11 -2q33 -20 92 -68.5t82 -64.5l-17 217q-1 11 18 19t40 8q15 0 29 -7t14 -18l-15 -217l166 129q1 1 4.5 3.5t5.5 2.5q19 0 37.5 -25t18.5 -44q0 -12 -11 -19z" />
    <glyph glyph-name="plus" unicode="+" horiz-adv-x="1114" 
d="M1102 662q0 -23 -13 -43.5t-28 -20.5h-404v-412q0 -13 -20 -24.5t-43 -11.5t-43.5 12.5t-20.5 27.5v408h-409q-13 0 -25 20.5t-12 43.5t12 41t27 18h407v409q0 13 20.5 25t43.5 12t43 -12t20 -27v-407h408q14 0 25.5 -18t11.5 -41z" />
    <glyph glyph-name="comma" unicode="," horiz-adv-x="204" 
d="M16 106q21 0 45.5 -30t24.5 -51q0 -12 -29 -58q-15 -24 -65.5 -57t-71.5 -33q-6 0 -11 3.5t-5 8.5q0 10 10 13q38 14 59 69q-12 12 -12 27q0 11 21 59.5t34 48.5z" />
    <glyph glyph-name="hyphen" unicode="-" horiz-adv-x="600" 
d="M567 422q0 -19 -12.5 -35t-32.5 -16h-459q-20 0 -30 15.5t-10 35.5q0 21 12.5 38t30.5 17h460q20 0 30.5 -16t10.5 -39z" />
    <glyph glyph-name="period" unicode="." horiz-adv-x="221" 
d="M-4 127q38 0 61 -25t23 -51q0 -27 -24.5 -59.5t-53.5 -32.5q-18 0 -46 18t-28 31q0 7 5.5 16t16.5 25t19 29q3 5 4 19t5.5 22t17.5 8z" />
    <glyph glyph-name="slash" unicode="/" horiz-adv-x="479" 
d="M877 1272q-59 -97 -249 -415.5t-346 -579t-171 -281.5q-16 -23 -48 -23q-22 0 -37.5 16t-15.5 36q0 10 4 18q25 35 762 1282q10 18 45 18q26 0 42 -17.5t16 -39.5q0 -10 -2 -14z" />
    <glyph glyph-name="zero" unicode="0" horiz-adv-x="1290" 
d="M541 1118q12 -22 12 -55q0 -24 -12 -51q-44 -97 -101 -97q-12 0 -21 13.5t-9 27.5q0 57 20 103.5t64 97.5q76 89 188.5 135.5t228.5 46.5q330 0 330 -315q0 -110 -35.5 -230.5t-97.5 -233t-148.5 -215t-184.5 -178t-211 -120.5t-222 -45q-118 0 -199.5 52.5t-118 137
t-36.5 193.5q0 194 105 387.5t269 292.5q4 2 9 2q14 0 14 -31q0 -8 -6 -14q-127 -102 -195.5 -268.5t-68.5 -339.5q0 -123 76.5 -215.5t195.5 -92.5q130 0 264 69.5t239.5 182.5t172.5 269.5t67 318.5q0 141 -82.5 216t-207.5 75q-195 0 -299 -119z" />
    <glyph glyph-name="one" unicode="1" horiz-adv-x="641" 
d="M328 655q56 88 137 198.5t131.5 177.5t50.5 71q0 8 -8 8q-6 0 -61 -28.5t-74 -28.5t-43.5 18.5t-24.5 32.5q0 16 31 24q69 17 141 66t115 96q26 29 77 38t152 9q17 0 17 -10t-4 -14q-109 -138 -165 -209t-162 -216.5t-173 -254.5q-128 -207 -193 -340t-118 -301
q-7 -23 -19 -23q-26 0 -60 30.5t-34 59.5q0 3 4 19q30 84 54 144t86.5 184t142.5 249z" />
    <glyph glyph-name="two" unicode="2" horiz-adv-x="1318" 
d="M1182 100q0 55 28 80q48 37 78 37q13 0 24 -8t11 -21q0 -37 -59.5 -83t-149 -78.5t-168.5 -32.5q-70 0 -153.5 19.5t-147.5 43t-136.5 43t-121.5 19.5q-59 0 -121 -18.5t-102.5 -40t-75 -40t-45.5 -18.5q-25 0 -25 31q0 52 13.5 81t40.5 54q267 236 917 514
q66 29 118 66.5t82 73t49 73t25.5 65.5t6.5 52q0 52 -19 95.5t-49.5 72.5t-69 49.5t-77 29.5t-74.5 9q-131 0 -252 -62q7 -5 15 -26.5t8 -38.5q0 -56 -65 -122.5t-134 -66.5q-45 0 -45 80t86.5 155t211 118t241.5 43q76 0 144 -19t123 -56.5t87.5 -99.5t32.5 -141
q0 -61 -23.5 -123.5t-71 -124.5t-129.5 -117.5t-190 -93.5q-591 -211 -879 -436q-4 -2 -4 -6t4 -4l47 23q46 23 125 46t160 23q58 0 131 -25.5t132.5 -56.5t137 -56.5t142.5 -25.5q90 0 166 45z" />
    <glyph glyph-name="three" unicode="3" horiz-adv-x="1155" 
d="M162 268q40 -108 128 -163.5t242 -55.5q112 0 216 62t167.5 163t63.5 209q0 174 -178 174q-59 0 -103.5 -9.5t-68.5 -19.5t-33 -10q-10 0 -15.5 9t-5.5 18q0 35 17 68.5t49 38.5q82 14 137 28q352 87 352 279q0 103 -81.5 163t-202.5 60q-94 0 -166.5 -20.5t-132.5 -73.5
q18 -18 18 -70q0 -56 -65.5 -124t-126.5 -68q-25 0 -36 26.5t-11 59.5q0 95 93 176t234.5 125.5t290.5 44.5q66 0 120 -14t87.5 -34t58.5 -48.5t36.5 -53t18.5 -51t8 -38t1 -19.5q0 -258 -496 -363q-4 0 -4 -6t4 -6q365 0 365 -274q0 -84 -36.5 -158.5t-98 -129t-139.5 -94
t-163 -59.5t-167 -20q-110 0 -198 32.5t-141 86.5t-80.5 119t-27.5 134q0 84 33 84q25 0 40 -38t15 -68q0 -17 -4.5 -35t-9.5 -27z" />
    <glyph glyph-name="four" unicode="4" horiz-adv-x="1179" 
d="M496 1085q-10 2 -21.5 8t-29 30t-25.5 61q-12 56 -12 88q0 29 16 46t39 17q117 0 117 -139q0 -144 -96 -269.5t-253 -201.5q171 41 295 41t287 -27q65 108 132.5 206.5t108 150.5t87 109t55.5 69q16 22 53.5 35t64.5 16t72 6q21 0 21 -14q0 -7 -6 -10q-15 -13 -38 -35
t-74 -78t-102 -120t-117.5 -164t-125.5 -208q109 -39 145.5 -95t36.5 -154q0 -31 -18 -31q-13 0 -25 20q-42 58 -86 93t-108 61q-66 -106 -132.5 -261t-104.5 -250t-50 -95q-17 0 -48.5 39t-31.5 59q0 81 238 535q-110 22 -236 22q-263 0 -446 -98q-4 -2 -10 -2
q-10 0 -15.5 23.5t-5.5 52.5q0 41 10 63.5t45 36.5q110 44 196 109t132.5 129t65.5 126z" />
    <glyph glyph-name="five" unicode="5" horiz-adv-x="1236" 
d="M1198 1206q2 0 2 8q0 59 78 107q58 37 106 37q26 0 54 -24t28 -52q0 -40 -36.5 -73.5t-89.5 -53t-106 -30.5t-93 -11q-96 0 -216 37t-200 104q-8 -65 -48 -147.5t-83.5 -144t-79 -109.5t-35.5 -53q0 -6 6 -6q1 0 14.5 9t37.5 21.5t55.5 25t77 21.5t94.5 9
q106 0 196 -43.5t146.5 -129.5t56.5 -198q0 -97 -40.5 -183t-108 -147.5t-155.5 -106.5t-183.5 -67t-190.5 -22q-248 0 -381 147q-58 66 -61 154q0 12 5 23t15 11q35 0 66 -43.5t31 -78.5q0 -8 -4 -16.5t-8 -12.5l-3 -4q58 -66 127 -92.5t158 -26.5q74 0 152 22t149 64
t127 98t89.5 131t33.5 156q0 109 -81.5 196t-188.5 87q-62 0 -114 -14t-82.5 -33.5t-51.5 -39.5t-32 -34t-13 -14q-17 0 -45.5 46.5t-28.5 75.5q0 3 27 36.5t66.5 88t80.5 118.5t73 141t40 143q0 2 0.5 6t1 6t1 5.5t1.5 5t3 3.5t4 3t5 1q7 0 61 -22.5t120.5 -50t152 -50
t147.5 -22.5q34 0 70 8z" />
    <glyph glyph-name="six" unicode="6" horiz-adv-x="1181" 
d="M1067 1300q-160 -1 -319 -69t-283 -180t-201.5 -270t-77.5 -328q0 -171 95.5 -284.5t265.5 -113.5q112 0 224.5 55.5t188.5 156t76 216.5q0 130 -90.5 200.5t-224.5 70.5q-166 0 -272 -111q-1 -1 2.5 -4.5t8.5 -17t5 -33.5q0 -36 -21 -88t-62 -96t-85 -44
q-24 0 -37.5 30.5t-13.5 60.5q0 95 123 221q85 88 200.5 138t229.5 50q88 0 166.5 -34t132 -105.5t53.5 -165.5q0 -95 -41.5 -184.5t-112 -158.5t-158.5 -121.5t-186 -80.5t-190 -28q-197 0 -318.5 130t-121.5 337q0 125 40.5 244t111 217t168 180.5t209.5 138.5t237.5 87.5
t250.5 31.5q151 0 199 -52q8 -12 8 -20q0 -20 -20 -34.5t-51 -14.5q-39 0 -71 18t-38 55z" />
    <glyph glyph-name="seven" unicode="7" horiz-adv-x="720" 
d="M387 1247q-52 0 -125 -22q2 -6 2 -17q0 -34 -22 -61q-83 -105 -146 -105q-23 0 -49.5 23t-26.5 49q0 46 44.5 87.5t108 67.5t127.5 41t110 15q89 0 252.5 -34t230.5 -34q101 0 164 52q19 16 44 21t54 3.5t70 1.5q22 0 22 -14q0 -9 -10 -22.5t-25 -22.5
q-268 -179 -429.5 -320.5t-307.5 -320.5q-128 -158 -230 -327t-141 -292q-9 -24 -18 -24q-36 0 -70 31.5t-34 64.5q0 48 132 261.5t257 367.5q108 134 242 250.5t305 242.5q-58 -16 -130 -16q-69 0 -202 26.5t-199 26.5z" />
    <glyph glyph-name="eight" unicode="8" horiz-adv-x="958" 
d="M528 653q-79 -9 -149.5 -34t-130 -67t-94.5 -107.5t-35 -147.5q0 -107 72 -178.5t167 -71.5q125 0 221.5 86.5t96.5 194.5q0 196 -148 325zM932 1333q26 -6 26 -18q0 -23 -24 -23q-75 6 -94 6q-139 0 -250 -106.5t-111 -226.5q0 -51 22.5 -120.5t71.5 -121.5
q93 9 175.5 44t134.5 89q98 103 98 229q-6 -6 -29.5 -13t-44.5 -7q-41 0 -88 43.5t-47 83.5q0 28 28.5 56t57.5 28q69 0 143 -88q32 -35 54 -90t22 -113q0 -41 -11 -76t-27 -61.5t-44.5 -48.5t-54 -37.5t-65.5 -28t-69 -20t-74 -14.5t-70.5 -10t-69.5 -7q237 -179 237 -360
q0 -156 -117 -251.5t-290 -95.5q-114 0 -212 42.5t-160 127t-62 193.5q0 112 65.5 195t171 124t234.5 41q33 0 47 -2q-70 64 -117 152.5t-47 173.5q0 99 62 176.5t156.5 116.5t201.5 39q71 0 170 -21z" />
    <glyph glyph-name="nine" unicode="9" horiz-adv-x="1277" 
d="M913 664q-86 -89 -201.5 -140t-228.5 -51q-65 0 -126.5 20.5t-112 58.5t-81 97.5t-30.5 130.5q0 114 61.5 222t158.5 184t220.5 122t245.5 46q207 0 324 -128.5t117 -338.5q0 -150 -57 -289.5t-156.5 -248.5t-228 -191.5t-277.5 -126t-299 -43.5q-21 0 -47.5 2t-66.5 8.5
t-66.5 22t-26.5 38.5q0 29 19 39.5t55 10.5q37 0 66.5 -18.5t35.5 -53.5q97 0 202 30.5t203 84.5t186.5 133t154.5 170.5t104.5 203.5t38.5 226q0 165 -103.5 275t-263.5 110q-84 0 -169 -30t-155 -83t-113.5 -133t-43.5 -172q0 -127 88.5 -196.5t218.5 -69.5q176 0 281 110
q1 1 -1.5 2.5t-7.5 5.5t-10 9t-8.5 15.5t-3.5 23.5q0 54 56.5 137.5t111.5 83.5q25 0 42 -23.5t17 -50.5q0 -45 -29 -107t-94 -128z" />
    <glyph glyph-name="colon" unicode=":" horiz-adv-x="352" 
d="M152 498q38 0 61 -25t23 -51q0 -27 -24.5 -59.5t-53.5 -32.5q-18 0 -46 18t-28 31q0 7 5.5 16t16.5 25t19 29q3 5 4 19t5.5 22t17.5 8zM152 213q38 0 61 -25t23 -51q0 -27 -24.5 -59.5t-53.5 -32.5q-18 0 -46 18t-28 31q0 7 5.5 16t16.5 25t19 29q3 5 4 19t5.5 22t17.5 8
z" />
    <glyph glyph-name="semicolon" unicode=";" horiz-adv-x="335" 
d="M129 500q38 0 61 -25t23 -51q0 -27 -24.5 -59.5t-53.5 -32.5q-18 0 -46 18t-28 31q0 7 5.5 16t16.5 25t19 29q3 5 4 19t5.5 22t17.5 8zM147 264q21 0 45.5 -30.5t24.5 -51.5q0 -11 -29 -57q-15 -24 -65.5 -57t-71.5 -33q-6 0 -11 3.5t-5 8.5q0 9 10 12q38 14 59 70
q-12 12 -12 27q0 11 21 59.5t34 48.5z" />
    <glyph glyph-name="less" unicode="&#x3c;" horiz-adv-x="745" 
d="M659 1126q8 4 13 4q25 0 45 -24.5t20 -50.5q0 -14 -10 -21q-101 -72 -541 -399q102 -73 228 -166.5t216.5 -161t102.5 -76.5q10 -7 10 -24q0 -27 -16.5 -51.5t-42.5 -24.5q-10 0 -14 4q-19 11 -237 169t-374 274q-30 21 -30 55q0 24 20 41q13 10 118.5 88t246.5 182.5
t245 181.5z" />
    <glyph glyph-name="equal" unicode="=" horiz-adv-x="909" 
d="M879 887q0 -24 -14 -44t-34 -20h-759q-18 0 -30.5 20t-12.5 44t13 43.5t32 19.5h762q18 0 30.5 -19.5t12.5 -43.5zM879 565q0 -24 -14 -43.5t-34 -19.5h-759q-18 0 -30.5 19.5t-12.5 43.5q0 25 13 44.5t32 19.5h762q18 0 30.5 -20t12.5 -44z" />
    <glyph glyph-name="greater" unicode="&#x3e;" horiz-adv-x="765" 
d="M119 1126q104 -77 245 -181.5t246.5 -182.5t118.5 -88q21 -18 21 -41q0 -33 -31 -55q-158 -117 -375 -274.5t-235 -168.5q-4 -4 -15 -4q-26 0 -42.5 24.5t-16.5 51.5q0 17 10 24q12 9 102.5 76.5t216.5 161t228 166.5q-440 327 -541 399q-10 7 -10 21q0 26 20 50.5
t45 24.5q5 0 13 -4z" />
    <glyph glyph-name="question" unicode="?" horiz-adv-x="751" 
d="M369 1317q-1 -2 5.5 -7.5t13.5 -18t7 -29.5q0 -56 -54 -122.5t-112 -66.5q-25 0 -43 32.5t-18 59.5q0 33 33 76t116 113q102 86 222.5 135t228.5 49q74 0 144 -30t117.5 -89t47.5 -133q0 -127 -144 -284t-415 -359q-62 -46 -114 -104.5t-83.5 -113t-49 -92t-27.5 -67.5
q-3 -16 -17 -16q-15 0 -26 14q-37 50 -37 84q0 92 321 336q414 321 414 549q0 83 -64 143t-149 60q-193 0 -317 -119zM82 168q38 0 61 -25t23 -51q0 -27 -24.5 -59.5t-53.5 -32.5q-18 0 -46 18t-28 31q0 7 5.5 16t16.5 25t19 29q3 5 4 19t5.5 22t17.5 8z" />
    <glyph glyph-name="at" unicode="@" horiz-adv-x="1171" 
d="M248 -66q-100 0 -159.5 60.5t-59.5 157.5q0 106 59.5 202.5t155.5 164t219 107.5t248 40q63 0 120.5 -9t111 -30.5t92.5 -54t62 -82t23 -111.5q0 -97 -57 -181.5t-145 -132t-181 -47.5q-47 0 -81.5 19.5t-34.5 58.5q0 51 61 170q0 10 -4 10q-2 0 -6 -4
q-86 -88 -205.5 -170t-202.5 -82q-44 0 -71 29t-27 70q0 82 58.5 164.5t143.5 141t180 95.5t169 37q53 0 96.5 -15t67.5 -36t36.5 -40.5t12.5 -31.5q0 -13 -8.5 -24t-20.5 -11q-18 0 -35 43q-25 64 -129 64q-76 0 -191 -69t-203.5 -167.5t-88.5 -171.5q0 -32 27 -32
q59 0 174 74.5t186 152.5q41 44 72 83t42 56l11 17q6 18 18 18q18 0 27 -12q39 -56 39 -88q0 -35 -20 -77.5t-46 -43.5q-24 -1 -50.5 -60t-26.5 -102q0 -29 24 -29q75 0 146.5 53.5t114 133t42.5 155.5q0 67 -24 114t-68 72t-95.5 35.5t-117.5 10.5q-182 0 -357.5 -107.5
t-248.5 -257.5q-39 -80 -39 -145q0 -74 44.5 -113t115.5 -39q70 0 180 35q16 5 26.5 20t24.5 19q27 6 39 6q16 0 16 -16q0 -32 -111.5 -64.5t-170.5 -32.5z" />
    <glyph glyph-name="A" unicode="A" 
d="M526 1087q140 0 340 -63t387 -150q445 342 856 543q6 64 64 92q40 19 94 34.5t74 15.5q34 0 50.5 -15.5t16.5 -34.5q0 -14 -16 -30q-116 -101 -332.5 -384t-326.5 -474q22 -14 55 -34q52 -32 63 -41.5t11 -25.5q0 -8 -5.5 -20.5t-9.5 -12.5l-9 7q-9 6 -44 30.5t-86 57.5
q-51 -83 -94 -177.5t-67.5 -168.5t-43 -136.5t-29 -96.5t-16.5 -34q-23 0 -60.5 36t-37.5 65q0 41 70.5 193.5t199.5 365.5q-44 28 -153.5 81.5t-163.5 82.5q-101 -79 -273 -227.5t-258 -217.5q-687 -548 -987 -592q-85 -14 -162 -14q-42 0 -85.5 24t-43.5 66q0 20 52 38.5
t112 18.5q25 0 63 -20.5t60 -20.5q115 0 333.5 142.5t590.5 443.5q55 45 224 190t267 218q-357 157 -501 157q-36 0 -66.5 -16t-46.5 -16q-47 0 -108.5 11.5t-61.5 35.5q0 23 34 48t70 25zM2038 1247q6 11 6 21q0 14 -14 14q-26 0 -221 -131.5t-443 -316.5
q181 -100 289 -166q55 95 116.5 188.5t143.5 211.5t123 179z" />
    <glyph glyph-name="B" unicode="B" horiz-adv-x="1966" 
d="M1776 485q39 -72 39 -157q0 -112 -55 -219t-145.5 -191.5t-207.5 -157t-241.5 -120.5t-245.5 -74.5t-222 -26.5q-55 0 -111 10.5t-111 32.5t-89.5 64t-34.5 98q0 86 85.5 191.5t217.5 198t281 159.5q334 148 645 211q-97 100 -259 148t-341 48q-61 0 -61 23q0 58 61 90
q14 7 45 12.5t97 13.5t98 13q112 16 242.5 66t239 115.5t181 142.5t72.5 141q0 37 -18 67t-45 49t-69 33t-79 21t-86 10.5t-79 4.5t-69 1q-225 0 -495 -48.5t-450 -105t-224 -92.5q-25 -20 -47.5 -50t-49.5 -50.5t-83 -40.5q-15 -5 -40 -14.5t-38 -14t-28 -8.5t-23 -4
q-23 0 -23 23q0 45 6 61q26 75 72 96q323 147 696.5 219t749.5 72q203 0 329.5 -28.5t178 -77t51.5 -121.5q0 -78 -55 -162t-155.5 -161t-258.5 -138t-346 -88q-10 -2 -10 -6q0 -6 10 -6q126 -12 255.5 -70t211.5 -162q69 13 209 13q102 0 102 -45q0 -9 -23 -14t-53 -5
q-14 0 -28 10.5t-31 10.5q-91 0 -145 -11zM958 254q-228 -106 -382 -251.5t-154 -262.5q0 -47 43.5 -81.5t99.5 -49.5t111 -15q85 0 193.5 31t217.5 82.5t214 122.5t186 148t130.5 162.5t49.5 162.5q0 52 -12.5 89t-42.5 73q-341 -64 -654 -211zM1370 1456q22 0 37.5 -22
t15.5 -43q0 -38 -32 -84q-31 -44 -75.5 -78.5t-72.5 -34.5q-66 0 -176.5 -115.5t-265.5 -328.5q-122 -168 -229 -382.5t-175 -394.5q-6 -18 -22 -18q-21 0 -53.5 30t-32.5 58q0 16 6 31q62 145 179 344t253 379q146 193 302.5 360t277.5 266q39 33 63 33z" />
    <glyph glyph-name="C" unicode="C" horiz-adv-x="1230" 
d="M1368 1049q44 49 81.5 132t37.5 156q0 79 -46.5 114.5t-115.5 35.5q-79 0 -198.5 -47.5t-251.5 -127.5t-264.5 -195.5t-238 -242t-171.5 -276t-66 -289.5q0 -174 81 -241.5t261 -67.5q198 0 408 86q371 154 469 244q13 12 29 39.5t28 36.5q41 36 51 36q9 0 15 -7.5
t6 -18.5q0 -35 -101 -115q-71 -56 -211.5 -138t-269.5 -136q-102 -42 -225.5 -70.5t-237.5 -28.5q-202 0 -320 101t-118 309q0 151 62.5 307t165.5 286.5t238 247t278 197t287 127.5t263 47q51 0 94 -10t80.5 -32.5t58.5 -64.5t21 -100q0 -27 -3.5 -55t-11.5 -55.5
t-14.5 -49t-18 -47.5t-17 -38.5t-16.5 -33.5t-11 -22q-37 -74 -127 -148.5t-160 -74.5q-22 0 -64 17.5t-42 40.5q0 29 89.5 87t135.5 58q27 0 47 7t27 13z" />
    <glyph glyph-name="D" unicode="D" horiz-adv-x="2064" 
d="M2001 508q-73 -189 -193.5 -350.5t-259 -272t-294 -189t-302.5 -115t-280 -36.5q-70 0 -133.5 19t-110.5 66t-47 114q0 100 98 228t244.5 238t298.5 177q376 168 864 168q88 229 88 453q0 246 -139 370.5t-405 124.5q-204 0 -447.5 -48t-411 -106.5t-221.5 -101.5
q-23 -18 -39 -37.5t-24 -32t-33 -29t-68 -32.5q-103 -39 -137 -39q-22 0 -22 23q0 122 79 160q307 144 650 218t690 74q319 0 491 -143t172 -397t-84 -455q24 -3 46 -8.5t46 -13.5t35 -11q111 -27 111 -49q0 -11 -9.5 -21t-19.5 -10q-18 0 -36 5q-15 3 -30 16t-30 18
q-65 22 -137 25zM1040 352q-152 -74 -291.5 -186t-225 -227.5t-85.5 -196.5q0 -53 35.5 -89t82.5 -49.5t101 -13.5q89 0 210.5 36t265.5 113t280 182.5t259.5 259.5t197.5 329q-235 0 -451.5 -40t-378.5 -118zM1362 1460q22 0 37.5 -22t15.5 -43q0 -37 -33 -84
q-31 -45 -75 -79t-72 -34q-66 0 -177 -117t-267 -331q-122 -168 -229 -382.5t-175 -394.5q-6 -18 -22 -18q-20 0 -50 31.5t-30 60.5q0 16 6 31q65 151 176 344.5t244 370.5q146 193 306 364t281 270q12 11 32.5 22t31.5 11z" />
    <glyph glyph-name="E" unicode="E" horiz-adv-x="1728" 
d="M141 -195q0 -111 66 -161t178 -50q262 0 616 203q174 100 293.5 202.5t184.5 190.5q6 9 14 57t27 77q34 55 65 55q19 0 29 -22.5t10 -43.5q0 -33 -47 -96q-46 -61 -89.5 -111.5t-109.5 -115.5t-152 -128.5t-186 -119.5q-385 -217 -663 -217q-158 0 -252 82t-94 241
q0 140 85 291t265 279q101 72 222 135t197 93.5t178 67t112 40.5q20 8 20 14t-6 6q-5 0 -17 -4q-65 -20 -159 -20q-56 0 -106 9.5t-95 30.5t-71.5 59t-26.5 89q0 102 78 197t203.5 165.5t278 124t307 80.5t284.5 27q34 0 65 -19q25 -18 40.5 -45.5t15.5 -40.5q0 -21 -92 -46
t-132 -25q-22 0 -58 12t-75 12q-86 -1 -227.5 -45t-276 -108.5t-232 -147.5t-97.5 -153q0 -62 63.5 -92.5t163.5 -30.5q80 0 165 22.5t93 22.5q31 0 31 -33q0 -82 -20 -110t-95 -58q-8 -3 -57.5 -21.5t-89 -34t-107 -45t-126 -59.5t-130 -73.5t-133.5 -89.5
q-165 -123 -246.5 -257.5t-81.5 -261.5z" />
    <glyph glyph-name="F" unicode="F" horiz-adv-x="851" 
d="M27 74q55 130 166 310t253 370q-68 2 -114.5 31t-46.5 87q0 21 20 21q3 0 74.5 -24.5t126.5 -24.5q156 203 352 405q-278 -71 -684 -71q-63 0 -102 39t-39 61q0 51 194 51q43 0 63 -8t40.5 -21.5t56.5 -21.5q60 -14 133 -14q152 0 420 73q2 2 15.5 16t23 23t26 24.5
t30 25.5t29.5 20.5t30.5 16t27.5 5.5q21 0 32 -21t11 -44q514 139 674 139q43 0 78 -6q94 -16 94 -113q0 -41 -15.5 -86t-25.5 -57q-9 -12 -20 -12t-11 20q0 38 -12.5 65.5t-31.5 43t-51 24t-62 11t-72 2.5q-213 0 -571 -101q-10 -35 -61 -81t-93 -46q-111 0 -383 -358
q81 7 213 47.5t166 40.5q96 0 96 -84q0 -27 -10 -27q-5 0 -37 16.5t-57 16.5q-41 0 -102 -12.5t-154 -35.5t-160 -36q-140 -191 -250.5 -407t-177.5 -394q-6 -18 -23 -18q-21 0 -53.5 30t-32.5 58q0 13 7 31z" />
    <glyph glyph-name="G" unicode="G" horiz-adv-x="1835" 
d="M1421 600q-38 25 -126 39t-201 14q-34 0 -105 -6q-28 -88 -28 -162q0 -80 46 -136t121 -56q113 0 247.5 54t230.5 140q43 38 69.5 71.5t35 52.5t17.5 35t27 28t55 24q80 23 117 23q9 0 21 -5t12 -14t-11.5 -19.5t-29.5 -24.5t-27 -25q-17 -21 -114.5 -169.5t-223 -315
t-249.5 -287.5q-325 -320 -783 -320q-136 0 -249.5 50.5t-185 153t-71.5 239.5q0 102 36 194t99.5 162.5t145 129t177 99t191 67t191.5 38.5q43 122 132 259t210 253q195 186 402 278t382 92q58 0 111 -11.5t102 -36.5t78 -72.5t29 -112.5q0 -93 -40.5 -185t-102 -158
t-134.5 -107.5t-137 -41.5q-20 0 -39.5 18.5t-19.5 39.5q0 37 67.5 95t110.5 58q9 0 26 -1t23 -1q46 0 82 45q100 126 100 248q0 158 -217 158q-138 0 -340 -97.5t-389 -281.5q-95 -94 -171.5 -207t-116.5 -217q37 2 75 2q116 0 211.5 -15t141.5 -38q92 -46 92 -96
q0 -7 -4.5 -16t-8.5 -9q-18 0 -53 31q-11 9 -17.5 27.5t-19.5 25.5zM1094 207q-124 0 -199.5 76.5t-75.5 201.5q0 59 25 148q-98 -13 -201.5 -46.5t-207 -90.5t-184 -128.5t-131 -170.5t-50.5 -207q0 -76 25.5 -139t69 -107t103.5 -74.5t127.5 -44.5t141.5 -14
q176 0 356 83.5t348 254.5q103 105 195 218.5t142 183t52 71.5q6 6 6 12q0 8 -8 8q-4 0 -8 -4q-110 -93 -262 -162t-264 -69z" />
    <glyph glyph-name="H" unicode="H" horiz-adv-x="1998" 
d="M2511 1468q22 0 37.5 -22t15.5 -43q0 -37 -33 -84q-31 -45 -75 -79t-72 -34q-121 0 -453 -456q-52 -70 -94 -142q97 -62 98 -63q4 -4 4 -25q0 -6 -5 -14t-9 -8q-8 0 -14 4q-1 1 -99 69q-160 -262 -284 -598q-6 -18 -23 -18q-21 0 -53.5 30t-32.5 58q0 16 6 31
q103 238 316 542q-213 135 -512 256q-174 -278 -316 -487q-148 -218 -254.5 -361.5t-210 -260t-187 -170.5t-155.5 -54q-36 0 -66 15.5t-32 33.5q0 13 29.5 49t74.5 69.5t78 33.5q147 0 646 696q160 227 313 473q-341 125 -453 125q-22 0 -54 -17.5t-54 -17.5
q-23 0 -53.5 2.5t-65.5 13.5t-35 29q0 26 28.5 52t53.5 26q32 0 59 -6q13 -3 64 -11.5t91.5 -17.5t106.5 -26t151.5 -45.5t185.5 -67.5q82 132 111.5 210.5t29.5 135.5q0 13 -0.5 28.5t-1 26t-0.5 11.5q0 10 2.5 19t4 15t7.5 15.5t8 13.5t12 17t13 18q61 84 121 84
q33 0 73.5 -9t40.5 -30q0 -10 -12 -28q-11 -17 -52.5 -92.5t-115.5 -204t-160 -267.5q233 -102 510 -260q53 74 93 127q155 206 316 386.5t273 271.5q12 10 32.5 21t31.5 11z" />
    <glyph glyph-name="I" unicode="I" horiz-adv-x="1531" 
d="M1806 1468q30 0 43 -30q147 38 225.5 56.5t172 34t159.5 15.5q197 0 197 -139q0 -33 -14.5 -76t-22.5 -53q-9 -12 -18 -12q-13 0 -13 20q0 162 -262 162q-134 0 -422 -72q-5 -44 -67 -106t-105 -62q-120 0 -452 -456q-113 -156 -212.5 -344t-166.5 -355q33 2 96 2
q220 0 369 -39q127 -32 127 -61q0 -10 -5.5 -19.5t-13.5 -9.5q-20 0 -39 8q-16 5 -30 20.5t-27 18.5q-162 43 -375 43q-73 0 -112 -2q-1 -2 -3.5 -9.5t-4.5 -12.5t-5.5 -12.5t-7 -11.5t-9 -7.5t-11.5 -3.5q-16 0 -36 13t-30 34q-181 -26 -397 -135q-26 -13 -43.5 -30
t-25.5 -29.5t-34 -27.5t-69 -28q-10 -3 -30.5 -9t-32 -9.5t-29 -6.5t-33.5 -3q-23 0 -23 20q0 42 21 88q20 44 84 68q179 70 315.5 99t282.5 42q-2 4 -2 10q0 8 6 23q59 136 175 326.5t257 377.5q247 328 449 527q-130 -42 -209.5 -64.5t-232.5 -46t-312 -23.5
q-66 0 -103 37q-20 20 -30 45t-10 39q0 20 67.5 28.5t124.5 8.5q33 0 61.5 -10t48.5 -22.5t62.5 -22.5t99.5 -10q60 0 133 14t121 28.5t140.5 45.5t130.5 43q5 4 23 21t28.5 25.5t28 17.5t32.5 9z" />
    <glyph glyph-name="J" unicode="J" horiz-adv-x="1890" 
d="M1755 629q3 5 65 100t93 147t79.5 141.5t71.5 161t23 126.5v20q-204 -71 -386 -110t-372 -39q-75 0 -105.5 6t-52.5 28q-45 45 -45 82q0 21 67 30t126 9q34 0 61 -10t44.5 -22.5t61.5 -22.5t109 -10q63 0 129 12t109.5 24.5t127.5 41t130 42.5q33 59 96.5 103.5
t155.5 44.5q45 0 45 -23q0 -15 -16 -47q296 72 440 72q207 0 207 -139q0 -33 -13 -74t-20 -51q-9 -12 -20 -12q-13 0 -13 20q0 46 -26 79.5t-68.5 50.5t-86 24.5t-89.5 7.5q-130 0 -342 -51q-161 -305 -455 -775q-69 -109 -135.5 -204.5t-156.5 -208.5t-178.5 -204
t-199 -179t-220.5 -147t-239.5 -95.5t-260.5 -36.5q-99 0 -187.5 29.5t-156.5 83.5t-108 138.5t-40 187.5q0 111 42 214t114.5 184t169.5 147.5t205.5 110t223.5 67.5t224 24q113 0 229 -24t196.5 -67.5t80.5 -94.5q0 -7 -3 -17t-7 -10q-23 0 -56 29q-11 10 -16.5 26.5
t-17.5 24.5q-54 39 -159.5 63.5t-242.5 24.5q-129 0 -262 -32.5t-251.5 -95t-212 -145.5t-148 -191t-54.5 -224q0 -93 42 -169.5t108.5 -122.5t144 -70.5t154.5 -24.5q114 0 228.5 36t211.5 92.5t197.5 143.5t178.5 171t163 194.5t143 195t125 189.5z" />
    <glyph glyph-name="K" unicode="K" horiz-adv-x="1294" 
d="M1061 1491q22 0 38.5 -21.5t16.5 -42.5q0 -37 -33 -84q-33 -48 -77 -87t-70 -39q-55 0 -129 -82.5t-203 -262.5q205 0 378.5 23.5t313 69t248 100.5t213.5 129q50 36 61 52.5t11 60.5q0 20 14.5 42t37 41t40 31t33.5 21q20 12 57 12q32 0 59 -12.5t27 -30.5
q0 -8 -2.5 -15.5t-5 -11l-7.5 -10.5l-5 -6q-85 -114 -277 -233q-266 -166 -516 -252t-547 -86q-11 0 -41.5 -1t-56.5 -1q-16 0 -16 -4q0 -3 12 -9q53 -26 98 -77q23 -27 56.5 -82t87 -156.5t91.5 -175t115 -225.5q148 -291 298.5 -418t326.5 -127q22 0 72 4q12 1 35 19
t55 18q14 0 21 -7t7 -14q0 -31 -83.5 -46t-141.5 -15q-198 0 -370.5 114.5t-307.5 354.5q-59 104 -136 264t-135 265t-118 167q-61 61 -110 76q-118 -167 -217.5 -369.5t-165.5 -378.5q-6 -18 -23 -18q-21 0 -53.5 30t-32.5 58q0 16 6 31q55 130 161.5 306t242.5 359
q-97 14 -97 41q0 8 9 21q26 39 53.5 57.5t77.5 18.5q25 0 59 -3q91 123 137 184.5t118 153t126 150t102 98.5q12 10 31.5 20.5t30.5 10.5z" />
    <glyph glyph-name="L" unicode="L" horiz-adv-x="933" 
d="M1298 -190q-175 -103 -337 -103q-101 0 -214 40t-260 134q-30 19 -83.5 53t-77.5 48.5t-57.5 33.5t-55 26t-39.5 7q-22 0 -49.5 -29.5t-46.5 -29.5q-29 0 -52.5 30.5t-23.5 59.5q0 39 31.5 101.5t70.5 78.5q31 13 52 27.5t64.5 60.5t110 145.5t158.5 254.5
q134 225 179 337.5t45 180.5q0 16 -4 46t-4 48q0 44 59.5 108t126.5 64q40 0 69 -10t29 -27q0 -14 -12 -39t-14 -29q-131 -273 -396 -718q-254 -426 -348 -559q39 -19 70 -36.5t106.5 -62.5t161.5 -94q31 -18 84 -49t77.5 -45t64 -36t62 -31.5t51.5 -20.5t52.5 -15t46.5 -4
q132 0 254 88q12 8 27.5 39.5t26.5 40.5q28 25 45 25q38 0 38 -51q0 -23 -23 -43.5t-65 -44.5z" />
    <glyph glyph-name="M" unicode="M" horiz-adv-x="2482" 
d="M557 -25q-6 -18 -22 -18q-19 0 -55 34t-36 64q0 26 11 45q29 57 143 241.5t218 356t191 358.5t87 279q0 71 -37 98t-109 27q-93 0 -247 -63t-277 -144.5t-139 -132.5q-3 -9 -8 -26.5t-7 -22.5t-6.5 -18t-8.5 -18.5t-11 -17t-16.5 -22t-22 -25t-29.5 -32.5
q-20 -22 -29 -31.5t-24.5 -25t-26.5 -21.5t-20 -6q-25 0 -44.5 31t-19.5 71q0 27 14 57t33 48q107 107 271.5 214t352.5 182t325 75q192 0 192 -221q0 -227 -215 -563q-6 -9 -6 -15q0 -4 4 -4q6 0 18 12q4 4 86.5 93t152 161.5t181.5 178.5t202 178.5t185 126t158 53.5
q59 0 90 -34.5t31 -90.5q0 -50 -19 -120.5t-42.5 -131t-67 -150t-69 -137.5t-73.5 -135.5t-57 -103.5q-2 -2 -2 -8q0 -9 6 -9t13 11q43 57 93 118t133 160t166 183t171 162.5t170 124.5t141 46q63 0 102 -45.5t39 -107.5q0 -78 -32 -176.5t-82.5 -198t-112.5 -206
t-123.5 -213.5t-112 -206.5t-82.5 -198t-32 -176.5q0 -117 73.5 -172t192.5 -55q9 28 51.5 42.5t79.5 14.5q18 0 28.5 -13t10.5 -25q0 -28 -49.5 -53t-120.5 -25q-168 0 -264 85.5t-96 250.5q0 112 39 242.5t97.5 245.5t126.5 237t126.5 220t97.5 192t39 155q0 44 -19 66
t-63 22q-50 0 -179 -108t-284 -276t-280 -335q-96 -127 -176.5 -265t-178.5 -331q-11 -22 -28 -22q-20 0 -55 27t-35 50q0 15 6 27q28 53 127 232t165.5 305t147.5 285.5t123.5 271.5t42.5 166q0 79 -84 79q-100 0 -352 -224.5t-516 -534.5q-156 -183 -277 -369t-174 -322z
" />
    <glyph glyph-name="N" unicode="N" horiz-adv-x="1859" 
d="M545 -18q-9 -19 -23 -19q-17 0 -45 30t-28 56q0 24 30 78q56 100 87 154t109 177.5t185 282.5q110 163 170 320.5t60 253.5q0 87 -33 116t-111 29q-116 0 -271.5 -64t-267 -143.5t-128.5 -130.5q-4 -11 -10 -29.5t-8 -25t-7.5 -20t-11 -21t-16 -21.5t-23.5 -29t-33 -36
q-24 -26 -36.5 -39t-29 -25t-28.5 -12q-35 0 -50.5 27t-15.5 65q0 27 14 57t33 48q106 106 271 212.5t351 180.5t320 74q107 0 162.5 -60t55.5 -161q0 -209 -261 -596q-4 -8 -4 -9q0 -6 4 -6q3 0 9 6q36 37 127.5 135.5t160.5 172t171 169.5t184 158.5t173.5 107t162.5 44.5
q80 0 125 -50.5t45 -135.5q0 -76 -43 -194.5t-107.5 -242t-139.5 -266.5t-139.5 -268t-107.5 -246t-43 -201q0 -110 73.5 -166.5t194.5 -56.5q9 28 52.5 43.5t80.5 15.5q18 0 29.5 -14t11.5 -26q0 -27 -51 -52.5t-104 -25.5q-164 0 -271.5 92.5t-107.5 245.5q0 134 55 293
t133 301.5t156 276.5t133 258t55 208q0 119 -110 119q-73 0 -183.5 -72t-222.5 -188q-31 -32 -108.5 -110.5t-114 -116.5t-107.5 -112.5t-112.5 -123t-103 -121.5t-104.5 -133.5t-93 -134.5t-91.5 -149.5t-78.5 -153.5z" />
    <glyph glyph-name="O" unicode="O" horiz-adv-x="1220" 
d="M1221 1315q-74 0 -138 -40.5t-90 -90.5q-15 -29 -22 -59.5t-21 -54t-57 -64.5q-56 -52 -77 -69t-32 -17q-49 0 -49 86q0 51 35 102q68 88 204 167t257 79q108 0 159.5 -57.5t51.5 -155.5q0 -102 -45.5 -231t-121.5 -258.5t-182 -254.5t-220 -221t-242.5 -154.5
t-243.5 -58.5q-169 0 -272 100t-103 265q0 134 52 280.5t139.5 278t204.5 252t243 207.5t259.5 138.5t250.5 51.5q83 0 149.5 -23.5t100.5 -60.5q27 -30 27 -57q0 -13 -13 -13q-3 0 -9 5t-15.5 13t-20.5 13q-72 37 -180 37q-105 0 -229 -54t-241.5 -143.5t-228 -211
t-193.5 -251.5t-133 -270.5t-50 -261.5q0 -117 60 -178.5t163 -61.5t222 52t230 138.5t215 202t181 239t123.5 254t46.5 241.5q0 88 -31 129t-114 41z" />
    <glyph glyph-name="P" unicode="P" horiz-adv-x="1232" 
d="M2101 1298q0 -92 -40 -174.5t-107 -145t-156.5 -115t-188 -88t-201 -60t-195.5 -36t-173 -11.5q-172 0 -172 37q0 38 35 60.5t70 22.5q45 0 77.5 -10t45 -22.5t25.5 -22.5t24 -10q67 0 154 21.5t177.5 58.5t177.5 92.5t155 118.5t109.5 140.5t41.5 154.5q0 92 -110 144
t-343 52q-185 0 -391.5 -30t-363 -72.5t-269 -83.5t-143.5 -66q-25 -20 -47.5 -50.5t-49.5 -51t-83 -39.5q-11 -4 -37 -14t-46.5 -15.5t-39.5 -5.5q-11 0 -19 7.5t-8 19.5q0 49 19.5 93.5t56.5 62.5q302 138 706 213t760 75q549 0 549 -250zM1380 1468q22 0 38 -22t16 -43
q0 -37 -33 -84q-31 -44 -75.5 -78.5t-72.5 -34.5q-120 0 -452 -456q-122 -168 -229 -382.5t-175 -394.5q-6 -18 -22 -18q-21 0 -51.5 31.5t-30.5 60.5q0 16 6 31q62 144 177 339t251 376q148 196 310 371t280 272q12 10 32 21t31 11z" />
    <glyph glyph-name="Q" unicode="Q" horiz-adv-x="1449" 
d="M215 270q-2 16 -2 54q0 134 52 281t138.5 279t203.5 253t243.5 208t261.5 139t254 52q98 0 183 -45.5t85 -87.5q0 -12 -10 -12q-7 0 -21 9t-32.5 20.5t-64 20.5t-107.5 9q-96 0 -213 -50.5t-232.5 -134.5t-226.5 -199.5t-197.5 -240.5t-143 -262.5t-64.5 -259.5
q66 25 161 25q119 0 229 -39.5t230 -114.5q119 80 235 203t203.5 256.5t141 273.5t53.5 250q0 152 -154 152q-79 0 -142.5 -34.5t-88.5 -80.5q-13 -25 -19.5 -51.5t-10 -42.5t-25 -46t-64.5 -71q-64 -61 -88 -61q-28 0 -38.5 20t-10.5 64q0 51 35 102q66 88 204.5 170
t256.5 82q99 0 147.5 -59.5t48.5 -155.5q0 -135 -56.5 -287.5t-147 -286.5t-197 -248t-211.5 -190q158 -110 329 -258q100 -86 206.5 -134t199.5 -48q53 0 103.5 14.5t80 29.5t33.5 15q12 0 12 -10q0 -15 -23 -40t-58 -49.5t-85 -42.5t-98 -18q-171 0 -428 220
q-245 209 -332 278q-192 -127 -366 -127q-85 0 -157 25t-128 81.5t-78 139.5q-15 -15 -18 -37q-3 -25 -44 -49.5t-67 -24.5q-21 0 -45 20t-24 38q0 14 24.5 33t61 36.5t60.5 27.5t42 17zM555 18q83 0 157.5 27.5t170.5 87.5q-109 73 -206 110.5t-208 37.5q-83 0 -152 -25
q6 -238 238 -238z" />
    <glyph glyph-name="R" unicode="R" horiz-adv-x="1705" 
d="M1096 711q57 -40 108 -122.5t84 -166t84 -208.5t94 -210q250 -489 576 -489q55 0 102 8q15 2 30 22.5t30 24.5q28 8 41 8q10 0 16 -9t6 -20q0 -23 -29 -38.5t-75.5 -22t-80.5 -8.5t-67 -2q-196 0 -358 109.5t-297 361.5q-51 94 -106 220.5t-89 211t-83.5 168.5
t-104.5 129q-9 6 -40 12t-56 13.5t-25 19.5q0 11 19 34.5t34 35.5q8 6 60 6q41 0 82 -6q36 -5 52 -20t38 -15q73 6 163.5 34t180 70.5t175 98.5t151 116t105.5 126.5t40 125.5q0 176 -447 176q-179 0 -387 -30t-368.5 -72t-276.5 -82t-145 -64q-26 -21 -44 -48t-41 -45.5
t-79 -37.5q-12 -4 -40 -15.5t-52 -18.5t-43 -7q-23 0 -23 23q0 29 17 78q7 23 23.5 40.5t29 25t33.5 16.5q303 142 684 212t729 70q583 0 583 -225q0 -110 -99.5 -224t-249 -198t-329.5 -138t-335 -54zM1346 1468q22 0 37.5 -22t15.5 -43q0 -37 -33 -84q-31 -45 -75 -79
t-72 -34q-121 0 -453 -456q-122 -168 -229 -382.5t-175 -394.5q-6 -18 -22 -18q-21 0 -52.5 31.5t-31.5 60.5q0 16 6 31q60 139 183 344t262 389q147 195 301.5 361t273.5 264q12 10 32.5 21t31.5 11z" />
    <glyph glyph-name="S" unicode="S" horiz-adv-x="1632" 
d="M1667 1542q85 0 133.5 -27t48.5 -100q0 -65 -49 -151.5t-122 -149.5t-134 -63q-21 0 -50.5 14.5t-29.5 30.5q0 40 63.5 88.5t117.5 48.5q42 0 61 12q34 23 63 78.5t29 95.5q0 41 -24 58.5t-101 17.5q-45 0 -125 -26t-162.5 -67t-143 -102.5t-60.5 -123.5q0 -36 27 -74
t68 -75t84.5 -77.5t83 -99t56.5 -123.5q303 -31 303 -90q0 -25 -16 -25q-13 0 -49 9q-15 4 -26 16t-25 16q-92 25 -179 33q13 -61 13 -127q0 -105 -34.5 -211.5t-94.5 -199.5t-132 -172.5t-157 -147.5q-154 -124 -355.5 -195t-375.5 -71q-169 0 -268 80.5t-99 238.5
q0 193 171 388.5t452 320.5q186 83 358.5 115t372.5 32q-25 53 -69 104.5t-88.5 90t-85.5 75t-67 73.5t-26 73q0 78 74 153t178.5 125t211.5 80.5t179 30.5zM647 553q-263 -118 -418 -302.5t-155 -367.5q0 -225 260 -225q165 0 351.5 68.5t326.5 185.5q75 62 138.5 130.5
t119 150.5t87.5 175t32 185q0 84 -17 139q-203 0 -377 -31.5t-348 -107.5z" />
    <glyph glyph-name="T" unicode="T" horiz-adv-x="737" 
d="M1575 1448q-185 0 -318 -49q0 -55 -73.5 -127t-118.5 -72q-66 0 -174 -113.5t-264 -328.5q-123 -169 -229 -380.5t-173 -389.5q-3 -8 -13 -13.5t-19 -5.5q-21 0 -50.5 26t-29.5 54q0 16 6 31q58 135 173 322.5t257 375.5q288 383 487 568q-71 -19 -179.5 -56.5
t-179.5 -59.5t-193.5 -40.5t-262.5 -18.5q-86 0 -118.5 6t-55.5 29q-20 20 -32.5 49.5t-12.5 42.5q0 20 65.5 28.5t120.5 8.5q48 0 89 -22t71 -29q86 -18 158 -18q61 0 130.5 12.5t120 27t167.5 51t194 58.5q63 55 86 55q11 0 23 -6.5t16 -15.5q353 94 492 94
q163 0 163 -125q0 -26 -18 -86.5t-39 -60.5q-5 0 -10.5 5t-5.5 15q0 158 -250 158z" />
    <glyph glyph-name="U" unicode="U" 
d="M1206 1401q0 -64 -58.5 -182.5t-142 -251.5t-167.5 -269t-142.5 -265t-58.5 -208q0 -87 35 -124.5t106 -37.5q62 0 208.5 94t300.5 220.5t291.5 256.5t188.5 202q68 95 171 247.5t175.5 253.5t127.5 164q33 33 49 33q19 0 43 -21.5t24 -39.5q0 -31 -20 -72
q-46 -94 -94 -131q-17 -15 -68 -15q-21 0 -45 -28q-76 -90 -268 -457q-108 -206 -181 -409t-88 -353q-2 -20 -22 -20t-51 30.5t-31 61.5q0 14 2 22q18 102 74 249.5t101 242.5l44 96q-4 0 -6 -2q-54 -55 -122 -120t-193 -174t-237 -191.5t-234.5 -144.5t-204.5 -62
q-84 0 -148.5 60t-64.5 145q0 99 59 243.5t143.5 286t168.5 273.5t143 235.5t59 142.5q0 34 -23.5 55.5t-53.5 28.5t-66 7q-93 0 -253 -64t-287.5 -155t-127.5 -156q0 -43 -84.5 -143.5t-124.5 -100.5q-20 0 -37.5 26.5t-17.5 75.5q0 27 14 57t33 48q108 108 275.5 216.5
t362 185.5t339.5 77q72 0 128 -35t56 -104z" />
    <glyph glyph-name="V" unicode="V" horiz-adv-x="1548" 
d="M1141 1280q0 51 -14 84.5t-43 50t-61.5 22t-82.5 5.5q-105 0 -253 -48.5t-261.5 -123t-118.5 -137.5q-2 -18 -37.5 -77t-79.5 -112q-78 -92 -129 -92q-22 0 -35.5 38.5t-13.5 65.5t14 57t33 48q175 175 464 321t501 146q120 0 191 -69t71 -183q0 -280 -418 -1077
q-6 -12 -6 -17q0 -8 10 -8q8 0 17 6q171 102 335.5 234t286.5 256t216.5 240t143 201t48.5 124q0 5 -3 24.5t-3 24.5q0 39 33.5 93.5t74.5 99.5q31 34 63 45.5t77 11.5q63 0 63 -27q0 -49 -236.5 -360.5t-445.5 -523.5q-73 -74 -160.5 -151.5t-180 -151t-157.5 -123
t-150 -112.5t-101 -75q-30 -24 -48 -24q-26 0 -48.5 45t-22.5 73q0 6 1.5 11.5t6.5 15t9 17t15.5 26t20.5 33.5q51 89 143.5 288t181.5 440t89 345z" />
    <glyph glyph-name="W" unicode="W" horiz-adv-x="2605" 
d="M2025 1255q25 0 48.5 -31.5t23.5 -58.5q0 -41 -33.5 -108t-80.5 -147t-94.5 -170t-81 -204t-33.5 -223q0 -42 7.5 -79t24 -69.5t46 -51.5t69.5 -19q93 0 193.5 49.5t189.5 131.5t170.5 190.5t140 223.5t93 233t34.5 217q0 55 -16 65q-36 20 -46.5 62t-10.5 110
q3 56 14.5 80.5t50.5 61.5q24 24 53 24q27 0 41.5 -56.5t14.5 -144.5q0 -165 -40.5 -335t-108.5 -316t-161 -275t-195 -220.5t-212.5 -144t-212.5 -52.5q-132 0 -199 66.5t-67 191.5q0 264 245 696q4 8 4 11q0 6 -6 6q-7 0 -12 -8q-89 -104 -208 -215t-226.5 -198.5
t-236.5 -182.5t-213 -152t-182.5 -122.5t-119.5 -80.5q-34 -24 -51 -24q-25 0 -45.5 32.5t-20.5 59.5q0 17 9.5 34t48.5 72q36 49 94 139.5t133.5 221t140 257t109.5 250.5t45 199q0 193 -217 193q-112 0 -265.5 -60t-263.5 -143.5t-110 -144.5q-17 -57 -28 -74t-78 -90
q-71 -82 -115 -82q-22 0 -33.5 37t-11.5 71q0 61 43 101q100 107 261.5 214.5t350.5 183t332 75.5q130 0 207.5 -77t77.5 -202q0 -98 -54.5 -243t-131.5 -284t-154.5 -263t-132 -204t-54.5 -83q0 -12 8 -12q1 0 13 4q128 64 311 195.5t346.5 273.5t282.5 276.5t125 200.5
q4 45 57.5 91.5t103.5 49.5z" />
    <glyph glyph-name="X" unicode="X" horiz-adv-x="1400" 
d="M1305 -90q5 0 15.5 3t16.5 3q18 0 40 -10t22 -29q0 -16 -23 -23.5t-41 -7.5q-36 0 -75 23q-111 67 -217.5 247.5t-188.5 448.5q-123 -111 -205.5 -184t-199.5 -171t-201.5 -161.5t-188 -133t-186 -109t-168.5 -65.5t-160 -26q-120 0 -120 39q0 55 54.5 82t121.5 27
q56 0 75 -19q22 -22 58 -22q98 0 411 251.5t668 606.5q-72 244 -111 358.5t-63.5 157.5t-52.5 51q-42 13 -67 43t-40 84q-14 49 -14 78q0 24 20 60t41 36q18 0 41 -26.5t39 -61.5q66 -136 107 -241q51 -136 74 -206.5t87 -281.5q191 196 319 355.5t128 222.5q0 58 10.5 93
t46.5 71q37 37 74.5 56t89.5 19q23 0 23 -22q0 -27 -37 -103q-94 -187 -254.5 -393t-355.5 -403q39 -137 86.5 -258.5t92 -203t86.5 -141t73 -87t49 -27.5z" />
    <glyph glyph-name="Y" unicode="Y" horiz-adv-x="1705" 
d="M1970 868q-29 -49 -91 -156q-65 -112 -100 -172t-106 -173t-120.5 -180t-128 -166t-144 -159t-153.5 -129.5t-171.5 -107.5t-183 -64t-201.5 -26q-77 0 -153 16t-148 51t-127.5 85t-89 124t-33.5 162q0 104 43.5 192.5t108 145t140.5 97t138.5 58t104.5 17.5q47 0 47 -22
q0 -16 -13.5 -26.5t-35.5 -10.5q-13 0 -30 5t-31 5q-29 0 -78.5 -19t-108 -58t-109.5 -89.5t-85.5 -122.5t-34.5 -149q0 -118 66.5 -209.5t171 -137.5t225.5 -46q84 0 169 24t162 64.5t157 102t149 128t141.5 152t132.5 165t124.5 175.5t113.5 174t104 170q8 16 6 18
q-5 3 -16 -8q-77 -80 -138 -141t-162.5 -151.5t-183.5 -150t-174.5 -103.5t-162.5 -44q-89 0 -155.5 61t-66.5 154q0 73 41 182t99 220t116 219t99 206t41 156q0 54 -40 73t-114 19q-88 0 -240 -66t-273.5 -149.5t-137.5 -132.5q-5 -16 -12 -39.5t-10.5 -32.5t-13 -26.5
t-25 -36.5t-42.5 -47q-78 -86 -121 -86q-21 0 -33 36.5t-12 67.5q0 27 14 57t34 48q99 99 267.5 207.5t359.5 187t319 78.5q79 0 138.5 -45t59.5 -123q0 -61 -40.5 -163t-98.5 -211.5t-115.5 -220.5t-98 -216t-40.5 -172q0 -71 27.5 -104t85.5 -33q91 0 230 85.5
t274.5 209.5t251.5 250.5t184 222.5q42 59 95 133.5t74 104.5t52.5 72.5t58.5 74.5t64 74q65 65 98 65q30 0 46 -21.5t16 -43.5q0 -29 -21 -72q-24 -48 -62 -88.5t-65 -44.5q-19 -3 -38.5 -14.5t-40 -34.5t-38 -47t-42 -63.5t-42.5 -70.5t-47.5 -83t-50.5 -87z" />
    <glyph glyph-name="Z" unicode="Z" horiz-adv-x="1368" 
d="M63 -266q52 16 209.5 68t263 84t250.5 61.5t252 29.5q105 0 183.5 -52.5t78.5 -149.5q0 -41 -28 -105q-7 -18 -23 -18q-12 0 -12 20q0 57 -28.5 99.5t-74 64.5t-92.5 32.5t-94 10.5q-196 0 -453.5 -73t-451.5 -187q-29 -16 -49 -16q-41 0 -61.5 45t-20.5 96
q0 23 18.5 67.5t69 122.5t126 170t204 220t288.5 264q231 196 444 359.5t321 248t178 160.5q-104 -42 -269.5 -68t-278 -32.5t-200.5 -6.5q-204 0 -324.5 15.5t-173.5 58.5q-23 19 -38 41.5t-15 32.5q0 19 65 28t111 9q32 0 53 -9t30.5 -21t28.5 -28t44 -26q99 -41 285 -41
q227 0 459.5 60t322.5 153q11 14 29 14q35 0 72.5 -48t37.5 -83q0 -28 -24.5 -53.5t-79.5 -61.5q-3 -2 -56.5 -36.5t-100 -66t-126 -86t-160.5 -115t-175.5 -133.5t-198 -160.5t-203.5 -178.5q-305 -278 -466 -486t-161 -284q0 -10 14 -10z" />
    <glyph glyph-name="bracketleft" unicode="[" horiz-adv-x="442" 
d="M80 -344q-20 0 -26.5 7.5t-6.5 27.5l-1 694q-1 694 -1 870q0 9 12.5 20t22.5 11h272q14 0 21.5 -13.5t7.5 -29.5q0 -19 -8 -36t-25 -17q-12 0 -35 -1t-114 -1v-1434h153q14 0 21.5 -13.5t7.5 -29.5q0 -17 -9.5 -35t-23.5 -18q-34 0 -147.5 -1t-120.5 -1z" />
    <glyph glyph-name="backslash" unicode="\" horiz-adv-x="507" 
d="M-260 1270q-2 4 -2 14q1 20 24.5 34.5t51.5 14.5q33 0 43 -22q79 -173 333 -714t267 -566q2 -4 2 -19q0 -18 -24.5 -31.5t-49.5 -13.5q-27 0 -45 29q-524 1111 -600 1274z" />
    <glyph glyph-name="bracketright" unicode="]" horiz-adv-x="458" 
d="M365 -344q-7 0 -125 1t-152 1q-14 0 -23.5 17t-9.5 34q0 15 7.5 28t21.5 13h162v1440q-91 0 -115.5 1t-36.5 1q-17 0 -25 17t-8 36q0 15 7.5 28t21.5 13h275q10 0 22 -11t12 -20q0 -176 -1 -870l-1 -694q0 -20 -6.5 -27.5t-25.5 -7.5z" />
    <glyph glyph-name="asciicircum" unicode="^" horiz-adv-x="1064" 
d="M1032 711q4 -8 4 -13q0 -25 -24.5 -45t-50.5 -20q-14 0 -21 10q-72 101 -399 541q-73 -102 -166.5 -228t-161 -216.5t-76.5 -102.5q-8 -10 -24 -10q-27 0 -51.5 16.5t-24.5 42.5q0 10 4 14q12 19 170 238t272 373q21 30 56 30q24 0 41 -20q10 -13 88 -118.5t182.5 -246.5
t181.5 -245z" />
    <glyph glyph-name="underscore" unicode="_" horiz-adv-x="1236" 
d="M1208 -113q0 -24 -13.5 -43.5t-33.5 -19.5h-1089q-18 0 -30.5 19.5t-12.5 43.5q0 25 13 44.5t32 19.5h1091q18 0 30.5 -20t12.5 -44z" />
    <glyph glyph-name="grave" unicode="`" horiz-adv-x="243" 
d="M88 1573q24 0 31 -23q14 -48 44.5 -95.5t63.5 -70.5q9 -4 9 -12q0 -10 -8 -21.5t-23 -11.5q-40 0 -114.5 55.5t-74.5 94.5q0 19 28.5 51.5t43.5 32.5z" />
    <glyph glyph-name="a" unicode="a" horiz-adv-x="888" 
d="M377 66q0 46 55 151l-10 6q-82 -84 -196.5 -159.5t-198.5 -75.5q-44 0 -71.5 28.5t-27.5 69.5q0 71 65 164.5t150 152.5q171 121 336 121q88 0 153.5 -41.5t65.5 -85.5q0 -11 -10 -24t-24 -13q-12 0 -21 12t-17 29t-20.5 33.5t-40 28.5t-67.5 12q-100 0 -267 -131
q-88 -68 -153.5 -152.5t-65.5 -115.5q0 -49 39 -49q54 0 168.5 76.5t186.5 154.5q69 75 102 131q25 41 41 41q21 0 41 -39t20 -59q0 -32 -20.5 -74.5t-46.5 -42.5q-16 0 -47 -59t-31 -97q0 -30 43 -30q62 0 186.5 60.5t184.5 115.5q11 10 14.5 27t15.5 26q36 29 49 29
q4 0 7.5 -7t3.5 -14q0 -23 -52.5 -69t-126.5 -91.5t-164.5 -79.5t-156.5 -34q-36 0 -64 21.5t-28 52.5z" />
    <glyph glyph-name="b" unicode="b" horiz-adv-x="708" 
d="M78 219q322 305 471 305q38 0 62 -25t24 -67q0 -77 -68 -180q77 -14 129 -49q34 -21 53 -51.5t19 -51.5q0 -16 -14 -16q-16 0 -34 25.5t-18 35.5q0 2 1.5 5.5t1.5 5.5q0 6 -13 16q-52 40 -143 55q-184 -239 -397 -239q-119 0 -119 67q0 34 32.5 71t87.5 68t134.5 50.5
t165.5 19.5q44 52 70 104.5t26 84.5q0 14 -9 22t-22 8q-59 0 -216.5 -120t-266.5 -234q-19 -20 -39 -50t-30 -51l-11 -20q-8 -14 -25 -14t-30 21.5t-13 41.5q0 33 125.5 246t281 462.5t177.5 289.5q33 56 33 88q0 1 -1 12t-1 21q0 48 69 133q19 24 43 24q18 0 41 -32t23 -54
t-10 -37q-151 -242 -373.5 -611t-222.5 -384q0 -2 6 4zM125 31q51 0 146 65.5t159 139.5q-64 0 -132 -19t-117 -46t-81 -57.5t-32 -54.5q0 -14 18 -21t39 -7z" />
    <glyph glyph-name="c" unicode="c" horiz-adv-x="679" 
d="M489 475q18 47 82 47q19 0 19 -12q0 -46 -65.5 -114t-121.5 -68q-16 0 -16 8q0 3 18.5 21.5t37 42.5t18.5 42q0 35 -60 35q-53 0 -141 -60t-158.5 -150.5t-70.5 -162.5q0 -39 22.5 -59t63.5 -20q107 0 271 67.5t276 147.5q12 8 18.5 24t17.5 25q28 22 43 22q5 0 11 -6
t6 -12q0 -16 -23.5 -36.5t-72.5 -53.5q-125 -84 -291.5 -155t-280.5 -71q-68 0 -116 39t-48 103q0 91 70.5 184.5t178 153t208.5 59.5q35 0 64.5 -13t39.5 -28z" />
    <glyph glyph-name="d" unicode="d" horiz-adv-x="876" 
d="M459 -8q-43 0 -67.5 24t-24.5 70q0 22 14 61t27 67.5t12 29.5t-27 -24t-68.5 -62.5t-91.5 -74.5t-104.5 -63t-97.5 -26q-41 0 -67.5 34.5t-26.5 80.5q0 67 43 143t107.5 135.5t144 99t147.5 39.5q53 0 95 -19.5t56 -49.5q49 83 174.5 274t202.5 326q2 3 6 11t5 10.5
t4.5 9t4.5 9t3 8t2.5 9t1.5 8.5t1.5 9.5t0.5 9.5q0 3 -1 14t-1 23q0 20 12.5 46t23.5 41t34 46q18 24 45 24q18 0 39.5 -30.5t21.5 -53.5q0 -22 -10 -37q-3 -6 -52 -83.5t-75 -124.5q-58 -103 -187.5 -306t-189.5 -305q-152 -257 -152 -334q0 -32 39 -32q76 0 192.5 53
t190.5 121q11 10 16 27t17 26q30 27 45 27q12 0 12 -21q0 -27 -79 -90q-227 -180 -418 -180zM8 78q0 -45 33 -45q61 0 173 85t177 156q89 93 115 144q-21 43 -88 43q-72 0 -171 -71.5t-169 -163t-70 -148.5z" />
    <glyph glyph-name="e" unicode="e" horiz-adv-x="657" 
d="M479 455q0 -46 -56 -98.5t-143 -88t-167 -35.5q-29 0 -47 5q-50 -63 -50 -132q0 -73 111 -73q114 0 265.5 57t248.5 135q11 9 19 30t20 30q31 24 45 24t14 -20q0 -30 -98 -103q-110 -78 -258 -138t-264 -60q-82 0 -135.5 35.5t-53.5 113.5q0 59 37 127t107 129
q77 65 157 96t146 31q102 0 102 -65zM424 444q0 10 -10.5 16.5t-24.5 6.5q-51 0 -149 -66.5t-156 -132.5q14 -2 39 -2q70 0 142 31t115.5 72.5t43.5 74.5z" />
    <glyph glyph-name="f" unicode="f" horiz-adv-x="598" 
d="M250 57q2 -8 2 -28q0 -61 -33 -167t-89.5 -224t-124 -224t-146.5 -175.5t-146 -69.5q-63 0 -98 42t-35 113q0 273 416 957q76 124 208 316t165 247q31 52 42 85.5t13 62t8 46.5q21 69 76.5 120.5t116.5 51.5q20 0 38.5 -7t18.5 -17q0 -16 -23 -49q-212 -305 -583 -901
q-185 -295 -297.5 -545t-112.5 -377q0 -39 20.5 -66.5t45.5 -27.5q58 0 140 88t153 212t121.5 267.5t50.5 245.5q0 52 -13 90.5t-26 66.5t-13 54q0 24 9.5 46.5t25.5 22.5q28 0 64.5 -54.5t36.5 -86.5q0 -10 -4.5 -25t-4.5 -22q0 -26 40.5 -56t80.5 -30q54 0 105 29.5
t88 81.5q6 8 10.5 26t15.5 29q40 35 54 35q16 0 16 -27q0 -16 -14 -34t-60 -64q-109 -109 -215 -109q-73 0 -143 51z" />
    <glyph glyph-name="g" unicode="g" horiz-adv-x="815" 
d="M432 205l-4 8q-10 -9 -27 -24t-67 -53.5t-96.5 -68t-105 -53.5t-103.5 -24q-38 0 -61 28t-23 64q0 69 51 148t129.5 142.5t179 105.5t191.5 42q94 0 154.5 -42.5t60.5 -82.5q0 -12 -11 -23.5t-22 -11.5t-19.5 8.5t-12.5 16.5t-11 25q-26 67 -121 67q-58 0 -144 -45.5
t-161 -109t-128.5 -135.5t-53.5 -121q0 -13 7 -23t17 -10q63 0 185.5 78t193.5 151q87 90 111 137l1 5q2 4 4.5 8.5l5 9t7 7.5t8.5 3q15 0 27 -16q24 -35 24 -82q0 -31 -19.5 -71t-43.5 -40q-4 0 -9.5 -6t-14.5 -20.5t-18 -30.5t-23 -43.5t-26.5 -52t-32.5 -63.5t-36 -70
q244 76 412 206q12 8 19 38.5t18 39.5q4 3 11.5 9.5t12 10t10.5 7.5t11 6t10 2q7 0 15 -6.5t8 -16.5q0 -48 -95 -124q-171 -135 -456 -220q-128 -243 -246 -434q-140 -223 -330.5 -378.5t-349.5 -155.5q-99 0 -168.5 65t-69.5 160q0 103 74.5 219.5t196.5 208.5
q173 130 334.5 195.5t470.5 136.5q41 79 88 175.5t61 123.5zM31 -516q112 171 229 379q-273 -64 -433 -131t-319 -187q-96 -72 -162.5 -190t-66.5 -199q0 -57 44.5 -96t111.5 -39q121 0 299 140.5t297 322.5z" />
    <glyph glyph-name="h" unicode="h" horiz-adv-x="841" 
d="M332 66q0 44 25.5 100t56.5 98t56.5 83t25.5 59q0 15 -8.5 23.5t-22.5 8.5q-55 0 -173.5 -87.5t-218.5 -185.5t-130 -145q-16 -26 -33 -26q-14 0 -25.5 20t-11.5 45q0 29 121 230q16 26 131 216t221.5 366t114.5 190q21 36 26 58t5 63q0 52 65 129q26 26 49 26
q19 0 38.5 -33t19.5 -53q0 -21 -11 -37q-6 -11 -57 -91.5t-76 -121.5q-432 -715 -471 -788l4 -6q356 313 494 313q30 0 50.5 -17t20.5 -44q0 -51 -33 -113t-72 -109.5t-72 -98t-33 -79.5q0 -32 36 -32q80 0 198.5 56.5t186.5 119.5q11 10 16 27t17 26q34 27 43 27
q7 0 12 -5.5t5 -13.5q0 -28 -80 -92q-95 -76 -208 -128t-210 -52q-39 0 -65.5 20.5t-26.5 53.5z" />
    <glyph glyph-name="i" unicode="i" horiz-adv-x="432" 
d="M338 756q37 -53 37 -92q0 -29 -25.5 -60t-52.5 -31q-22 0 -43 24t-21 44q0 15 7 29.5t22 35.5t19 27q3 6 6 18.5t8 17.5t16 5q5 0 9 -2t6.5 -4t6 -6t5.5 -6zM61 354q0 9 -2 20t-2 15q0 11 3 21t10.5 22t13.5 19.5t19 23.5t20 25q17 24 31 24q19 0 49 -69q8 -19 8 -41
q0 -19 -30 -65.5t-66.5 -94t-66.5 -105t-30 -96.5q0 -10 8 -18t19 -8q68 0 190.5 59.5t186.5 118.5q11 10 16 26t17 25q34 27 43 27q14 0 14 -19q0 -28 -80 -92q-92 -73 -209.5 -127.5t-204.5 -54.5q-37 0 -61.5 21.5t-24.5 54.5q0 42 32 104t64.5 114t32.5 70z" />
    <glyph glyph-name="j" unicode="j" horiz-adv-x="382" 
d="M-948 -453q-97 -73 -158 -179.5t-61 -201.5q0 -60 46 -102.5t111 -42.5q123 0 295 138.5t293 322.5q183 275 246 389q-276 -64 -444.5 -134t-327.5 -190zM-983 -426q171 129 341 197t486 141l187 342q22 39 22 82q0 2 -1 14t-1 23q0 32 42.5 92.5t76.5 60.5
q20 0 38.5 -26t18.5 -47q0 -22 -10 -37q-55 -102 -148.5 -271.5t-111.5 -201.5q238 72 405 202q12 8 21 40.5t20 41.5q41 33 54 33q20 0 20 -27q0 -19 -27.5 -55.5t-66.5 -64.5q-185 -134 -449 -213q-131 -252 -253 -445q-140 -223 -330.5 -378.5t-349.5 -155.5
q-101 0 -171.5 68.5t-70.5 166.5q0 103 69.5 216t188.5 202zM328 756q37 -58 37 -92q0 -29 -25.5 -60t-52.5 -31q-22 0 -43 24t-21 44q0 12 5 25.5t10 22t16 25t14 21.5q4 7 8 25t21 18q18 0 31 -22z" />
    <glyph glyph-name="k" unicode="k" horiz-adv-x="845" 
d="M508 45q89 0 179 45.5t153 122.5q8 10 9 29.5t9 31.5q30 33 45 33q4 0 9.5 -3.5t5.5 -10.5q0 -32 -72 -115q-70 -78 -172.5 -131t-208.5 -53q-63 0 -115.5 24.5t-82 60t-45 71t-15.5 63.5q0 15 10.5 29t22.5 14q13 0 34.5 -7t32.5 -7q55 0 123 48t68 101q0 35 -29 35
q-55 0 -164 -74.5t-210.5 -173.5t-143.5 -170q-8 -14 -25 -14q-15 0 -28 18t-13 51q0 11 17.5 45.5t51.5 94.5t46 82q22 41 240.5 399t224.5 369q33 56 33 88q0 1 -1 12t-1 21q0 48 59 118q36 41 59 41q16 0 37 -33t21 -53q0 -22 -10 -37q-6 -11 -57.5 -91t-76.5 -122
q-124 -204 -287 -479t-175 -299q0 -10 4 -10l20 17q20 17 53 44.5t74.5 60t88.5 65.5t92 60.5t87.5 44.5t71.5 17q32 0 55 -18.5t23 -46.5q0 -98 -102 -180.5t-201 -82.5q-13 0 -13 -12q0 -46 56.5 -89.5t132.5 -43.5z" />
    <glyph glyph-name="l" unicode="l" horiz-adv-x="460" 
d="M-43 80q0 56 28 133t70 145q425 688 432 701q33 56 33 88q0 1 -1 12t-1 21q0 46 57 123q25 32 60 32q19 0 38 -33t19 -53q0 -22 -10 -37q-49 -88 -127 -217q-73 -121 -170.5 -278.5t-161 -260.5t-86.5 -143q-34 -59 -52 -93.5t-36 -79t-18 -70.5q0 -15 10 -28t29 -13
q78 0 195.5 56.5t185.5 119.5q11 10 15.5 27t16.5 26q31 25 41 25q17 0 17 -19q0 -16 -20.5 -37t-71.5 -61q-93 -74 -202 -124t-204 -50q-86 0 -86 88z" />
    <glyph glyph-name="m" unicode="m" horiz-adv-x="1273" 
d="M764 63q0 39 23.5 90.5t51 93t51 83.5t23.5 63q0 35 -36 35q-46 0 -148.5 -83t-194.5 -181.5t-126 -155.5q-8 -16 -27 -16q-23 0 -36 16.5t-13 40.5q0 10 35 77.5t69.5 147t34.5 117.5q0 15 -8 25t-21 10q-68 0 -246 -158t-239 -260q-8 -14 -20 -14q-25 0 -40.5 18.5
t-15.5 40.5q0 9 16.5 40t35 62t40.5 67t25 42q22 39 22 66q0 10 -1 21.5t-1 15.5q0 51 66 129q28 28 45 28q23 0 43.5 -29t20.5 -49t-11 -36l-133 -213q0 -3 36 28.5t94.5 80t122.5 97t129.5 83t105.5 34.5q31 0 49 -18t18 -47q0 -85 -88 -228q-8 -16 -8 -22q0 -1 34 30
t90 78.5t117 94t125 79.5t105 33q31 0 53.5 -16.5t22.5 -44.5q0 -42 -33.5 -105.5t-73 -116t-73 -104.5t-33.5 -74q0 -14 10.5 -21.5t18.5 -8t24 -0.5q60 0 181 59t186 119q11 10 15.5 27t16.5 26q31 25 41 25q6 0 12.5 -6t6.5 -15q0 -28 -80 -92q-95 -76 -208.5 -128
t-209.5 -52q-38 0 -65 20t-27 51z" />
    <glyph glyph-name="n" unicode="n" horiz-adv-x="886" 
d="M381 61q0 45 25 102t55 100t55 86t25 63q0 13 -6.5 20.5t-16.5 7.5q-61 0 -182.5 -77t-231 -181t-139.5 -174q-6 -14 -24 -14q-20 0 -33.5 17.5t-13.5 43.5q0 18 46 101t72 123q33 52 33 77q0 8 -2 18.5t-2 14.5q0 11 3 21t10.5 22t13 19.5t19 24t19.5 24.5q17 24 37 24
q17 0 36.5 -34t19.5 -52q0 -20 -11 -37q-6 -10 -67 -102t-68 -106q54 47 111 92.5t139 104.5t158 95.5t125 36.5q78 0 78 -71q0 -45 -32.5 -104t-72 -107t-72 -99.5t-32.5 -83.5q0 -11 12 -19.5t29 -8.5q76 0 194.5 57.5t186.5 120.5q11 10 15.5 27t16.5 26q31 25 41 25
q17 0 17 -21q0 -28 -80 -92q-94 -75 -209 -127.5t-209 -52.5q-38 0 -63 19t-25 50z" />
    <glyph glyph-name="o" unicode="o" horiz-adv-x="649" 
d="M348 145q44 -20 107 -20q103 0 188 70q9 8 15 24t18 25q35 28 53 28q14 0 14 -18q0 -16 -22 -36.5t-72 -57.5q-92 -66 -192 -66q-70 0 -138 29q-60 -54 -133.5 -97.5t-132.5 -43.5q-54 0 -82 40.5t-28 94.5q0 129 123 252q80 77 153 108q33 54 84.5 84.5t102.5 30.5
q50 0 83 -32.5t33 -94.5q0 -158 -174 -320zM416 481q8 -5 8 -12q0 -16 -18 -16q-43 0 -100.5 -25.5t-94.5 -60.5q0 -115 100 -201q58 63 98 146.5t40 140.5q0 47 -23 71.5t-53 24.5q-59 0 -111 -57q40 8 68 8q44 0 86 -19zM80 23q37 0 100 38t105 80q-49 34 -77 91.5
t-28 111.5q-58 -45 -107.5 -129.5t-49.5 -128.5q0 -63 57 -63z" />
    <glyph glyph-name="p" unicode="p" horiz-adv-x="704" 
d="M121 29q52 0 146 66.5t159 142.5q-78 0 -163 -29t-140 -71.5t-55 -80.5q0 -28 53 -28zM8 158q-1 -1 1.5 -2.5t4.5 -1.5q52 52 115.5 108t142 117.5t153.5 101t124 39.5q36 0 60 -29t24 -69q0 -76 -64 -170q51 -8 129 -51t78 -82q0 -7 -4.5 -13t-9.5 -6q-12 0 -43 25
q-11 8 -19.5 26t-21.5 25q-68 39 -129 51q-180 -239 -399 -239q-117 0 -117 71q0 17 14.5 41t48 53t80 53.5t118.5 41t155 16.5q94 124 94 182q0 33 -25 33q-55 0 -225.5 -131.5t-255.5 -218.5q-79 -83 -96 -109q-116 -186 -293.5 -506.5t-278.5 -531.5q-5 -11 -14 -31
t-15.5 -34t-14.5 -29t-16 -23t-16 -8t-20 15q-39 49 -39 71q0 19 14 41q63 105 164.5 284t234 417t199.5 356q9 17 70 124t66 118q24 50 24 71q0 4 -2 15t-2 20t2.5 18t5 15.5t9.5 16.5t11 15.5t14.5 19t16.5 20.5q21 30 48 30q16 0 35.5 -33.5t19.5 -54.5q0 -22 -10 -37
q-23 -49 -83.5 -143t-62.5 -98z" />
    <glyph glyph-name="q" unicode="q" horiz-adv-x="718" 
d="M-57 -891q12 16 50.5 73.5t85.5 120.5t99 119q103 115 180 160q36 19 52 19q18 0 18 -47q0 -55 -52.5 -94.5t-109.5 -39.5q-23 0 -51 -26q-87 -82 -171 -206.5t-120 -207.5q-9 -20 -30 -20t-35.5 25.5t-14.5 56.5q0 37 65.5 221t158.5 370q85 172 158 298t106 173t86 117
q2 10 2 12q-2 0 -8 -6q-87 -81 -206 -158t-196 -77q-35 0 -58.5 26t-23.5 66q0 68 52 147t130.5 142t176.5 105t184 42q99 0 158 -43t59 -88q0 -10 -7.5 -18.5t-18.5 -8.5q-25 0 -41 41q-28 74 -123 74q-78 0 -197 -78t-207 -177.5t-88 -158.5q0 -28 41 -28q42 0 167.5 82.5
t193.5 150.5q79 79 124 154q15 22 29 22q9 0 21 -16q30 -43 30 -82q0 -38 -21.5 -82.5t-55.5 -52.5q-52 -15 -144.5 -162t-247.5 -459q-139 -279 -200 -481z" />
    <glyph glyph-name="r" unicode="r" horiz-adv-x="567" 
d="M-47 8q-11 -14 -27 -14q-22 0 -31.5 20.5t-9.5 46.5q0 27 115 205q11 17 14.5 22.5t7 17t3.5 24.5q0 4 -1 14.5t-1 15.5q0 60 63 134q1 1 5.5 6.5t6 7t6 5.5t7 5.5t7.5 3.5t10 3t11 1q24 0 43 -26.5t19 -48.5q0 -21 -11 -37l-129 -193q0 -6 0.5 -8.5t1.5 -1.5
q21 20 86 85.5t109.5 107t104 79t102.5 37.5q78 0 78 -92q0 -36 -24 -84.5t-44 -48.5q-16 0 -29.5 37.5t-13.5 56.5q0 14 13.5 33.5t13.5 30.5q0 16 -19 16q-40 0 -113 -56.5t-147.5 -136.5t-134.5 -151.5t-92 -116.5z" />
    <glyph glyph-name="s" unicode="s" horiz-adv-x="653" 
d="M-41 109q0 -21 28 -45.5t81 -24.5q71 0 147 89t76 179q0 41 -2 64q-76 -90 -172 -148q0 -38 -37.5 -81.5t-71.5 -43.5q-23 0 -33 17q-4 8 -10 8t-6 -14zM346 391q27 -79 27 -160q0 -133 -123 -206q100 17 207.5 63t183.5 115q11 10 16 27t17 26q30 27 47 27q4 0 8 -6.5
t4 -14.5q0 -28 -84 -96q-107 -87 -243 -135.5t-277 -48.5q-42 0 -74 5t-63 18t-47.5 41t-16.5 69q0 59 49.5 115.5t92.5 56.5q13 0 23 -8.5t13 -20.5q42 20 91 65.5t90 102.5q36 50 79 82.5t66 32.5q14 0 29.5 -20.5t15.5 -39.5q0 -21 -39 -58.5t-69 -37.5q-11 0 -23 6z" />
    <glyph glyph-name="t" unicode="t" horiz-adv-x="329" 
d="M213 924q61 0 164 -27q63 108 78.5 140.5t15.5 56.5q0 2 -1 10.5t-1 17.5q0 47 70 133q21 27 49 27q18 0 39.5 -33t21.5 -55q0 -16 -33 -72.5t-95 -150.5l-62 -94q160 -46 278 -46q83 0 131 23q14 7 17 25t10 22q38 23 49 23q6 0 11.5 -9.5t5.5 -23.5q0 -5 -6.5 -15
t-24 -23.5t-44 -25t-72.5 -20t-103 -8.5q-104 0 -273 43q-20 -33 -56 -91t-50 -81t-41.5 -69.5t-55.5 -96t-67 -121.5q-57 -103 -114.5 -224.5t-63.5 -152.5q-3 -16 -19 -16q-20 0 -37.5 24.5t-17.5 51.5q0 13 62 135.5t122 224.5q56 95 138.5 238t113.5 196q-47 10 -82 10
q-27 0 -43 -7.5t-34 -28.5q-25 -29 -89 -29q-55 0 -55 31q0 88 164 88z" />
    <glyph glyph-name="u" unicode="u" horiz-adv-x="843" 
d="M31 346v21q0 50 63 129q22 28 51 28q24 0 54 -63q4 -6 4 -19q0 -15 -30 -68t-72.5 -120.5t-49.5 -79.5q-41 -68 -41 -92q0 -10 7 -16.5t18 -6.5q44 0 153 72.5t214 168.5t135 157q17 34 28.5 47.5t30.5 13.5t35 -32.5t16 -51.5q0 -30 -28.5 -84t-57.5 -55
q-10 0 -18.5 -8.5t-26.5 -36.5q-84 -121 -84 -180q0 -31 49 -31q63 0 176.5 55.5t173.5 110.5q11 10 16 27t17 26q31 25 41 25q19 0 19 -17q0 -28 -80 -92q-94 -75 -209 -127.5t-209 -52.5q-36 0 -58 15t-22 44q0 82 88 213q0 4 -0.5 6.5t-1.5 1.5q-84 -82 -242.5 -181
t-230.5 -99q-35 0 -49 14t-14 47q0 37 21 79.5t46.5 74.5t46.5 70t21 67z" />
    <glyph glyph-name="v" unicode="v" horiz-adv-x="462" 
d="M-25 408q-10 36 -10 67q0 15 7.5 26t19.5 11q31 0 58 -13t34 -32q18 -45 18 -129q0 -143 -43 -248q0 -1 -1 -4t-1 -4q0 -4 4 -4q7 0 15 4q76 43 176 151t100 170q0 6 -4 25t-4 35q0 37 10.5 74.5t34.5 37.5q14 0 31.5 -24t17.5 -49q0 -29 -10 -68q-64 -222 -418 -434
q-12 -6 -24 -6q-17 0 -29 18.5t-12 34.5q0 19 6 31q24 50 41.5 127t17.5 121q0 26 -15 43.5t-20 38.5z" />
    <glyph glyph-name="w" unicode="w" horiz-adv-x="880" 
d="M18 59q0 -6 7 -6q2 0 10 4q64 34 145 115t142 178q29 45 52.5 60t74.5 26q24 4 28 4q21 0 21 -10q0 -16 -19 -43q-51 -70 -81.5 -149t-30.5 -138q0 -39 17.5 -59.5t47.5 -20.5q63 0 133.5 61.5t115 143.5t44.5 142q0 15 -5 34t-5 39q0 13 1.5 28.5t5 36.5t12 34.5
t20.5 13.5q24 0 39.5 -24t15.5 -62q0 -94 -56 -205.5t-148.5 -191.5t-182.5 -80q-72 0 -104.5 43t-32.5 108q0 45 16 107l-2 6l-6 -4q-60 -92 -170 -173t-180 -81q-17 0 -25 15t-8 32q0 25 12 37q40 40 71.5 106t31.5 133q0 19 -2 27q-2 18 -16.5 30t-20.5 32q-11 38 -11 67
q0 15 7.5 26t19.5 11q31 0 56 -12t32 -31q19 -47 19 -152q-1 -43 -10.5 -84.5t-22.5 -71t-26.5 -52.5t-22.5 -36t-9 -14z" />
    <glyph glyph-name="x" unicode="x" horiz-adv-x="573" 
d="M209 45q79 0 184 48.5t172 111.5q11 10 16 27t17 26q31 25 41 25q4 0 9 -6.5t5 -12.5q0 -33 -80 -92q-113 -83 -213 -130.5t-206 -47.5q-38 0 -66 15t-44 42.5t-25 54t-15 60.5q-102 -71 -223 -121q-130 -53 -217 -53q-30 0 -54 11.5t-24 35.5q0 13 7.5 25t17.5 12
q12 0 19.5 -5t9.5 -8.5t4 -13.5l3 -10q13 -10 47 -10q75 0 193.5 61t204.5 129q-27 129 -49 172q-7 14 -34.5 35t-27.5 43t21.5 38.5t46.5 16.5q74 0 102 -100q17 -68 29 -152q134 94 160 152q3 6 5.5 31t16.5 43q41 47 90 47q17 0 32 -11.5t15 -25.5q0 -25 -51 -82
q-56 -64 -108 -106.5t-150 -108.5q8 -78 35 -122t84 -44z" />
    <glyph glyph-name="y" unicode="y" horiz-adv-x="794" 
d="M-537 -453q-96 -72 -157.5 -176t-61.5 -188q0 -74 46 -119t118 -45q118 0 297 144.5t299 324.5q162 247 238 385q-261 -59 -439.5 -132t-339.5 -194zM39 346q0 34 11 64t22.5 46t33.5 42q28 28 52 28q19 0 37 -32t18 -52q0 -21 -10 -36l-57.5 -92t-93 -153t-40.5 -81
t10 -18.5t21 -6.5q75 0 254 142.5t233 230.5q6 9 15.5 25.5t15.5 26t13.5 20t14 15.5t13.5 5q22 0 39.5 -35.5t17.5 -58.5q0 -35 -22 -73t-51 -44q-32 -7 -64 -76q-27 -59 -149 -292q238 74 403 202q12 8 21 40.5t20 41.5q41 33 57 33q11 0 15 -25q0 -20 -29 -56.5
t-72 -67.5q-177 -130 -440 -209q-114 -216 -256 -445q-140 -223 -330.5 -378.5t-349.5 -155.5q-101 0 -171 68.5t-70 166.5q0 103 69.5 216t188.5 202q170 128 342.5 196t492.5 142q25 47 68 125t70 128.5t49 96.5l-2 6q-1 0 -37.5 -29.5t-92.5 -71.5t-118.5 -84
t-126.5 -71.5t-107 -29.5q-29 0 -48 18t-19 47q0 42 21.5 87.5t48 78t48 69.5t21.5 64z" />
    <glyph glyph-name="z" unicode="z" horiz-adv-x="495" 
d="M78 516q171 -45 266 -45q41 0 74 11.5t50 23.5t19 12q9 0 19 -12.5t10 -24.5q0 -15 -31 -37q-79 -52 -231 -119t-201 -96q-44 -26 -73.5 -54t-38.5 -44t-9 -25q0 -16 7 -16l8 4q38 23 69 23q36 0 126 -45t128 -45q30 0 35 22q3 12 12 20.5t21 8.5q14 0 22.5 -8t8.5 -19
q0 -32 -44 -47.5t-87 -15.5q-66 0 -152.5 30.5t-112.5 30.5q-58 0 -106 -45q-14 -14 -27 -14q-12 0 -21 18.5t-9 52.5q0 47 61 118t182 128q58 27 184 76t164 72q-53 -13 -92 -13q-27 0 -60 3.5t-40 3.5q-18 0 -23 -5q-32 -30 -57 -30q-34 0 -84.5 7.5t-50.5 22.5
q0 29 28 50.5t56 21.5z" />
    <glyph glyph-name="braceleft" unicode="{" horiz-adv-x="557" 
d="M489 -123q-40 0 -83.5 9t-86.5 27.5t-75.5 52t-44.5 77.5q-21 83 -45 251t-35 210q-13 49 -48.5 84t-86.5 41q-13 2 -19 5.5t-7 6.5t-1 8q5 10 27 15q50 9 86.5 42.5t48.5 79.5q10 40 33.5 209t46.5 254q11 43 42 76.5t73 52t86 28t89 9.5q19 0 19 -14q0 -12 -21 -17
q-113 -31 -168 -155q-11 -26 -50.5 -189.5t-69.5 -251.5q-22 -68 -50.5 -99t-70.5 -44q39 -12 67.5 -47t51.5 -104q28 -82 71.5 -235.5t55.5 -182.5q59 -134 163 -168q21 -5 21 -17q0 -14 -19 -14z" />
    <glyph glyph-name="bar" unicode="|" horiz-adv-x="417" 
d="M201 1305q24 0 43.5 -14t19.5 -34v-1572q0 -18 -19.5 -30.5t-43.5 -12.5q-25 0 -44.5 13t-19.5 32v1575q0 18 20 30.5t44 12.5z" />
    <glyph glyph-name="braceright" unicode="}" horiz-adv-x="565" 
d="M-18 -123q-19 0 -19 14q0 12 21 17q104 34 163 168q12 29 55.5 182.5t71.5 235.5q23 69 51.5 104t67.5 47q-42 13 -70.5 44t-50.5 99q-30 88 -69.5 251.5t-50.5 189.5q-55 124 -168 155q-21 5 -21 17q0 14 19 14q45 0 89 -9.5t86 -28t73 -52t42 -76.5q23 -85 46.5 -254
t33.5 -209q12 -46 48.5 -79.5t86.5 -42.5q22 -5 27 -15q0 -5 -1 -8t-7 -6.5t-19 -5.5q-51 -6 -86.5 -41t-48.5 -84q-11 -42 -35 -210t-45 -251q-12 -44 -44.5 -77.5t-75.5 -52t-86.5 -27.5t-83.5 -9z" />
    <glyph glyph-name="asciitilde" unicode="~" horiz-adv-x="1105" 
d="M1079 492q0 -59 -75.5 -126t-149.5 -67q-70 0 -287.5 73.5t-283.5 73.5q-42 0 -111 -20t-100 -53q-13 -13 -23 -13q-5 0 -10.5 3.5t-5.5 9.5q0 41 47 89.5t115.5 82t126.5 33.5q65 0 145 -21t143 -46t141 -46t140 -21q109 0 149 45q13 13 25 13q14 0 14 -10z" />
    <glyph glyph-name="uni00A0" unicode="&#xa0;" horiz-adv-x="1583" 
d="M780 0q-154 0 -296 62.5t-245.5 166t-165 246t-61.5 295.5q0 154 61.5 296t165 246t245.5 166t296 62t297 -62t246 -166t165 -246t62 -296q0 -153 -62 -295.5t-165 -246t-246 -166t-297 -62.5zM909 872q150 -32 275 -32q99 0 164 47.5t65 120.5q0 54 -45 86t-111 32
q-68 0 -105.5 -36t-37.5 -74q0 -15 19.5 -28.5t19.5 -26.5q0 -19 -12.5 -30t-32.5 -11q-23 0 -38 20t-15 51q0 58 59.5 112t147.5 54q87 0 139 -43q-84 145 -213 232q8 -11 8 -35q0 -67 -59.5 -125.5t-160 -92.5t-216.5 -34h-62q-29 -33 -86 -90l62 -25q46 60 104 60
q46 0 85 -34.5t46 -97.5zM938 524q76 -67 122 -134.5t46 -147.5q0 -66 -35 -117q181 82 295 250q-50 -31 -96 -31q-64 0 -108 41.5t-44 103.5q0 39 15.5 59.5t37.5 20.5q41 0 41 -39q0 -19 -22 -41q-19 -19 -19 -28q0 -35 25.5 -60.5t65.5 -25.5q54 0 88 49t34 111
q0 80 -52.5 130t-135.5 50q-81 0 -148.5 -50.5t-109.5 -140.5zM195 377q117 -171 297 -250q-35 41 -35 115q0 79 44.5 144.5t121.5 137.5q-40 90 -108.5 140.5t-152.5 50.5q-80 0 -131 -50.5t-51 -129.5q0 -62 32.5 -108t84.5 -46q45 0 69.5 23.5t24.5 56.5q0 10 -18 28
q-23 23 -23 41t11.5 28.5t29.5 10.5q23 0 40.5 -21t17.5 -59q0 -61 -45.5 -101t-110.5 -40q-48 0 -98 29zM557 1407q-67 0 -108 -36t-41 -97q0 -69 64.5 -117t178.5 -63q40 50 69 83.5t77.5 81.5t89.5 76.5t94.5 50t103.5 21.5q-141 72 -305 72q-115 0 -233 -43
q78 0 132 -37.5t54 -106.5q0 -37 -17 -59.5t-42 -22.5q-17 0 -29 11t-12 26q0 19 23.5 39t23.5 33q0 36 -30 62t-93 26zM84 889q-10 -78 -10 -119q0 -117 39 -229q3 85 77 143.5t177 58.5q92 0 169.5 -46.5t129.5 -135.5l90 82q-107 113 -107 207q0 31 6 49l-82 35
q-156 -150 -319 -150q-68 0 -119 36.5t-51 68.5zM1196 743q101 0 177 -53.5t77 -146.5q39 115 39 227q0 109 -33 209q-5 -79 -76 -137t-192 -58q-132 0 -281 33q-16 -83 -104 -174l92 -82q52 90 129.5 136t171.5 46zM621 82q72 -19 163 -19q87 0 156 17q-49 16 -83 74.5
t-34 146.5q0 126 54 234l-97 88l-96 -95q55 -98 55 -227q0 -87 -34.5 -145t-83.5 -74zM723 1085h37q71 0 142 22.5t122.5 56.5t84 75.5t32.5 79.5q0 27 -18.5 43t-49.5 16q-41 0 -82.5 -21t-80.5 -58t-69 -71.5t-66 -79.5t-52 -63zM246 1061q113 0 307 -70q18 15 72 74
q-132 15 -208.5 68t-76.5 129q0 40 22 77q-178 -132 -245 -329q48 51 129 51zM252 1028q-44 0 -74.5 -27t-30.5 -65q0 -39 32.5 -65.5t78.5 -26.5q122 0 256 114q-65 25 -99 37t-80 22.5t-83 10.5zM922 481q-33 -79 -33 -184q0 -88 23 -140.5t63 -52.5q32 0 48.5 37.5
t16.5 89.5q0 120 -118 250zM641 479q-121 -135 -121 -248q0 -56 19.5 -91.5t50.5 -35.5q38 0 60 51t22 142q0 100 -31 182zM778 979q-26 0 -46.5 -32t-20.5 -95q0 -96 67 -184q70 79 70 168q0 143 -70 143z" />
    <glyph glyph-name="exclamdown" unicode="&#xa1;" horiz-adv-x="419" 
d="M471 920q9 22 20 35.5t19 13.5q17 0 43.5 -31t26.5 -49q0 -14 -15 -39q-29 -56 -289 -475t-266 -430q-14 -27 -18.5 -36.5t-9.5 -26.5t-5 -34q0 -2 1.5 -14t1.5 -27q0 -24 -13.5 -53t-26.5 -48t-38 -50q-27 -37 -70 -37q-25 0 -65 78q-7 14 -7 27q0 16 33 70.5t83.5 130
t53.5 79.5q48 79 132 216t140 228.5t118 195t100 172.5t51 104zM645 1001q-38 0 -61 25t-23 51q0 27 24.5 59.5t53.5 32.5q18 0 46 -18t28 -31q0 -7 -5.5 -16t-16.5 -24.5t-19 -28.5q-3 -5 -4 -19t-5.5 -22.5t-17.5 -8.5z" />
    <glyph glyph-name="cent" unicode="&#xa2;" horiz-adv-x="706" 
d="M303 606q0 9 14 16t29 7t29 -7t14 -16v-100q39 8 96 8q39 -1 67 -12.5t38 -26.5q8 22 31.5 38.5t50.5 16.5q22 0 22 -14q0 -45 -66.5 -127t-121.5 -82q-7 0 -14 4.5t-7 7.5q0 1 19 21.5t38 52t19 58.5q0 9 -23.5 18.5t-54.5 9.5q-39 0 -94 -30v-400q66 25 148 84
q12 8 18.5 24t17.5 25q30 23 43 23q8 0 14.5 -5t6.5 -16q0 -25 -96 -92q-71 -47 -152 -82v-137q0 -10 -11.5 -16.5t-25.5 -6.5q-16 0 -31.5 7.5t-15.5 17.5v111q-61 -19 -110 -19q-72 0 -123.5 42.5t-51.5 115.5q0 110 84 208.5t199 145.5v127zM109 98q0 -50 26.5 -69
t81.5 -19q31 0 88 13q0 56 -1 181.5t-1 196.5q-79 -61 -136.5 -142.5t-57.5 -160.5z" />
    <glyph glyph-name="sterling" unicode="&#xa3;" horiz-adv-x="1527" 
d="M1503 1323q0 -68 -33.5 -162.5t-79 -172.5t-92.5 -133.5t-73 -55.5q-23 0 -51.5 43t-28.5 69q0 41 57 113q16 19 51.5 36t55.5 36q42 42 67 102t25 119q0 36 -39 62t-96 26q-97 0 -266 -134t-293 -323q-29 -45 -121 -200h186q15 0 27 -17t12 -41q0 -23 -12 -43t-27 -20
q-188 0 -260 -2q-13 -23 -65.5 -113t-74 -126.5t-66.5 -107t-91 -135.5q57 -24 171 -91t214 -128.5t209 -110.5t172 -49q64 0 137 22.5t133 66.5q12 8 28.5 38t27.5 39q28 25 51 25q28 0 28 -47q0 -23 -23 -43.5t-65 -44.5q-187 -109 -380 -109q-98 0 -195.5 38t-235.5 132
q-131 89 -200 128.5t-111 39.5q-27 0 -45 -18q-38 -41 -53 -41q-24 0 -45 31t-21 59q0 47 34 104t65 66q51 16 286 375h-94q-14 0 -24.5 16t-10.5 39q0 27 9.5 46t25.5 19q11 0 76 1.5t100 1.5q66 100 154 243q59 95 135.5 187.5t164 173t182 130.5t175.5 50q62 0 105.5 -18
t66 -49.5t32 -66t9.5 -75.5z" />
    <glyph glyph-name="yen" unicode="&#xa5;" horiz-adv-x="2170" 
d="M1645 -164q0 -24 -14 -43.5t-34 -19.5h-417q-133 -108 -305.5 -170t-344.5 -62q-76 0 -148 15.5t-138.5 49.5t-115.5 83t-78.5 122t-29.5 162q0 104 43.5 192.5t108 145t140.5 97t138.5 58t104.5 17.5q47 0 47 -22q0 -16 -13.5 -26.5t-35.5 -10.5q-13 0 -30 5t-31 5
q-29 0 -78.5 -19t-108 -58t-109.5 -89.5t-85.5 -122.5t-34.5 -149q0 -84 38.5 -158.5t101.5 -125t144 -80t164 -29.5q243 0 480 170h-166q-18 0 -30.5 19.5t-12.5 43.5q0 25 13 44.5t32 19.5h315q43 40 84 84h-254q-18 0 -30.5 19.5t-12.5 43.5q0 25 13 44.5t32 19.5h365
q199 242 428 626q6 13 11.5 25t4.5 12q-2 0 -6 -4q-59 -59 -92.5 -92t-99.5 -94t-112 -98.5t-111.5 -85.5t-118 -75t-111 -46t-109.5 -19q-89 0 -155 61t-66 154q0 73 33 173.5t80 199.5t94 195t80 185.5t33 147.5q0 90 -164 90q-88 0 -237.5 -65.5t-268.5 -148.5t-135 -132
q-5 -16 -12 -39.5t-10.5 -32.5t-13 -26.5t-25 -36.5t-42.5 -47q-78 -86 -121 -86q-21 0 -33 36.5t-12 67.5q0 27 14 57t34 48q99 99 267.5 207.5t359.5 187t319 78.5q92 0 153 -70q17 -19 26 -32t18.5 -38t9.5 -51q0 -61 -33.5 -152t-81.5 -185.5t-96 -189.5t-81.5 -189.5
t-33.5 -161.5q0 -71 27.5 -104t85.5 -33q91 0 218 72.5t248.5 181.5t225.5 222.5t172 209.5q42 59 95 133.5t74 104.5t52.5 72.5t58.5 74.5t64 74q65 65 98 65q30 0 46 -21.5t16 -43.5q0 -29 -21 -72q-24 -48 -62 -88.5t-65 -44.5q-19 -3 -38.5 -14.5t-40 -34.5t-38 -47
t-42 -63.5t-42.5 -70.5t-47.5 -83t-50.5 -87q-27 -45 -99 -169.5t-117.5 -201t-118.5 -187.5t-140 -199h254q18 0 30.5 -20t12.5 -44t-13.5 -43.5t-33.5 -19.5h-352l-76 -84h285q18 0 30.5 -20t12.5 -44z" />
    <glyph glyph-name="brokenbar" unicode="&#xa6;" horiz-adv-x="212" 
d="M47 1276q0 13 18 24t37 11q20 0 41 -11.5t21 -25.5v-623q0 -13 -18.5 -24t-36.5 -11q-19 0 -39.5 12.5t-20.5 26.5q0 8 -1 243.5t-1 377.5zM47 322q0 13 18 23.5t37 10.5q20 0 41 -11.5t21 -25.5v-622q0 -13 -18.5 -24t-36.5 -11q-19 0 -39.5 12.5t-20.5 26.5
q0 8 -1 243.5t-1 377.5z" />
    <glyph glyph-name="section" unicode="&#xa7;" horiz-adv-x="1073" 
d="M625 285q0 59 -42 97.5t-101.5 59t-119 40.5t-101.5 56.5t-42 92.5q0 65 57 130.5t158 106.5q-67 37 -67 107q0 72 65 136.5t158.5 100t183.5 35.5q96 0 166 -35t70 -69q0 -16 -11 -23q-78 -52 -114 -106q-4 -8 -15 -8q-4 0 -10 10t-6 18q0 11 6 17q19 34 19 71
q0 33 -29.5 53.5t-77.5 20.5q-39 0 -86.5 -11.5t-94 -32.5t-77.5 -58t-31 -82q0 -25 23 -43.5t59.5 -31t81 -25.5t89 -33t81 -47.5t59.5 -74t23 -108.5q0 -142 -174 -239q23 -52 23 -93q0 -76 -43.5 -139.5t-111.5 -101.5t-145 -59t-151 -21q-145 0 -223 57q-24 14 -47 37.5
t-23 42.5q0 15 6 21q21 19 39 42t33 46t16 24q9 13 19 13q5 0 10.5 -5.5t5.5 -9.5t-4 -12q-14 -25 -14 -76q0 -127 159 -127q66 0 146.5 30.5t142.5 87t62 118.5zM502 834q-79 -12 -122.5 -58.5t-43.5 -93.5q0 -42 40 -72t91.5 -45t114 -40.5t94.5 -55.5q53 35 74.5 73
t21.5 95q0 31 -12.5 55.5t-30.5 40.5t-48 31t-55.5 24t-63 22.5t-60.5 23.5z" />
    <glyph glyph-name="dieresis" unicode="&#xa8;" horiz-adv-x="385" 
d="M78 1538q38 0 61 -25t23 -51q0 -27 -24.5 -59.5t-53.5 -32.5q-18 0 -46 18t-28 31q0 7 5.5 16t16.5 25t19 29q3 5 4 19t5.5 22t17.5 8zM285 1538q38 0 61 -25t23 -51q0 -27 -24.5 -59.5t-53.5 -32.5q-18 0 -46 18t-28 31q0 7 5.5 16t16.5 25t19 29q3 5 4 19t5.5 22
t17.5 8z" />
    <glyph glyph-name="copyright" unicode="&#xa9;" horiz-adv-x="1236" 
d="M852 866q16 19 29.5 54.5t13.5 68.5q0 58 -66 58q-62 0 -149 -45.5t-164.5 -114t-132.5 -159t-55 -171.5q0 -133 151 -133q82 0 164 29q52 20 114 53.5t89 56.5q5 5 7.5 14t8.5 13q14 14 27 14q16 0 16 -14q0 -12 -49 -51q-103 -75 -196.5 -117.5t-196.5 -42.5
q-92 0 -150.5 49t-58.5 145q0 90 52.5 183t132.5 162.5t180 114t190 44.5q125 0 125 -96q0 -72 -54.5 -148.5t-125.5 -76.5q-13 0 -24 5t-11 15q0 20 29.5 46t54.5 26h16q9 0 17 4.5t12 9.5zM92 723q0 146 72 270t195.5 196.5t269.5 72.5t270 -72.5t196 -196.5t72 -270
t-72 -269.5t-196 -195.5t-270 -72t-269.5 72t-195.5 195.5t-72 269.5zM172 723q0 -135 67 -242t170.5 -162t219.5 -55q128 0 234.5 65.5t165 170.5t58.5 223q0 129 -63.5 235.5t-168.5 166t-226 59.5q-118 0 -222.5 -59.5t-169.5 -166.5t-65 -235z" />
    <glyph glyph-name="ordfeminine" unicode="&#xaa;" horiz-adv-x="905" 
d="M391 868q0 47 55 152q0 10 -4 10q-2 0 -6 -4q-82 -84 -196.5 -159.5t-198.5 -75.5q-44 0 -71 28.5t-27 69.5q0 71 65 164.5t150 152.5q171 121 336 121q88 0 153.5 -41.5t65.5 -85.5q0 -11 -10.5 -24t-24.5 -13q-12 0 -21 12t-17 28.5t-20.5 33.5t-40 29t-67.5 12
q-99 0 -266 -131q-88 -68 -153.5 -152.5t-65.5 -115.5q0 -45 41 -45q53 0 165 74.5t185 152.5q64 69 108 139q25 41 41 41q21 0 41.5 -39t20.5 -59q0 -32 -22.5 -78.5t-49.5 -46.5q-16 0 -47 -59t-31 -97q0 -31 43 -31q58 0 185 60q124 59 186 117q11 10 15 27t16 26
q36 29 49 29q10 0 10 -21q0 -23 -52.5 -69t-126.5 -91.5t-164.5 -79.5t-156.5 -34q-37 0 -64.5 21t-27.5 52z" />
    <glyph glyph-name="guillemotleft" unicode="&#xab;" horiz-adv-x="915" 
d="M444 942q4 4 15 4q21 0 37 -24t16 -45q0 -16 -8 -21q-187 -158 -295 -276q-57 -61 -57 -113q0 -33 11 -51t44 -51q73 -73 172 -164t135 -121q10 -7 10 -19q0 -26 -16.5 -49.5t-38.5 -23.5q-15 0 -23 8q-12 8 -70 59.5t-151 142t-168 171.5q-26 29 -26 84q0 75 43 127
q128 155 370 362zM799 942q4 4 14 4q21 0 37 -24t16 -45q0 -16 -8 -21q-187 -158 -295 -276q-57 -61 -57 -113q0 -33 11 -51t44 -51q73 -73 172 -164t135 -121q11 -7 11 -19q0 -26 -17 -49.5t-39 -23.5q-14 0 -22 8q-12 8 -70 59.5t-151 142t-168 171.5q-27 30 -27 84
q0 75 43 127q126 152 371 362z" />
    <glyph glyph-name="logicalnot" unicode="&#xac;" horiz-adv-x="933" 
d="M49 834q-14 0 -23.5 19t-9.5 40q0 20 9.5 39.5t23.5 19.5h782q32 0 45 -18t13 -37v-346q0 -15 -16.5 -25t-38.5 -10q-25 0 -42.5 10t-17.5 25q0 6 -1 81t-1 204q-44 0 -310 -1t-413 -1z" />
    <glyph glyph-name="registered" unicode="&#xae;" horiz-adv-x="1228" 
d="M1167 723q0 -144 -71 -267.5t-195.5 -196.5t-271.5 -73q-146 0 -269.5 72t-195.5 195.5t-72 269.5t72 270t195.5 196.5t269.5 72.5t270 -72.5t196 -196.5t72 -270zM571 741q23 -16 47.5 -52t40.5 -69t42.5 -90.5t41.5 -87.5q45 -92 84 -137q121 59 193 172t72 246
q0 129 -63.5 236t-169.5 167t-230 60q-227 0 -383 -201q208 88 485 88q132 0 198 -38t66 -91q0 -61 -66.5 -110.5t-147.5 -73t-146 -23.5q-44 0 -64 4zM231 481q47 110 175 277q30 41 67.5 83.5t62.5 67.5t64 63t49 48q16 16 31 16q8 0 14 -11t6 -26q0 -12 -12 -30
q-12 -19 -28.5 -33t-26.5 -14q-25 0 -79.5 -52t-109.5 -129q-102 -141 -159 -335q146 -146 344 -146q50 0 77 3.5t64 17.5q-28 22 -47.5 50t-46.5 79q-25 48 -51.5 115.5t-46 107.5t-41.5 57q-6 5 -21 12t-24 14t-9 15q0 13 26 28t42 15q14 0 42.5 -7t45.5 -7
q51 0 115.5 26.5t115 75.5t50.5 103q0 38 -38 61t-145 23q-96 0 -252 -34t-202 -75q-8 -7 -24 -24t-31 -28t-35 -18q-25 -68 -25 -147q0 -131 63 -242z" />
    <glyph glyph-name="macron" unicode="&#xaf;" horiz-adv-x="638" 
d="M588 647q0 -19 -12.5 -35t-32.5 -16h-459q-20 0 -30.5 15.5t-10.5 35.5q0 21 12.5 38t30.5 17h461q20 0 30.5 -16t10.5 -39z" />
    <glyph glyph-name="degree" unicode="&#xb0;" horiz-adv-x="589" 
d="M72 1036q0 103 86 182.5t200 79.5q85 0 145 -54t60 -142q0 -103 -84 -184.5t-196 -81.5q-85 0 -148 56t-63 144zM203 1049q0 -68 34.5 -118t75.5 -50q45 0 79 57.5t34 136.5q0 65 -35 113.5t-74 48.5q-47 0 -80.5 -56.5t-33.5 -131.5z" />
    <glyph glyph-name="plusminus" unicode="&#xb1;" horiz-adv-x="942" 
d="M489 983q24 0 44 -13.5t20 -33.5v-283h295q18 0 30.5 -19.5t12.5 -43.5t-13.5 -44t-33.5 -20h-291v-299q0 -18 -20 -30.5t-44 -12.5t-43.5 13t-19.5 32v297h-291q-18 0 -30.5 20t-12.5 44t13 43.5t32 19.5h289v287q0 18 19.5 30.5t43.5 12.5zM920 59q0 -24 -14 -42.5
t-34 -18.5h-815q-18 0 -30.5 18.5t-12.5 42.5t13 43t32 19h818q18 0 30.5 -19t12.5 -43z" />
    <glyph glyph-name="twosuperior" unicode="&#xb2;" horiz-adv-x="761" 
d="M666 764q0 13 20 33q25 20 45 20q12 0 12 -12q0 -33 -38.5 -57.5t-79 -33.5t-68.5 -9q-122 0 -250 79q-116 72 -174 72q-31 0 -57.5 -13.5t-28.5 -13.5q-14 0 -14 23q0 52 28 68q21 17 221 98.5t281 130.5q123 74 123 184q0 75 -40 113.5t-103 38.5q-80 0 -135 -29
q12 -8 12 -24q0 -14 -12 -35q-15 -32 -42.5 -52t-54.5 -20q-12 0 -18 15.5t-6 29.5q0 56 86 113q80 53 198 53q103 0 158 -52.5t55 -148.5q0 -69 -43 -133.5t-137 -105.5q-117 -51 -278.5 -105.5t-204.5 -77.5l40 2h1q66 0 190 -67q9 -5 36.5 -19.5t36 -19t31 -15.5t32 -15
t28 -11t30 -9t27 -4.5t29.5 -2.5q37 0 64 12z" />
    <glyph glyph-name="threesuperior" unicode="&#xb3;" horiz-adv-x="720" 
d="M74 608q60 -63 157 -63q65 0 135 39.5t117 103.5t47 127q0 36 -26 69.5t-66 33.5q-39 0 -65.5 -5t-38.5 -9.5t-17 -4.5q-10 0 -10 14q0 21 8 43t25 23q40 7 83 18.5t93.5 32t82.5 53t32 70.5q0 59 -51.5 89t-124.5 30q-106 0 -152 -39l5 -9q5 -10 5 -22q0 -39 -35 -78
t-77 -39q-13 0 -21 15.5t-8 34.5q0 62 82 118q40 31 106.5 48.5t135.5 17.5q46 0 84 -7.5t72 -24t53.5 -48t19.5 -74.5q0 -41 -30 -77.5t-77 -60t-93 -38.5t-89 -22q-4 0 -4 -4l1 -1t5 -1t18.5 1t20.5 1q78 0 123 -47t45 -123q0 -86 -58 -154.5t-143.5 -102.5t-177.5 -34
q-141 0 -219 86q-30 33 -33 86q0 18 11 18q20 0 36.5 -21.5t16.5 -45.5z" />
    <glyph glyph-name="acute" unicode="&#xb4;" horiz-adv-x="266" 
d="M170 1577q15 0 43.5 -32.5t28.5 -51.5q0 -39 -74.5 -94.5t-114.5 -55.5q-15 0 -22.5 11t-7.5 22q0 9 8 13q33 23 63.5 70t44.5 95q7 23 31 23z" />
    <glyph glyph-name="mu" unicode="&#xb5;" horiz-adv-x="1705" 
d="M14 236q3 5 21.5 29.5t27.5 44t9 38.5v21q0 48 69 133q17 22 45 22q18 0 40 -30.5t22 -49.5q0 -21 -10 -36q-11 -20 -68 -112.5t-76 -121.5q-53 -79 -53 -100q0 -19 14 -19q55 0 221 117q100 71 177 148.5t110 136.5q34 61 58 61q19 0 35 -29t16 -51q0 -31 -27.5 -84.5
t-54.5 -54.5q-17 0 -47 -51q-86 -130 -86 -180q0 -13 10.5 -23t30.5 -10q63 0 170 49q123 59 192 123q11 10 16 27t17 26q28 25 41 25q14 0 14 -21q0 -30 -80 -88q-4 -3 -20.5 -16t-30 -22.5t-35 -24t-48 -29.5t-56.5 -29q-129 -61 -227 -61q-80 0 -80 57q0 98 96 230
q2 2 0 3t-6 -3q-86 -86 -239.5 -186.5t-237.5 -100.5q-30 0 -47 14q-15 -22 -44 -69t-46.5 -73.5t-49.5 -67t-62 -68t-74.5 -58t-96.5 -53.5q-16 -8 -33 -8q-21 0 -34 11.5t-13 27.5q0 23 13 37t28 14q26 0 33 -14q46 18 93.5 56t84.5 80t80 102t71 106t67 109.5t60 95.5z
" />
    <glyph glyph-name="mu" unicode="&#x3bc;" horiz-adv-x="1705" 
d="M14 236q3 5 21.5 29.5t27.5 44t9 38.5v21q0 48 69 133q17 22 45 22q18 0 40 -30.5t22 -49.5q0 -21 -10 -36q-11 -20 -68 -112.5t-76 -121.5q-53 -79 -53 -100q0 -19 14 -19q55 0 221 117q100 71 177 148.5t110 136.5q34 61 58 61q19 0 35 -29t16 -51q0 -31 -27.5 -84.5
t-54.5 -54.5q-17 0 -47 -51q-86 -130 -86 -180q0 -13 10.5 -23t30.5 -10q63 0 170 49q123 59 192 123q11 10 16 27t17 26q28 25 41 25q14 0 14 -21q0 -30 -80 -88q-4 -3 -20.5 -16t-30 -22.5t-35 -24t-48 -29.5t-56.5 -29q-129 -61 -227 -61q-80 0 -80 57q0 98 96 230
q2 2 0 3t-6 -3q-86 -86 -239.5 -186.5t-237.5 -100.5q-30 0 -47 14q-15 -22 -44 -69t-46.5 -73.5t-49.5 -67t-62 -68t-74.5 -58t-96.5 -53.5q-16 -8 -33 -8q-21 0 -34 11.5t-13 27.5q0 23 13 37t28 14q26 0 33 -14q46 18 93.5 56t84.5 80t80 102t71 106t67 109.5t60 95.5z
" />
    <glyph glyph-name="periodcentered" unicode="&#xb7;" horiz-adv-x="178" 
d="M78 727q38 0 61 -25t23 -51q0 -27 -24.5 -59.5t-53.5 -32.5q-18 0 -46 18t-28 31q0 7 5.5 16t16.5 25t19 29q3 5 4 19t5.5 22t17.5 8z" />
    <glyph glyph-name="cedilla" unicode="&#xb8;" horiz-adv-x="464" 
d="M168 6h96q-8 -18 -8 -45q0 -18 43 -18q20 0 54 6t40 6q16 0 28.5 -15.5t12.5 -37.5q0 -15 -9 -37.5t-30 -48.5t-50 -48.5t-73.5 -37.5t-95.5 -15q-45 0 -82 11.5t-55 29.5q-6 6 -6 17q0 12 12.5 29.5t24.5 17.5q11 0 20 -8.5t17.5 -18t34 -18t65.5 -8.5q79 0 117 36.5
t38 67.5q0 29 -28 29q-18 0 -61 -11.5t-76 -11.5q-35 0 -35 29q0 1 3 31.5t3 68.5z" />
    <glyph glyph-name="onesuperior" unicode="&#xb9;" horiz-adv-x="335" 
d="M362 1174q5 5 5 6q0 4 -5 4l-4 -3q-4 -3 -11.5 -6.5t-16.5 -3.5q-18 0 -36 13t-18 26q0 14 23 17q24 7 70.5 35.5t62.5 48.5q24 28 133 28q10 0 10 -8q0 -4 -2 -8q-21 -29 -76 -100t-106 -141.5t-92 -135.5q-167 -262 -213 -409q-6 -17 -12 -17q-17 0 -37.5 19t-20.5 36
q0 2 2 7t2 6q57 150 197 377q69 108 145 209z" />
    <glyph glyph-name="ordmasculine" unicode="&#xba;" horiz-adv-x="614" 
d="M408 881q-65 -59 -145.5 -104.5t-151.5 -45.5q-117 0 -117 115q0 109 87 215t195 156q33 54 84.5 84t102.5 30q50 0 83.5 -33t33.5 -94q0 -89 -49 -172.5t-123 -150.5zM471 1221q12 -8 12 -13t-6 -9.5t-16 -4.5q-45 0 -97.5 -26t-97.5 -68q5 -121 101 -195
q137 148 137 287q0 40 -21.5 67t-52.5 27q-61 0 -113 -57q34 10 68 10q45 0 86 -18zM127 764q47 0 111.5 40t101.5 77q-38 28 -69 80t-31 122q-76 -50 -117 -134t-41 -128q0 -57 45 -57z" />
    <glyph glyph-name="guillemotright" unicode="&#xbb;" horiz-adv-x="925" 
d="M467 942q245 -210 371 -362q43 -52 43 -127q0 -54 -27 -84q-75 -81 -168 -171.5t-151 -142t-70 -59.5q-8 -8 -23 -8q-22 0 -38.5 23.5t-16.5 49.5q0 12 10 19q38 32 136.5 122t171.5 163q33 33 44 51t11 51q0 51 -58 113q-111 121 -294 276q-9 6 -9 21q0 21 16 45t38 24
q10 0 14 -4zM113 942q242 -207 370 -362q43 -52 43 -127q0 -55 -26 -84q-75 -81 -168 -171.5t-151 -142t-70 -59.5q-8 -8 -23 -8q-22 0 -38.5 23.5t-16.5 49.5q0 12 10 19q36 30 135 121t172 164q24 24 33 34.5t16 27.5t7 40q0 51 -58 113q-108 118 -295 276q-8 5 -8 21
q0 21 16 45t37 24q11 0 15 -4z" />
    <glyph glyph-name="onequarter" unicode="&#xbc;" horiz-adv-x="1439" 
d="M528 1217q4 4 4 8t-4 4q-1 0 -7.5 -5.5t-17 -10.5t-22.5 -5q-20 0 -43.5 15.5t-23.5 33.5q0 13 24 19q29 6 90 43.5t86 64.5q33 37 170 37q13 0 13 -10q0 -4 -2 -8q-235 -291 -349 -477q-110 -178 -174.5 -298.5t-97.5 -228.5q-6 -18 -18 -18q-20 0 -45 24t-25 44
q0 5 2 11l2 5q76 202 252 481q46 72 83 126t64.5 91t38.5 54zM1118 1274q-295 -388 -987 -1282q-10 -12 -29 -12q-27 0 -44 14.5t-17 34.5q0 12 8 20l975 1272q11 14 33 14q25 0 45 -15t20 -30q0 -10 -4 -16zM1020 791q-17 2 -28 15t-25 54q-11 28 -11 49q0 18 20 39t40 21
q27 0 54.5 -39.5t27.5 -98.5q0 -13 -4 -45q-6 -39 -30 -76.5t-52 -63.5t-71.5 -53.5t-71 -41.5t-68.5 -33l-23 -10q180 22 262 22q83 0 166 -14q119 193 242 338q25 29 52.5 39t74.5 12q20 0 20 -8q0 -4 -4 -8q-20 -17 -53 -52t-105.5 -132.5t-134.5 -210.5
q70 -26 93.5 -67.5t23.5 -107.5q0 -7 -4 -10.5t-8 -3.5q-12 0 -21 14q-22 38 -49.5 59t-72.5 40q-56 -102 -132.5 -278.5t-103.5 -260.5q-3 -8 -14 -8t-23 20q-22 32 -22 58q0 37 74 207.5t137 279.5q-59 13 -166 13q-85 0 -158.5 -7t-119 -17.5t-77.5 -21t-48 -17.5t-17 -7
q-17 0 -17 47q0 19 2 29q1 11 10.5 16.5t35.5 14t47 18.5q297 137 352 287z" />
    <glyph glyph-name="onehalf" unicode="&#xbd;" horiz-adv-x="1458" 
d="M1278 -84q0 19 22 41q32 25 56 25q18 0 18 -19q0 -41 -82 -74q-78 -34 -170 -34q-154 0 -301 92q-137 86 -215 86q-44 0 -86 -25q-12 -6 -20 -6q-17 0 -17 29q0 57 33 82q28 21 280 127t351 161q158 88 158 236q0 90 -53 137t-132 47q-50 0 -86.5 -6.5t-77.5 -28.5
q15 -10 15 -28q0 -15 -15 -45q-22 -39 -55 -63.5t-65 -24.5q-16 0 -23.5 18.5t-7.5 36.5q0 70 106 139q108 68 246 68q128 0 198 -65t70 -183q0 -89 -55 -170t-172 -133q-144 -63 -346.5 -133.5t-255.5 -98.5q-2 -2 -2 -6q1 3 23 7t28 4q49 0 101.5 -20.5t132.5 -63.5
q12 -7 51 -28.5t51 -27.5t42.5 -21t44.5 -20t38 -13t43 -10.5t39 -2.5q52 0 90 14zM1118 1274q-295 -388 -987 -1282q-10 -12 -29 -12q-27 0 -44 14.5t-17 34.5q0 12 8 20l975 1272q11 14 33 14q25 0 45 -15t20 -30q0 -10 -4 -16zM528 1217q4 4 4 8t-4 4q-1 0 -7.5 -5.5
t-17 -10.5t-22.5 -5q-20 0 -43.5 15.5t-23.5 33.5q0 13 24 19q29 6 90 43.5t86 64.5q33 37 170 37q13 0 13 -10q0 -4 -2 -8q-235 -291 -349 -477q-110 -178 -174.5 -298.5t-97.5 -228.5q-6 -18 -18 -18q-20 0 -45 24t-25 44q0 5 2 11l2 5q76 202 252 481q46 72 83 126
t64.5 91t38.5 54z" />
    <glyph glyph-name="threequarters" unicode="&#xbe;" horiz-adv-x="1792" 
d="M98 647q42 -48 89.5 -66t109.5 -18q83 0 172.5 50.5t150 131.5t60.5 160q0 48 -32 90.5t-85 42.5q-50 0 -85 -6.5t-51 -13t-19 -6.5q-13 0 -13 20q0 4 2.5 16.5t3.5 18.5q5 23 12 34t23 15q47 5 105 20.5t120.5 41.5t104 68t41.5 91q0 78 -64 114t-159 36
q-139 0 -199 -53q-1 -1 3.5 -4t9.5 -11t5 -20q0 -24 -18 -56q-52 -92 -129 -92q-17 0 -26 19.5t-9 42.5q0 76 107 153q52 38 132 60t165 22q48 0 96.5 -9.5t96.5 -30t78 -60.5t30 -94t-37.5 -100t-97 -76t-118 -49t-114.5 -27q-4 0 -4 -6q0 -4 6 -4q12 2 51 2
q92 0 150.5 -60t58.5 -155q0 -110 -72 -196.5t-180 -130.5t-225 -44q-178 0 -278 108q-40 45 -43 111q0 23 14 23q34 0 59 -52q6 -12 6 -30zM1366 791q-17 2 -28 15t-25 54q-10 25 -10 49q0 18 19.5 39t39.5 21q27 0 54.5 -39.5t27.5 -98.5q0 -13 -4 -45q-6 -39 -30 -76.5
t-52 -63.5t-71.5 -53.5t-71 -41.5t-68.5 -33l-23 -10q180 22 262 22q83 0 166 -14q119 193 242 338q25 29 52.5 39t74.5 12q21 0 21 -8q0 -3 -5 -8q-20 -17 -52.5 -52t-105 -132.5t-134.5 -210.5q70 -25 93 -67t23 -108q0 -7 -4 -10.5t-8 -3.5q-11 0 -20 14q-22 37 -50 58.5
t-73 40.5q-56 -102 -132.5 -278.5t-103.5 -260.5q-3 -8 -14 -8t-23 20q-22 32 -22 58q0 37 74 207.5t137 279.5q-59 13 -166 13q-85 0 -158.5 -7t-119 -17.5t-77.5 -21t-48 -17.5t-17 -7q-16 0 -16 47q0 19 2 29q1 11 10 16.5t35.5 14t46.5 18.5q297 137 352 287zM1421 1274
q-295 -388 -987 -1282q-10 -12 -28 -12q-27 0 -44.5 14.5t-17.5 34.5q0 12 8 20l975 1272q11 14 33 14q25 0 45 -15t20 -30q0 -10 -4 -16z" />
    <glyph glyph-name="questiondown" unicode="&#xbf;" horiz-adv-x="1179" 
d="M1079 1112q-38 0 -61 25t-23 51q0 27 24.5 59.5t53.5 32.5q18 0 46 -18t28 -31q0 -7 -5.5 -16t-16.5 -25t-19 -29q-3 -5 -4 -19t-5.5 -22t-17.5 -8zM793 -39q1 2 -5.5 7.5t-14 18t-7.5 29.5q0 56 54 122.5t112 66.5q25 0 43 -32.5t18 -59.5q0 -33 -33 -76t-116 -113
q-102 -86 -226 -135t-235 -49q-117 0 -213 81t-96 193q0 128 126 300.5t353 330.5q132 91 224 201t112 176q3 16 16 16q11 0 25 -18q35 -47 35 -92q0 -42 -93.5 -156t-214.5 -209q-206 -163 -300.5 -281.5t-94.5 -236.5q0 -83 64 -143t149 -60q185 0 318 119z" />
    <glyph glyph-name="Agrave" unicode="&#xc0;" 
d="M2232 1769q17 40 47 62q9 8 22 1t17 -22q13 -46 43.5 -89.5t65.5 -67.5q5 -5 4.5 -14t-11.5 -16t-26 -3q-23 5 -74.5 40t-74.5 66q-20 30 -13 43zM526 1087q140 0 340 -63t387 -150q445 342 856 543q6 64 64 92q40 19 94 34.5t74 15.5q34 0 50.5 -15.5t16.5 -34.5
q0 -14 -16 -30q-116 -101 -332.5 -384t-326.5 -474q102 -63 120 -78q9 -9 9 -23q0 -8 -5.5 -20.5t-9.5 -12.5q-6 0 -14 11q-5 6 -18 15.5t-48 31t-59 37.5q-168 -274 -233 -598q-3 -15 -17 -15q-23 0 -60.5 36t-37.5 65q0 114 270 559q-44 28 -153.5 81.5t-163.5 82.5
q-101 -79 -273 -227.5t-258 -217.5q-683 -544 -987 -592q-107 -14 -162 -14q-42 0 -85.5 24t-43.5 66q0 20 52 38.5t112 18.5q25 0 63 -20.5t60 -20.5q115 0 333.5 142.5t590.5 443.5q55 45 224 190t267 218q-357 157 -501 157q-32 0 -43 -8q-35 -24 -70 -24
q-47 0 -108.5 11.5t-61.5 35.5q0 23 34 48t70 25zM2038 1247q6 11 6 21q0 14 -14 14q-26 0 -221 -131.5t-443 -316.5q181 -100 289 -166q55 95 116.5 188.5t143.5 211.5t123 179z" />
    <glyph glyph-name="Aacute" unicode="&#xc1;" 
d="M526 1087q140 0 340 -63t387 -150q445 342 856 543q6 64 64 92q40 19 94 34.5t74 15.5q34 0 50.5 -15.5t16.5 -34.5q0 -14 -16 -30q-116 -101 -332.5 -384t-326.5 -474q102 -63 120 -78q9 -9 9 -23q0 -8 -5.5 -20.5t-9.5 -12.5q-6 0 -14 11q-5 6 -18 15.5t-48 31
t-59 37.5q-168 -274 -233 -598q-3 -15 -17 -15q-23 0 -60.5 36t-37.5 65q0 114 270 559q-44 28 -153.5 81.5t-163.5 82.5q-101 -79 -273 -227.5t-258 -217.5q-683 -544 -987 -592q-107 -14 -162 -14q-42 0 -85.5 24t-43.5 66q0 20 52 38.5t112 18.5q25 0 63 -20.5t60 -20.5
q115 0 333.5 142.5t590.5 443.5q55 45 224 190t267 218q-357 157 -501 157q-32 0 -43 -8q-35 -24 -70 -24q-47 0 -108.5 11.5t-61.5 35.5q0 23 34 48t70 25zM2038 1247q6 11 6 21q0 14 -14 14q-26 0 -221 -131.5t-443 -316.5q181 -100 289 -166q55 95 116.5 188.5
t143.5 211.5t123 179zM2363 1819q15 0 43.5 -32.5t28.5 -51.5q0 -39 -74 -94.5t-114 -55.5q-15 0 -23 11.5t-8 21.5q0 8 8 12q33 23 64 70.5t45 95.5q7 23 30 23z" />
    <glyph glyph-name="Acircumflex" unicode="&#xc2;" 
d="M526 1087q140 0 340 -63t387 -150q445 342 856 543q6 64 64 92q40 19 94 34.5t74 15.5q34 0 50.5 -15.5t16.5 -34.5q0 -14 -16 -30q-116 -101 -332.5 -384t-326.5 -474q102 -63 120 -78q9 -9 9 -23q0 -8 -5.5 -20.5t-9.5 -12.5q-6 0 -14 11q-5 6 -18 15.5t-48 31
t-59 37.5q-168 -274 -233 -598q-3 -15 -17 -15q-23 0 -60.5 36t-37.5 65q0 114 270 559q-44 28 -153.5 81.5t-163.5 82.5q-101 -79 -273 -227.5t-258 -217.5q-683 -544 -987 -592q-107 -14 -162 -14q-42 0 -85.5 24t-43.5 66q0 20 52 38.5t112 18.5q25 0 63 -20.5t60 -20.5
q115 0 333.5 142.5t590.5 443.5q55 45 224 190t267 218q-357 157 -501 157q-32 0 -43 -8q-35 -24 -70 -24q-47 0 -108.5 11.5t-61.5 35.5q0 23 34 48t70 25zM2038 1247q6 11 6 21q0 14 -14 14q-26 0 -221 -131.5t-443 -316.5q181 -100 289 -166q55 95 116.5 188.5
t143.5 211.5t123 179zM2337 1835q56 0 127.5 -78t101.5 -139q4 -12 4 -14q0 -14 -10.5 -27.5t-22.5 -13.5q-22 0 -40 18q-32 40 -109 117q-28 28 -59 28q-30 0 -58 -28q-11 -12 -33.5 -37t-40 -43.5t-32.5 -30.5q-22 -18 -49 -18q-10 0 -16.5 10t-6.5 23q0 9 6 24
q29 56 106 132.5t132 76.5z" />
    <glyph glyph-name="Atilde" unicode="&#xc3;" 
d="M526 1087q140 0 340 -63t387 -150q445 342 856 543q6 64 64 92q40 19 94 34.5t74 15.5q34 0 50.5 -15.5t16.5 -34.5q0 -14 -16 -30q-116 -101 -332.5 -384t-326.5 -474q102 -63 120 -78q9 -9 9 -23q0 -8 -5.5 -20.5t-9.5 -12.5q-6 0 -14 11q-5 6 -18 15.5t-48 31
t-59 37.5q-168 -274 -233 -598q-3 -15 -17 -15q-23 0 -60.5 36t-37.5 65q0 114 270 559q-44 28 -153.5 81.5t-163.5 82.5q-101 -79 -273 -227.5t-258 -217.5q-683 -544 -987 -592q-107 -14 -162 -14q-42 0 -85.5 24t-43.5 66q0 20 52 38.5t112 18.5q25 0 63 -20.5t60 -20.5
q115 0 333.5 142.5t590.5 443.5q55 45 224 190t267 218q-357 157 -501 157q-32 0 -43 -8q-35 -24 -70 -24q-47 0 -108.5 11.5t-61.5 35.5q0 23 34 48t70 25zM2038 1247q6 11 6 21q0 14 -14 14q-26 0 -221 -131.5t-443 -316.5q181 -100 289 -166q55 95 116.5 188.5
t143.5 211.5t123 179zM2619 1710q0 -10 -18.5 -34.5t-55 -48t-75.5 -23.5q-57 0 -151 34.5t-119 34.5q-32 0 -70.5 -22.5t-42.5 -22.5q-5 0 -10.5 5.5t-5.5 13.5q0 24 48.5 67t100.5 43q48 0 138 -33.5t136 -33.5q27 0 47 6.5t28 14t16.5 14t15.5 6.5q6 0 12 -6t6 -15z" />
    <glyph glyph-name="Adieresis" unicode="&#xc4;" 
d="M526 1087q140 0 340 -63t387 -150q445 342 856 543q6 64 64 92q40 19 94 34.5t74 15.5q34 0 50.5 -15.5t16.5 -34.5q0 -14 -16 -30q-116 -101 -332.5 -384t-326.5 -474q102 -63 120 -78q9 -9 9 -23q0 -8 -5.5 -20.5t-9.5 -12.5q-6 0 -14 11q-5 6 -18 15.5t-48 31
t-59 37.5q-168 -274 -233 -598q-3 -15 -17 -15q-23 0 -60.5 36t-37.5 65q0 114 270 559q-44 28 -153.5 81.5t-163.5 82.5q-101 -79 -273 -227.5t-258 -217.5q-683 -544 -987 -592q-107 -14 -162 -14q-42 0 -85.5 24t-43.5 66q0 20 52 38.5t112 18.5q25 0 63 -20.5t60 -20.5
q115 0 333.5 142.5t590.5 443.5q55 45 224 190t267 218q-357 157 -501 157q-32 0 -43 -8q-35 -24 -70 -24q-47 0 -108.5 11.5t-61.5 35.5q0 23 34 48t70 25zM2038 1247q6 11 6 21q0 14 -14 14q-26 0 -221 -131.5t-443 -316.5q181 -100 289 -166q55 95 116.5 188.5
t143.5 211.5t123 179zM2267 1757q38 0 61 -25t23 -51q0 -27 -24.5 -59.5t-53.5 -32.5q-18 0 -45.5 18t-27.5 31q0 7 5.5 16t16.5 25t19 29q3 5 3.5 19t5 22t17.5 8zM2474 1757q38 0 61 -25t23 -51q0 -27 -24.5 -59.5t-53.5 -32.5q-18 0 -46 18t-28 31q0 7 5.5 16t16.5 25
t19 29q3 5 4 19t5.5 22t17.5 8z" />
    <glyph glyph-name="Aring" unicode="&#xc5;" 
d="M526 1087q140 0 340 -63t387 -150q445 342 856 543q6 64 64 92q40 19 94 34.5t74 15.5q34 0 50.5 -15.5t16.5 -34.5q0 -14 -16 -30q-116 -101 -332.5 -384t-326.5 -474q102 -63 120 -78q9 -9 9 -23q0 -8 -5.5 -20.5t-9.5 -12.5q-6 0 -14 11q-5 6 -18 15.5t-48 31
t-59 37.5q-168 -274 -233 -598q-3 -15 -17 -15q-23 0 -60.5 36t-37.5 65q0 114 270 559q-44 28 -153.5 81.5t-163.5 82.5q-101 -79 -273 -227.5t-258 -217.5q-683 -544 -987 -592q-107 -14 -162 -14q-42 0 -85.5 24t-43.5 66q0 20 52 38.5t112 18.5q25 0 63 -20.5t60 -20.5
q115 0 333.5 142.5t590.5 443.5q55 45 224 190t267 218q-357 157 -501 157q-32 0 -43 -8q-35 -24 -70 -24q-47 0 -108.5 11.5t-61.5 35.5q0 23 34 48t70 25zM2038 1247q6 11 6 21q0 14 -14 14q-26 0 -221 -131.5t-443 -316.5q181 -100 289 -166q55 95 116.5 188.5
t143.5 211.5t123 179zM2210 1724q0 56 47 99t106 43q46 0 79.5 -29.5t33.5 -77.5q0 -58 -46 -100.5t-106 -42.5q-46 0 -80 30t-34 78zM2284 1731q0 -38 18 -64.5t39 -26.5q25 0 41 30t16 75q0 38 -18 62t-41 24q-22 0 -38.5 -29.5t-16.5 -70.5z" />
    <glyph glyph-name="AE" unicode="&#xc6;" horiz-adv-x="2973" 
d="M1419 -195q0 -111 66 -161t178 -50q262 0 616 203q174 100 293.5 202.5t184.5 190.5q6 9 14 57t27 77q34 55 65 55q19 0 29 -22.5t10 -43.5q0 -33 -47 -96q-46 -61 -89.5 -111.5t-109.5 -115.5t-152 -128.5t-186 -119.5q-385 -217 -663 -217q-158 0 -252 82t-94 241
q0 118 51 226q4 46 73.5 196.5t196.5 358.5q-44 28 -153.5 81.5t-163.5 82.5q-101 -79 -273 -227.5t-258 -217.5q-687 -548 -987 -592q-85 -14 -162 -14q-42 0 -85.5 24t-43.5 66q0 20 52 38.5t112 18.5q25 0 63 -20.5t60 -20.5q115 0 333.5 142.5t590.5 443.5
q55 45 224 190t267 218q-357 157 -501 157q-36 0 -66.5 -16t-46.5 -16q-47 0 -108.5 11.5t-61.5 35.5q0 23 34 48t70 25q140 0 340 -63t387 -150q445 342 856 543q6 64 64 92q40 19 94 34.5t74 15.5q34 0 50.5 -15.5t16.5 -34.5q0 -14 -16 -30q-47 -42 -137 -142
q179 90 400 142.5t403 52.5q34 0 65 -19q25 -18 40 -45t15 -41q0 -21 -91.5 -46t-131.5 -25q-22 0 -58 12t-75 12q-86 -1 -227.5 -45t-276 -108.5t-232 -147.5t-97.5 -153q0 -62 63.5 -92.5t163.5 -30.5q80 0 165 22.5t93 22.5q31 0 31 -33q0 -82 -20 -110t-95 -58
q-8 -3 -57.5 -21.5t-89 -34t-107 -45t-126 -59.5t-130 -73.5t-133.5 -89.5q-165 -123 -246.5 -257.5t-81.5 -261.5zM2038 1247q6 11 6 21q0 14 -14 14q-26 0 -221 -131.5t-443 -316.5q181 -100 289 -166q55 95 116.5 188.5t143.5 211.5t123 179zM1733 621
q-67 -114 -123 -242q33 28 49 39q101 72 222 135t196.5 93.5t177.5 67t112 40.5q21 8 21 14t-6 6q-5 0 -17 -4q-65 -20 -159 -20q-106 0 -189 34t-104 107q-102 -141 -180 -270z" />
    <glyph glyph-name="Ccedilla" unicode="&#xc7;" horiz-adv-x="1230" 
d="M1368 1049q44 49 81.5 132t37.5 156q0 79 -46.5 114.5t-115.5 35.5q-79 0 -198.5 -47.5t-251.5 -127.5t-264.5 -195.5t-238 -242t-171.5 -276t-66 -289.5q0 -174 81 -241.5t261 -67.5q198 0 408 86q371 154 469 244q13 12 29 39.5t28 36.5q41 36 51 36q9 0 15 -7.5
t6 -18.5q0 -35 -101 -115q-71 -56 -211.5 -138t-269.5 -136q-212 -86 -414 -97q-4 -14 -4 -36q0 -19 43 -19q20 0 54.5 6t40.5 6q16 0 28.5 -15.5t12.5 -37.5q0 -20 -16 -49.5t-45.5 -61t-82 -53.5t-115.5 -22q-45 0 -82 11.5t-55 29.5q-6 6 -6 16q0 12 12.5 29.5t24.5 17.5
q11 0 20 -8.5t17.5 -18t34 -18t65.5 -8.5q79 0 117.5 36.5t38.5 67.5q0 29 -29 29q-18 0 -61 -11t-76 -11q-35 0 -35 28q0 4 2.5 31.5t3.5 60.5q-183 9 -289 110.5t-106 297.5q0 151 62.5 307t165.5 286.5t238 247t278 197t287 127.5t263 47q51 0 94 -10t80.5 -32.5
t58.5 -64.5t21 -100q0 -27 -3.5 -55t-11.5 -55.5t-14.5 -49t-18 -47.5t-17 -38.5t-16.5 -33.5t-11 -22q-37 -74 -127 -148.5t-160 -74.5q-22 0 -64 17.5t-42 40.5q0 29 89.5 87t135.5 58q27 0 47 7t27 13z" />
    <glyph glyph-name="Egrave" unicode="&#xc8;" horiz-adv-x="1728" 
d="M139 -195q0 -206 244 -206q271 0 616 198q174 100 293.5 202.5t184.5 190.5q6 9 9.5 52.5t22.5 72.5q35 56 66 56q14 0 36.5 -12.5t22.5 -26.5q0 -36 -59 -115q-46 -61 -89.5 -111.5t-109.5 -115.5t-152 -128.5t-186 -119.5q-385 -217 -663 -217q-158 0 -252 82t-94 241
q0 140 85 291t265 279q69 49 148 94.5t137.5 75t138 62t113.5 45t102 35.5l69 24q13 6 13 12t-10 6q-1 0 -4 -1t-5 -1q-65 -20 -155 -20q-56 0 -116 10.5t-117 32t-93.5 61t-36.5 90.5q0 79 49 152.5t130.5 131t186 107.5t217 85.5t223 61t203.5 38t159 12.5q34 0 65 -19
q25 -18 40 -45t15 -41q0 -21 -91.5 -46t-131.5 -25q-22 0 -49 12t-66 12q-113 -1 -265 -44t-284.5 -106.5t-225.5 -145t-93 -152.5q0 -41 48 -72t112.5 -44t130.5 -13q79 0 164.5 22.5t93.5 22.5q31 0 31 -33q0 -34 -4 -56t-9 -36.5t-23 -28.5t-31 -21.5t-48 -25.5
q-382 -129 -643 -323q-165 -123 -246.5 -257.5t-81.5 -261.5zM1417 1808q25 0 31 -22q14 -48 44.5 -95.5t63.5 -70.5q9 -4 9 -12q0 -10 -8 -21.5t-23 -11.5q-40 0 -114 55t-74 94q0 19 28 51.5t43 32.5z" />
    <glyph glyph-name="Eacute" unicode="&#xc9;" horiz-adv-x="1728" 
d="M139 -195q0 -206 244 -206q271 0 616 198q174 100 293.5 202.5t184.5 190.5q6 9 9.5 52.5t22.5 72.5q35 56 66 56q14 0 36.5 -12.5t22.5 -26.5q0 -36 -59 -115q-46 -61 -89.5 -111.5t-109.5 -115.5t-152 -128.5t-186 -119.5q-385 -217 -663 -217q-158 0 -252 82t-94 241
q0 140 85 291t265 279q69 49 148 94.5t137.5 75t138 62t113.5 45t102 35.5l69 24q13 6 13 12t-10 6q-1 0 -4 -1t-5 -1q-65 -20 -155 -20q-56 0 -116 10.5t-117 32t-93.5 61t-36.5 90.5q0 79 49 152.5t130.5 131t186 107.5t217 85.5t223 61t203.5 38t159 12.5q34 0 65 -19
q25 -18 40 -45t15 -41q0 -21 -91.5 -46t-131.5 -25q-22 0 -49 12t-66 12q-69 -1 -178.5 -28t-227.5 -74t-222.5 -103t-172 -121.5t-67.5 -121.5q0 -41 48 -72t112.5 -44t130.5 -13q79 0 164.5 22.5t93.5 22.5q31 0 31 -33q0 -34 -4 -56t-9 -36.5t-23 -28.5t-31 -21.5
t-48 -25.5q-382 -129 -643 -323q-165 -123 -246.5 -257.5t-81.5 -261.5zM1567 1788q15 0 43 -32.5t28 -51.5q0 -39 -74 -94.5t-114 -55.5q-15 0 -23 11.5t-8 21.5q0 8 8 12q33 23 64 70.5t45 95.5q7 23 31 23z" />
    <glyph glyph-name="Ecircumflex" unicode="&#xca;" horiz-adv-x="1728" 
d="M139 -195q0 -206 244 -206q271 0 616 198q174 100 293.5 202.5t184.5 190.5q6 9 9.5 52.5t22.5 72.5q35 56 66 56q14 0 36.5 -12.5t22.5 -26.5q0 -36 -59 -115q-46 -61 -89.5 -111.5t-109.5 -115.5t-152 -128.5t-186 -119.5q-385 -217 -663 -217q-158 0 -252 82t-94 241
q0 140 85 291t265 279q69 49 148 94.5t137.5 75t138 62t113.5 45t102 35.5l69 24q13 6 13 12t-10 6q-1 0 -4 -1t-5 -1q-65 -20 -155 -20q-56 0 -116 10.5t-117 32t-93.5 61t-36.5 90.5q0 79 49 152.5t130.5 131t186 107.5t217 85.5t223 61t203.5 38t159 12.5q34 0 65 -19
q25 -18 40 -45t15 -41q0 -21 -91.5 -46t-131.5 -25q-22 0 -49 12t-66 12q-69 -1 -178.5 -28t-227.5 -74t-222.5 -103t-172 -121.5t-67.5 -121.5q0 -41 48 -72t112.5 -44t130.5 -13q79 0 164.5 22.5t93.5 22.5q31 0 31 -33q0 -34 -4 -56t-9 -36.5t-23 -28.5t-31 -21.5
t-48 -25.5q-382 -129 -643 -323q-165 -123 -246.5 -257.5t-81.5 -261.5zM1671 1823q56 0 128 -78t102 -139q4 -12 4 -15q0 -14 -10.5 -27.5t-22.5 -13.5q-22 0 -41 19q-32 40 -109 117q-28 28 -59 28q-29 0 -57 -28q-10 -10 -33.5 -36.5t-41 -44.5t-32.5 -30
q-23 -19 -49 -19q-10 0 -16.5 10t-6.5 23q0 7 7 25q29 56 105.5 132.5t131.5 76.5z" />
    <glyph glyph-name="Edieresis" unicode="&#xcb;" horiz-adv-x="1728" 
d="M139 -195q0 -206 244 -206q271 0 616 198q174 100 293.5 202.5t184.5 190.5q6 9 9.5 52.5t22.5 72.5q35 56 66 56q14 0 36.5 -12.5t22.5 -26.5q0 -36 -59 -115q-46 -61 -89.5 -111.5t-109.5 -115.5t-152 -128.5t-186 -119.5q-385 -217 -663 -217q-158 0 -252 82t-94 241
q0 140 85 291t265 279q69 49 148 94.5t137.5 75t138 62t113.5 45t102 35.5l69 24q13 6 13 12t-10 6q-1 0 -4 -1t-5 -1q-65 -20 -155 -20q-56 0 -116 10.5t-117 32t-93.5 61t-36.5 90.5q0 79 49 152.5t130.5 131t186 107.5t217 85.5t223 61t203.5 38t159 12.5q34 0 65 -19
q25 -18 40 -45t15 -41q0 -21 -91.5 -46t-131.5 -25q-22 0 -49 12t-66 12q-69 -1 -178.5 -28t-227.5 -74t-222.5 -103t-172 -121.5t-67.5 -121.5q0 -41 48 -72t112.5 -44t130.5 -13q79 0 164.5 22.5t93.5 22.5q31 0 31 -33q0 -34 -4 -56t-9 -36.5t-23 -28.5t-31 -21.5
t-48 -25.5q-382 -129 -643 -323q-165 -123 -246.5 -257.5t-81.5 -261.5zM1487 1761q38 0 61 -25t23 -50q0 -27 -24.5 -60t-53.5 -33q-18 0 -46 18t-28 31q0 7 5.5 16t16.5 25t19 29q3 5 4 19t5.5 22t17.5 8zM1694 1761q38 0 61 -25t23 -50q0 -27 -24.5 -60t-53.5 -33
q-18 0 -46 18t-28 31q0 7 5.5 16t16.5 25t19 29q3 5 4 19t5.5 22t17.5 8z" />
    <glyph glyph-name="Igrave" unicode="&#xcc;" horiz-adv-x="1531" 
d="M1806 1468q30 0 43 -30q147 38 225.5 56.5t172 34t159.5 15.5q197 0 197 -139q0 -33 -14.5 -76t-22.5 -53q-9 -12 -18 -12q-13 0 -13 20q0 162 -262 162q-134 0 -422 -72q-5 -44 -67 -106t-105 -62q-120 0 -452 -456q-113 -156 -212.5 -344t-166.5 -355q33 2 96 2
q220 0 369 -39q127 -32 127 -61q0 -10 -5.5 -19.5t-13.5 -9.5q-20 0 -39 8q-16 5 -30 20.5t-27 18.5q-162 43 -375 43q-73 0 -112 -2q-1 -2 -3.5 -9.5t-4.5 -12.5t-5.5 -12.5t-7 -11.5t-9 -7.5t-11.5 -3.5q-16 0 -36 13t-30 34q-181 -26 -397 -135q-26 -13 -43.5 -30
t-25.5 -30t-34 -28t-69 -27q-15 -2 -57.5 -15t-67.5 -13q-23 0 -23 20q0 42 21 88q20 44 84 68q179 70 315.5 99t282.5 42q-2 4 -2 10q0 8 6 23q59 136 175 326.5t257 377.5q247 328 449 527q-130 -42 -209.5 -64.5t-232.5 -46t-312 -23.5q-66 0 -103 37q-34 34 -34 84
q0 20 65.5 28.5t120.5 8.5q33 0 61.5 -10t48.5 -22.5t62.5 -22.5t99.5 -10q60 0 133 14t121 28.5t140.5 45.5t130.5 43q5 4 23 21t28.5 25.5t28 17.5t32.5 9zM1755 1747q24 0 31 -23q14 -48 44.5 -95t63.5 -70q9 -5 9 -13q0 -10 -8 -21.5t-23 -11.5q-40 0 -114.5 55.5
t-74.5 94.5q0 19 28.5 51.5t43.5 32.5z" />
    <glyph glyph-name="Iacute" unicode="&#xcd;" horiz-adv-x="1531" 
d="M1806 1468q30 0 43 -30q147 38 225.5 56.5t172 34t159.5 15.5q197 0 197 -139q0 -33 -14.5 -76t-22.5 -53q-9 -12 -18 -12q-13 0 -13 20q0 162 -262 162q-134 0 -422 -72q-5 -44 -67 -106t-105 -62q-120 0 -452 -456q-113 -156 -212.5 -344t-166.5 -355q33 2 96 2
q220 0 369 -39q127 -32 127 -61q0 -10 -5.5 -19.5t-13.5 -9.5q-20 0 -39 8q-16 5 -30 20.5t-27 18.5q-162 43 -375 43q-73 0 -112 -2q-1 -2 -3.5 -9.5t-4.5 -12.5t-5.5 -12.5t-7 -11.5t-9 -7.5t-11.5 -3.5q-16 0 -36 13t-30 34q-181 -26 -397 -135q-26 -13 -43.5 -30
t-25.5 -30t-34 -28t-69 -27q-15 -2 -57.5 -15t-67.5 -13q-23 0 -23 20q0 42 21 88q20 44 84 68q179 70 315.5 99t282.5 42q-2 4 -2 10q0 8 6 23q59 136 175 326.5t257 377.5q247 328 449 527q-130 -42 -209.5 -64.5t-232.5 -46t-312 -23.5q-66 0 -103 37q-34 34 -34 84
q0 20 65.5 28.5t120.5 8.5q33 0 61.5 -10t48.5 -22.5t62.5 -22.5t99.5 -10q60 0 133 14t121 28.5t140.5 45.5t130.5 43q5 4 23 21t28.5 25.5t28 17.5t32.5 9zM1765 1739q15 0 43.5 -32.5t28.5 -51.5q0 -39 -74 -94.5t-114 -55.5q-15 0 -23 11.5t-8 21.5q0 8 8 12
q33 23 64 70.5t45 95.5q7 23 30 23z" />
    <glyph glyph-name="Icircumflex" unicode="&#xce;" horiz-adv-x="1531" 
d="M1806 1468q30 0 43 -30q147 38 225.5 56.5t172 34t159.5 15.5q197 0 197 -139q0 -33 -14.5 -76t-22.5 -53q-9 -12 -18 -12q-13 0 -13 20q0 162 -262 162q-134 0 -422 -72q-5 -44 -67 -106t-105 -62q-120 0 -452 -456q-113 -156 -212.5 -344t-166.5 -355q33 2 96 2
q220 0 369 -39q127 -32 127 -61q0 -10 -5.5 -19.5t-13.5 -9.5q-20 0 -39 8q-16 5 -30 20.5t-27 18.5q-162 43 -375 43q-73 0 -112 -2q-1 -2 -3.5 -9.5t-4.5 -12.5t-5.5 -12.5t-7 -11.5t-9 -7.5t-11.5 -3.5q-16 0 -36 13t-30 34q-181 -26 -397 -135q-26 -13 -43.5 -30
t-25.5 -30t-34 -28t-69 -27q-15 -2 -57.5 -15t-67.5 -13q-23 0 -23 20q0 42 21 88q20 44 84 68q179 70 315.5 99t282.5 42q-2 4 -2 10q0 8 6 23q59 136 175 326.5t257 377.5q247 328 449 527q-130 -42 -209.5 -64.5t-232.5 -46t-312 -23.5q-66 0 -103 37q-34 34 -34 84
q0 20 65.5 28.5t120.5 8.5q33 0 61.5 -10t48.5 -22.5t62.5 -22.5t99.5 -10q60 0 133 14t121 28.5t140.5 45.5t130.5 43q5 4 23 21t28.5 25.5t28 17.5t32.5 9zM1776 1776q56 0 127.5 -78t101.5 -139q4 -12 4 -15q0 -14 -10.5 -27.5t-22.5 -13.5q-22 0 -41 19q-32 40 -108 116
q-29 29 -60 29q-28 0 -57 -29q-10 -11 -33.5 -36.5t-40.5 -43.5t-32 -30q-23 -19 -50 -19q-10 0 -16 10t-6 23q0 10 6 25q29 56 106 132.5t132 76.5z" />
    <glyph glyph-name="Idieresis" unicode="&#xcf;" horiz-adv-x="1531" 
d="M1806 1468q30 0 43 -30q147 38 225.5 56.5t172 34t159.5 15.5q197 0 197 -139q0 -33 -14.5 -76t-22.5 -53q-9 -12 -18 -12q-13 0 -13 20q0 162 -262 162q-134 0 -422 -72q-5 -44 -67 -106t-105 -62q-120 0 -452 -456q-113 -156 -212.5 -344t-166.5 -355q33 2 96 2
q220 0 369 -39q127 -32 127 -61q0 -10 -5.5 -19.5t-13.5 -9.5q-20 0 -39 8q-16 5 -30 20.5t-27 18.5q-162 43 -375 43q-73 0 -112 -2q-1 -2 -3.5 -9.5t-4.5 -12.5t-5.5 -12.5t-7 -11.5t-9 -7.5t-11.5 -3.5q-16 0 -36 13t-30 34q-181 -26 -397 -135q-26 -13 -43.5 -30
t-25.5 -30t-34 -28t-69 -27q-15 -2 -57.5 -15t-67.5 -13q-23 0 -23 20q0 42 21 88q20 44 84 68q179 70 315.5 99t282.5 42q-2 4 -2 10q0 8 6 23q59 136 175 326.5t257 377.5q247 328 449 527q-130 -42 -209.5 -64.5t-232.5 -46t-312 -23.5q-66 0 -103 37q-34 34 -34 84
q0 20 65.5 28.5t120.5 8.5q33 0 61.5 -10t48.5 -22.5t62.5 -22.5t99.5 -10q60 0 133 14t121 28.5t140.5 45.5t130.5 43q5 4 23 21t28.5 25.5t28 17.5t32.5 9zM1665 1683q38 0 61 -25t23 -50q0 -27 -24.5 -59.5t-53.5 -32.5q-18 0 -46 18t-28 31q0 7 5.5 16t16.5 24.5
t19 28.5q3 5 4 19t5.5 22t17.5 8zM1872 1683q38 0 61 -25t23 -50q0 -27 -24.5 -59.5t-53.5 -32.5q-18 0 -46 18t-28 31q0 7 5.5 16t16.5 24.5t19 28.5q3 5 4 19t5.5 22t17.5 8z" />
    <glyph glyph-name="Eth" unicode="&#xd0;" horiz-adv-x="2064" 
d="M2126 481q-40 14 -144 23q-83 -187 -210.5 -347t-267.5 -270t-291 -188.5t-288 -115t-253 -36.5q-55 0 -103.5 10.5t-91.5 33t-68.5 64t-25.5 97.5q0 94 92.5 218t237.5 235.5t299 179.5q390 172 864 172q92 246 92 442q0 236 -132 369t-396 133q-167 0 -359.5 -31
t-339 -73.5t-251 -82t-130.5 -61.5q-11 -9 -26 -29t-21 -26q-16 -19 -36 -32t-52.5 -27t-42.5 -19q-95 -35 -129 -35q-47 0 -47 37q0 84 103 135q41 19 97 42.5t197 70t286.5 82t354 63t410.5 27.5q113 0 209 -17.5t179.5 -57t142 -100.5t91.5 -152t33 -207
q0 -207 -106 -457q54 0 169.5 -29.5t115.5 -58.5q0 -23 -43 -23q-27 0 -64 9q-20 5 -35.5 17.5t-19.5 14.5zM1040 346q-150 -71 -287 -175t-225 -219.5t-88 -205.5q0 -54 34 -90t80.5 -49t102.5 -13q83 0 185 27t214 77t228 130t221 178t198 229t155 275q-204 0 -419.5 -39
t-398.5 -125zM1362 1475q22 0 38.5 -33t16.5 -60q0 -47 -65 -114.5t-111 -67.5q-65 0 -171.5 -110.5t-256.5 -315.5q146 -31 242 -31q65 0 127 15q24 6 34.5 16.5t13 21t5.5 13.5q27 22 45 22q12 0 19.5 -9t7.5 -21q0 -18 -29 -37t-61 -31q-69 -28 -170 -28q-30 0 -67 3.5
t-57 6t-74.5 10.5t-66.5 10q-121 -168 -223 -375.5t-168 -386.5q-6 -16 -20 -16q-25 0 -55.5 36.5t-30.5 72.5q0 18 4 26q111 258 405 653q-50 7 -102 7q-39 0 -57 -8.5t-43 -36.5q-33 -35 -146 -35q-29 0 -29 30q0 37 22 61.5t62 34t72 12.5t76 3q60 0 176 -22
q152 201 315 383t273 274q31 27 49 27z" />
    <glyph glyph-name="Ntilde" unicode="&#xd1;" horiz-adv-x="1859" 
d="M2185 1657q-4 -6 -8.5 -12.5t-20.5 -22t-32.5 -26.5t-42.5 -18.5t-53 -4.5q-59 7 -140 35.5t-102 31.5q-16 2 -33.5 -2t-27.5 -10l-27.5 -16.5t-24.5 -14.5q-17 -9 -23.5 0.5t5.5 26.5q11 16 27.5 32.5t51.5 34.5t70 15q53 -4 118 -29t103 -32q90 -19 136 32
q11 13 23.5 5t0.5 -25zM545 -18q-9 -19 -23 -19q-19 0 -52.5 23.5t-33.5 48.5q0 22 31 78q59 105 88.5 156t111 180t193.5 292q111 162 170.5 319.5t59.5 254.5q0 87 -33 116t-111 29q-116 0 -271.5 -64t-267 -143.5t-128.5 -130.5q-4 -11 -10 -29.5t-8 -25t-7.5 -20
t-11 -21t-16 -21.5t-23.5 -29t-33 -36q-24 -26 -36.5 -39t-29 -25t-28.5 -12q-35 0 -50.5 27t-15.5 65q0 27 14 57t33 48q106 106 271 212.5t351 180.5t320 74q107 0 162.5 -60t55.5 -161q0 -209 -261 -596q-4 -8 -4 -9q0 -6 4 -6q3 0 9 6q36 37 127.5 135.5t160.5 172
t171 169.5t184 158.5t173.5 107t162.5 44.5q78 0 124 -55t46 -131t-43 -194.5t-107.5 -242t-139.5 -266.5t-139.5 -268t-107.5 -246t-43 -201q0 -110 73.5 -166.5t194.5 -56.5q9 28 52.5 43.5t80.5 15.5q18 0 29.5 -14t11.5 -26q0 -27 -51 -52.5t-104 -25.5
q-164 0 -271.5 92.5t-107.5 245.5q0 134 55 293t133 301.5t156 276.5t133 258t55 208q0 119 -110 119q-73 0 -183.5 -72t-222.5 -188q-31 -32 -108.5 -110.5t-114 -116.5t-107.5 -112.5t-112.5 -123t-103 -121.5t-104.5 -133.5t-93 -134.5t-91.5 -149.5t-78.5 -153.5z" />
    <glyph glyph-name="Ograve" unicode="&#xd2;" horiz-adv-x="1220" 
d="M1180 1800q24 0 30 -22q14 -48 45 -95.5t64 -70.5q8 -4 8 -13q0 -10 -8 -21t-23 -11q-40 0 -114 55t-74 94q0 19 28.5 51.5t43.5 32.5zM1221 1315q-74 0 -138 -40.5t-90 -90.5q-15 -29 -22 -59.5t-21 -54t-57 -64.5q-56 -52 -77 -69t-32 -17q-49 0 -49 86q0 51 35 102
q68 88 204 167t257 79q108 0 159.5 -57.5t51.5 -155.5q0 -102 -45.5 -231t-121.5 -258.5t-182 -254.5t-220 -221t-242.5 -154.5t-243.5 -58.5q-169 0 -272 100t-103 265q0 134 52 280.5t139.5 278t204.5 252t243 207.5t259.5 138.5t250.5 51.5t196 -42.5t79 -98.5
q0 -13 -11 -13q-7 0 -33.5 17t-76.5 34t-115 17q-99 0 -221 -56.5t-239.5 -149.5t-230 -217.5t-197 -254.5t-136 -266t-51.5 -248q0 -117 60 -178.5t163 -61.5q92 0 204.5 47.5t223.5 127t217 191.5t187 234t130.5 260.5t49.5 266.5q0 89 -28 129.5t-111 40.5z" />
    <glyph glyph-name="Oacute" unicode="&#xd3;" horiz-adv-x="1220" 
d="M1270 1831q15 0 43 -32.5t28 -51.5q0 -39 -74 -94.5t-114 -55.5q-15 0 -23 11.5t-8 21.5q0 8 8 12q33 23 64 70.5t45 95.5q7 23 31 23zM1221 1315q-74 0 -138 -40.5t-90 -90.5q-15 -29 -22 -59.5t-21 -54t-57 -64.5q-56 -52 -77 -69t-32 -17q-49 0 -49 86q0 51 35 102
q68 88 204 167t257 79q108 0 159.5 -57.5t51.5 -155.5q0 -102 -45.5 -231t-121.5 -258.5t-182 -254.5t-220 -221t-242.5 -154.5t-243.5 -58.5q-169 0 -272 100t-103 265q0 134 52 280.5t139.5 278t204.5 252t243 207.5t259.5 138.5t250.5 51.5t196 -42.5t79 -98.5
q0 -13 -11 -13q-7 0 -33.5 17t-76.5 34t-115 17q-99 0 -221 -56.5t-239.5 -149.5t-230 -217.5t-197 -254.5t-136 -266t-51.5 -248q0 -117 60 -178.5t163 -61.5q92 0 204.5 47.5t223.5 127t217 191.5t187 234t130.5 260.5t49.5 266.5q0 89 -28 129.5t-111 40.5z" />
    <glyph glyph-name="Ocircumflex" unicode="&#xd4;" horiz-adv-x="1220" 
d="M1221 1315q-74 0 -138 -40.5t-90 -90.5q-15 -29 -22 -59.5t-21 -54t-57 -64.5q-56 -52 -77 -69t-32 -17q-49 0 -49 86q0 51 35 102q68 88 204 167t257 79q108 0 159.5 -57.5t51.5 -155.5q0 -102 -45.5 -231t-121.5 -258.5t-182 -254.5t-220 -221t-242.5 -154.5
t-243.5 -58.5q-169 0 -272 100t-103 265q0 134 52 280.5t139.5 278t204.5 252t243 207.5t259.5 138.5t250.5 51.5t196 -42.5t79 -98.5q0 -13 -11 -13q-7 0 -33.5 17t-76.5 34t-115 17q-99 0 -221 -56.5t-239.5 -149.5t-230 -217.5t-197 -254.5t-136 -266t-51.5 -248
q0 -117 60 -178.5t163 -61.5q92 0 204.5 47.5t223.5 127t217 191.5t187 234t130.5 260.5t49.5 266.5q0 89 -28 129.5t-111 40.5zM1186 1841q56 0 127.5 -78t101.5 -139q4 -12 4 -14q0 -14 -10.5 -27.5t-22.5 -13.5q-22 0 -40 18q-32 40 -109 117q-29 29 -59 29
q-29 0 -58 -29q-11 -12 -33.5 -37t-40 -43.5t-32.5 -30.5q-22 -18 -49 -18q-10 0 -16.5 10t-6.5 23q0 9 6 24q29 56 106 132.5t132 76.5z" />
    <glyph glyph-name="Otilde" unicode="&#xd5;" horiz-adv-x="1220" 
d="M1221 1315q-74 0 -138 -40.5t-90 -90.5q-15 -29 -22 -59.5t-21 -54t-57 -64.5q-56 -52 -77 -69t-32 -17q-49 0 -49 86q0 51 35 102q68 88 204 167t257 79q108 0 159.5 -57.5t51.5 -155.5q0 -102 -45.5 -231t-121.5 -258.5t-182 -254.5t-220 -221t-242.5 -154.5
t-243.5 -58.5q-169 0 -272 100t-103 265q0 134 52 280.5t139.5 278t204.5 252t243 207.5t259.5 138.5t250.5 51.5t196 -42.5t79 -98.5q0 -13 -11 -13q-7 0 -33.5 17t-76.5 34t-115 17q-99 0 -221 -56.5t-239.5 -149.5t-230 -217.5t-197 -254.5t-136 -266t-51.5 -248
q0 -117 60 -178.5t163 -61.5q92 0 204.5 47.5t223.5 127t217 191.5t187 234t130.5 260.5t49.5 266.5q0 89 -28 129.5t-111 40.5zM1577 1679q0 -7 -11.5 -23.5t-30.5 -35.5t-48.5 -33t-59.5 -14q-57 0 -151 34.5t-119 34.5q-32 0 -70.5 -22.5t-42.5 -22.5q-5 0 -10.5 5.5
t-5.5 13.5q0 24 49 67t101 43q48 0 138 -33.5t136 -33.5q35 0 56.5 10.5t32 20.5t18.5 10q6 0 12 -6t6 -15z" />
    <glyph glyph-name="Odieresis" unicode="&#xd6;" horiz-adv-x="1220" 
d="M1221 1315q-74 0 -138 -40.5t-90 -90.5q-15 -29 -22 -59.5t-21 -54t-57 -64.5q-56 -52 -77 -69t-32 -17q-49 0 -49 86q0 51 35 102q68 88 204 167t257 79q108 0 159.5 -57.5t51.5 -155.5q0 -102 -45.5 -231t-121.5 -258.5t-182 -254.5t-220 -221t-242.5 -154.5
t-243.5 -58.5q-169 0 -272 100t-103 265q0 134 52 280.5t139.5 278t204.5 252t243 207.5t259.5 138.5t250.5 51.5t196 -42.5t79 -98.5q0 -13 -11 -13q-7 0 -33.5 17t-76.5 34t-115 17q-99 0 -221 -56.5t-239.5 -149.5t-230 -217.5t-197 -254.5t-136 -266t-51.5 -248
q0 -117 60 -178.5t163 -61.5q92 0 204.5 47.5t223.5 127t217 191.5t187 234t130.5 260.5t49.5 266.5q0 89 -28 129.5t-111 40.5zM1104 1778q38 0 61 -25t23 -51q0 -27 -24.5 -59.5t-53.5 -32.5q-18 0 -46 18t-28 31q0 7 5.5 16t16.5 25t19 29q3 5 4 19t5.5 22t17.5 8z
M1311 1778q38 0 61 -25t23 -51q0 -27 -24.5 -59.5t-53.5 -32.5q-18 0 -46 18t-28 31q0 7 5.5 16t16.5 25t19 29q3 5 4 19t5.5 22t17.5 8z" />
    <glyph glyph-name="multiply" unicode="&#xd7;" horiz-adv-x="892" 
d="M745 1026q6 6 17 6q19 0 36 -19.5t17 -39.5q0 -13 -6 -19l-295 -299l291 -293q6 -6 6 -16q0 -18 -20 -36.5t-39 -18.5q-11 0 -17 6q-76 74 -291 289q-287 -287 -299 -295q-6 -6 -14 -6q-19 0 -38 20.5t-19 40.5q0 13 8 21q18 21 291 290q-278 274 -297 301q-4 4 -4 15
q0 20 19.5 38.5t39.5 18.5q13 0 21 -8q33 -30 292 -295z" />
    <glyph glyph-name="Oslash" unicode="&#xd8;" horiz-adv-x="1220" 
d="M1161 1536q107 0 187 -39l79 98q10 13 25 13q28 0 46 -15.5t18 -38.5q0 -11 -9 -20q-16 -21 -80 -98q15 -25 15 -31t-5 -11t-10 -5q-10 0 -28 12l-53 -72q96 -51 96 -188q0 -102 -45.5 -231t-121.5 -258.5t-182 -254.5t-220 -221t-242.5 -154.5t-243.5 -58.5
q-63 0 -135 21l-78 -99q-9 -12 -24 -12q-28 0 -48 14.5t-20 42.5q0 13 8 21q2 3 66 78q-68 48 -106 125t-38 174q0 134 52 280.5t139.5 278t204.5 252t243 207.5t259.5 138.5t250.5 51.5zM1200 1450q-99 0 -221 -56.5t-239.5 -149.5t-230 -217.5t-197 -254.5t-136 -266
t-51.5 -248q0 -122 65 -184q403 487 1010 1239q-69 -6 -126 -44.5t-81 -84.5q-15 -29 -22 -59.5t-21 -54t-57 -64.5q-56 -52 -77 -69t-32 -17q-49 0 -49 86q0 51 35 102q68 88 204.5 167t258.5 79l67 84q-58 12 -100 12zM1309 1286q-129 -163 -283 -353.5t-260 -320.5
t-262 -321.5t-217 -265.5q31 -7 61 -7q92 0 204.5 47.5t224 127t217.5 191.5t187 234t130 260.5t49 266.5q0 99 -51 141z" />
    <glyph glyph-name="Ugrave" unicode="&#xd9;" horiz-adv-x="1130" 
d="M958 1620q24 0 31 -23q14 -48 45 -95t64 -70q8 -4 8 -13q0 -10 -8 -21.5t-23 -11.5q-40 0 -114 55.5t-74 94.5q0 19 28 51.5t43 32.5zM561 1401q0 -64 -58.5 -182.5t-142 -251.5t-167.5 -269t-142.5 -265t-58.5 -208q0 -65 39.5 -113.5t105.5 -48.5q62 0 208.5 94
t300.5 220.5t291.5 256.5t188.5 202q68 96 170.5 247.5t175 253.5t127.5 164q33 33 50 33q19 0 43 -21.5t24 -39.5q0 -31 -20 -72q-26 -54 -65.5 -102t-65.5 -48q-42 0 -120 -115t-224 -366q-184 -317 -269 -762q-1 -9 -12.5 -14.5t-19.5 -5.5q-19 0 -45.5 30.5t-26.5 61.5
q0 14 2 22q18 102 74 249.5t100 242.5l45 96q-4 0 -6 -2q-54 -55 -122 -120t-193 -174t-237 -191.5t-234.5 -144.5t-204.5 -62q-84 0 -148.5 60t-64.5 145q0 99 59 243.5t143.5 286t168.5 273.5t143 235.5t59 142.5q0 34 -23.5 55.5t-53.5 28.5t-66 7q-93 0 -253 -64
t-287.5 -155t-127.5 -156q0 -43 -84.5 -143.5t-124.5 -100.5q-20 0 -37.5 26.5t-17.5 75.5q0 27 14 57t33 48q108 108 275.5 216.5t362 185.5t339.5 77q72 0 126 -35t54 -104z" />
    <glyph glyph-name="Uacute" unicode="&#xda;" horiz-adv-x="1130" 
d="M1116 1683q15 0 43.5 -32.5t28.5 -51.5q0 -39 -74.5 -94t-114.5 -55q-15 0 -22.5 11t-7.5 22q0 8 8 12q33 23 63.5 70.5t44.5 95.5q6 22 31 22zM557 1401q0 -64 -58.5 -182.5t-142 -251.5t-167.5 -269t-142.5 -265t-58.5 -208q0 -65 39.5 -113.5t105.5 -48.5
q62 0 208.5 94t300.5 220.5t291.5 256.5t188.5 202q68 96 170.5 247.5t175 253.5t127.5 164q33 33 50 33q19 0 43 -21.5t24 -39.5q0 -31 -20 -72q-26 -54 -65.5 -102t-65.5 -48q-42 0 -120 -115t-224 -366q-184 -317 -269 -762q-1 -9 -12.5 -14.5t-20.5 -5.5q-19 0 -45 30.5
t-26 61.5q0 14 2 22q18 102 74 249.5t100 242.5l45 96q-4 0 -6 -2q-54 -55 -122 -120t-193 -174t-237 -191.5t-234.5 -144.5t-204.5 -62q-84 0 -148.5 60t-64.5 145q0 99 59 243.5t143.5 286t168.5 273.5t143 235.5t59 142.5q0 34 -23.5 55.5t-53.5 28.5t-66 7
q-93 0 -253 -64t-287.5 -155t-127.5 -156q0 -43 -84.5 -143.5t-124.5 -100.5q-20 0 -37.5 26.5t-17.5 75.5q0 27 14 57t33 48q108 108 275.5 216.5t362 185.5t339.5 77q72 0 126 -35t54 -104z" />
    <glyph glyph-name="Ucircumflex" unicode="&#xdb;" horiz-adv-x="1130" 
d="M567 1401q0 -64 -58.5 -182.5t-142 -251.5t-167.5 -269t-142.5 -265t-58.5 -208q0 -65 39.5 -113.5t105.5 -48.5q62 0 208.5 94t301 220t292 256.5t188.5 202.5q68 96 170.5 247.5t175 253.5t127.5 164q33 33 49 33q19 0 43 -21.5t24 -39.5q0 -31 -20 -72
q-26 -54 -65.5 -102t-65.5 -48q-42 0 -120 -115t-224 -366q-184 -317 -269 -762q-1 -9 -12.5 -14.5t-19.5 -5.5q-19 0 -45.5 30.5t-26.5 61.5q0 14 2 22q18 102 74 249.5t100 242.5l45 96q-4 0 -6 -2q-54 -55 -122 -120t-193 -174t-237 -191.5t-234.5 -144.5t-204.5 -62
q-84 0 -148.5 60t-64.5 145q0 99 59 243.5t143.5 286t168.5 273.5t143 235.5t59 142.5q0 34 -23.5 55.5t-53.5 28.5t-66 7q-93 0 -253 -64t-287.5 -155t-127.5 -156q0 -43 -84.5 -143.5t-124.5 -100.5q-20 0 -37.5 26.5t-17.5 75.5q0 27 14 57t33 48q108 108 275.5 216.5
t362 185.5t339.5 77q72 0 126 -35t54 -104zM1047 1710q56 0 127.5 -78t101.5 -139q4 -12 4 -14q0 -14 -10.5 -27.5t-22.5 -13.5q-23 0 -41 18q-36 45 -108 117q-29 29 -60 29q-28 0 -57 -29q-10 -10 -33.5 -36.5t-41 -44.5t-32.5 -30q-22 -18 -49 -18q-10 0 -16 10t-6 23
q0 9 6 24q29 56 106 132.5t132 76.5z" />
    <glyph glyph-name="Udieresis" unicode="&#xdc;" horiz-adv-x="1130" 
d="M563 1403q0 -64 -58.5 -182.5t-142 -251.5t-167.5 -269t-142.5 -265t-58.5 -208q0 -65 39.5 -113t105.5 -48q62 0 208.5 93.5t300.5 220t291.5 256.5t188.5 202q68 95 171 247.5t175.5 253.5t127.5 164q33 33 49 33q19 0 43 -21.5t24 -39.5q0 -31 -20 -72
q-26 -54 -65.5 -102t-65.5 -48q-42 0 -120 -115t-224 -366q-184 -317 -269 -762q-1 -9 -12.5 -14.5t-19.5 -5.5q-19 0 -45.5 30.5t-26.5 61.5q0 14 2 22q18 102 74 249.5t100 242.5l45 96q-4 0 -6 -2q-54 -55 -122 -120t-193 -174t-237 -191.5t-234.5 -144.5t-204.5 -62
q-84 0 -148.5 60t-64.5 145q0 99 59 243.5t143.5 286t168.5 273.5t143 235.5t59 142.5q0 34 -23.5 55.5t-53.5 28.5t-66 7q-93 0 -253 -64t-287.5 -155t-127.5 -156q0 -43 -84.5 -143.5t-124.5 -100.5q-20 0 -37.5 26.5t-17.5 75.5q0 27 14 57t33 48q108 108 275.5 216.5
t362 185.5t339.5 77q72 0 126 -35t54 -104zM952 1649q38 0 61 -25t23 -51q0 -27 -24.5 -59.5t-53.5 -32.5q-18 0 -45.5 18t-27.5 31q0 7 5.5 16t16.5 24.5t19 28.5q3 5 3.5 19t5 22.5t17.5 8.5zM1159 1649q38 0 61 -25t23 -51q0 -27 -24.5 -59.5t-53.5 -32.5q-18 0 -45.5 18
t-27.5 31q0 7 5.5 16t16.5 24.5t19 28.5q3 5 3.5 19t5 22.5t17.5 8.5z" />
    <glyph glyph-name="Yacute" unicode="&#xdd;" horiz-adv-x="1705" 
d="M1726 1647q15 0 43.5 -32.5t28.5 -51.5q0 -39 -74 -94.5t-114 -55.5q-15 0 -23 11.5t-8 21.5q0 8 8 12q33 23 64 70.5t45 95.5q7 23 30 23zM1970 868q-29 -49 -91 -156q-65 -112 -100 -172t-106 -173t-120.5 -180t-128 -166t-144 -159t-153.5 -129.5t-171.5 -107.5
t-183 -64t-201.5 -26q-77 0 -153 16t-148 51t-127.5 85t-89 124t-33.5 162q0 104 43.5 192.5t108 145t140.5 97t138.5 58t104.5 17.5q47 0 47 -22q0 -16 -13.5 -26.5t-35.5 -10.5q-13 0 -30 5t-31 5q-29 0 -78.5 -19t-108 -58t-109.5 -89.5t-85.5 -122.5t-34.5 -149
q0 -118 66.5 -209.5t171 -137.5t225.5 -46q107 0 215.5 38t203 99t193 154.5t178.5 187.5t166.5 215.5t149.5 220t135 219.5q6 13 11.5 25t4.5 12q-2 0 -6 -4l-16 -16q-61 -61 -97.5 -97t-109 -104t-124.5 -111.5t-124.5 -99t-129 -87t-118 -54.5t-110.5 -23
q-89 0 -155.5 61t-66.5 154q0 73 41 182t99 220t116 219t99 206t41 156q0 90 -164 90q-88 0 -237.5 -65.5t-268.5 -148.5t-135 -132q-5 -16 -12 -39.5t-10.5 -32.5t-13 -26.5t-25 -36.5t-42.5 -47q-78 -86 -121 -86q-21 0 -33 36.5t-12 67.5q0 27 14 57t34 48
q99 99 267.5 207.5t359.5 187t319 78.5q79 0 138.5 -45t59.5 -123q0 -61 -40.5 -163t-98.5 -211.5t-115.5 -220.5t-98 -216t-40.5 -172q0 -71 27.5 -104t85.5 -33q91 0 230 85.5t274.5 209.5t251.5 250.5t184 222.5q42 59 95 133.5t74 104.5t52.5 72.5t58.5 74.5t64 74
q65 65 98 65q30 0 46 -21.5t16 -43.5q0 -29 -21 -72q-24 -48 -62 -88.5t-65 -44.5q-19 -3 -38.5 -14.5t-40 -34.5t-38 -47t-42 -63.5t-42.5 -70.5t-47.5 -83t-50.5 -87z" />
    <glyph glyph-name="Thorn" unicode="&#xde;" horiz-adv-x="888" 
d="M627 1161q-40 -65 -105.5 -169t-120.5 -192.5t-106 -174.5q95 95 230.5 181.5t209.5 86.5q37 0 60.5 -26t23.5 -66q0 -79 -67 -180q75 -14 129 -50q34 -21 52.5 -51t18.5 -51q0 -16 -14 -16q-12 0 -32.5 23.5t-20.5 35.5q0 2 1 8t1 8q0 3 -13 13q-53 41 -141 55
q-54 -73 -145 -150q-52 -42 -119.5 -66t-132.5 -24q-119 0 -119 68q0 25 25.5 58.5t73.5 68t133 58t188 24.5q94 128 94 190q0 31 -22 31q-45 0 -136.5 -55.5t-187 -138.5t-149.5 -156q-6 -8 -25 -33t-32.5 -45t-24.5 -41q-62 -112 -120.5 -230t-64.5 -147q-3 -18 -14 -18
q-18 0 -36.5 23.5t-18.5 49.5q0 11 46 101t162 293.5t273 464.5q50 82 66 116.5t16 61.5q0 2 -1 10.5t-1 17.5q0 52 63 125q17 20 28 24.5t28 4.5q18 0 37.5 -30.5t19.5 -53.5q0 -22 -10 -37zM520 512q66 56 98 94q-85 0 -172.5 -30.5t-141.5 -72.5t-54 -77
q0 -14 17.5 -21.5t37.5 -7.5q40 0 99.5 33.5t115.5 81.5z" />
    <glyph glyph-name="germandbls" unicode="&#xdf;" horiz-adv-x="958" 
d="M301 29q61 0 151 69t148 138q-80 0 -165.5 -30t-139 -72t-53.5 -77q0 -28 59 -28zM682 432q0 48 -18 89.5t-39.5 65t-39.5 53.5t-18 58q0 33 26 47t71 20.5t95 18.5t107 54.5t99 115.5q63 110 63 215q0 115 -67 115q-32 0 -69.5 -18.5t-78 -55.5t-78.5 -77.5t-83 -101
t-79.5 -109t-78.5 -118.5t-70 -112t-64.5 -106t-52.5 -86q-97 -155 -159.5 -259t-145.5 -257t-143 -289q-8 -21 -31 -21t-42 28t-19 54q0 9 14 37q87 175 126.5 251t109 197.5t167.5 278.5q183 290 292 434q289 381 480 381q85 0 138 -60.5t53 -150.5q0 -104 -70 -194
q-60 -78 -132 -124t-130.5 -57.5t-109 -15t-79 -9t-28.5 -26.5q0 -17 19 -37.5t46 -44.5t54 -54.5t46 -78t19 -104.5q0 -72 -37 -127q17 -3 33.5 -8t24.5 -8t27.5 -12.5t25.5 -12.5q43 -21 69.5 -47.5t26.5 -44.5q0 -17 -10 -17q-16 0 -45 23q-11 8 -19.5 26t-21.5 25
q-68 39 -129 51q-58 -79 -143 -147q-52 -43 -122 -67.5t-136 -24.5q-117 0 -117 67q0 18 14.5 43.5t47.5 54.5t79.5 53t118.5 40.5t156 17.5q57 75 57 168z" />
    <glyph glyph-name="agrave" unicode="&#xe0;" horiz-adv-x="888" 
d="M379 797q24 0 31 -23q14 -48 44.5 -95.5t63.5 -70.5q8 -4 8 -12q0 -11 -7.5 -22t-22.5 -11q-40 0 -114.5 55.5t-74.5 94.5q0 19 28.5 51.5t43.5 32.5zM377 66q0 46 55 151q0 10 -4 10q-2 0 -6 -4q-82 -84 -196.5 -159.5t-198.5 -75.5q-44 0 -71.5 28.5t-27.5 69.5
q0 71 65 164.5t150 152.5q171 121 336 121q88 0 153.5 -41.5t65.5 -85.5q0 -11 -10 -24t-24 -13q-12 0 -21 12t-17 29t-20.5 33.5t-40 28.5t-67.5 12q-100 0 -267 -131q-88 -68 -153.5 -152.5t-65.5 -115.5q0 -45 41 -45q53 0 165 74.5t185 152.5q67 72 109 139q25 41 41 41
q21 0 41 -39t20 -59q0 -32 -22.5 -78.5t-48.5 -46.5q-16 0 -47 -59t-31 -97q0 -30 43 -30q59 0 184 59q126 60 187 117q11 10 14.5 27t15.5 26q36 29 49 29q4 0 7.5 -7t3.5 -14q0 -23 -52.5 -69t-126.5 -91.5t-164.5 -79.5t-156.5 -34q-36 0 -64 21.5t-28 52.5z" />
    <glyph glyph-name="aacute" unicode="&#xe1;" horiz-adv-x="888" 
d="M545 795q15 0 43 -32.5t28 -51.5q0 -39 -74 -94.5t-114 -55.5q-15 0 -23 11.5t-8 21.5q0 8 9 12q33 23 63.5 70.5t44.5 95.5q7 23 31 23zM377 66q0 46 55 151q0 10 -4 10q-2 0 -6 -4q-82 -84 -196.5 -159.5t-198.5 -75.5q-44 0 -71.5 28.5t-27.5 69.5q0 71 65 164.5
t150 152.5q171 121 336 121q88 0 153.5 -41.5t65.5 -85.5q0 -11 -10 -24t-24 -13q-12 0 -21 12t-17 29t-20.5 33.5t-40 28.5t-67.5 12q-100 0 -267 -131q-88 -68 -153.5 -152.5t-65.5 -115.5q0 -45 41 -45q53 0 165 74.5t185 152.5q67 72 109 139q25 41 41 41q21 0 41 -39
t20 -59q0 -32 -22.5 -78.5t-48.5 -46.5q-16 0 -47 -59t-31 -97q0 -30 43 -30q59 0 184 59q126 60 187 117q11 10 14.5 27t15.5 26q36 29 49 29q4 0 7.5 -7t3.5 -14q0 -23 -52.5 -69t-126.5 -91.5t-164.5 -79.5t-156.5 -34q-36 0 -64 21.5t-28 52.5z" />
    <glyph glyph-name="acircumflex" unicode="&#xe2;" horiz-adv-x="888" 
d="M377 66q0 46 55 151q0 10 -4 10q-2 0 -6 -4q-82 -84 -196.5 -159.5t-198.5 -75.5q-44 0 -71.5 28.5t-27.5 69.5q0 71 65 164.5t150 152.5q171 121 336 121q88 0 153.5 -41.5t65.5 -85.5q0 -11 -10 -24t-24 -13q-12 0 -21 12t-17 29t-20.5 33.5t-40 28.5t-67.5 12
q-100 0 -267 -131q-88 -68 -153.5 -152.5t-65.5 -115.5q0 -45 41 -45q53 0 165 74.5t185 152.5q67 72 109 139q25 41 41 41q21 0 41 -39t20 -59q0 -32 -22.5 -78.5t-48.5 -46.5q-16 0 -47 -59t-31 -97q0 -30 43 -30q59 0 184 59q126 60 187 117q11 10 14.5 27t15.5 26
q36 29 49 29q4 0 7.5 -7t3.5 -14q0 -23 -52.5 -69t-126.5 -91.5t-164.5 -79.5t-156.5 -34q-36 0 -64 21.5t-28 52.5zM473 799q56 0 127.5 -78t101.5 -139l5 -15q0 -14 -10.5 -27.5t-22.5 -13.5q-22 0 -41 19q-32 40 -109 117q-28 28 -59 28q-29 0 -57 -28
q-10 -10 -33.5 -36.5t-41 -44.5t-32.5 -30q-23 -19 -49 -19q-10 0 -16.5 10t-6.5 23q0 7 7 25q29 56 105.5 132.5t131.5 76.5z" />
    <glyph glyph-name="atilde" unicode="&#xe3;" horiz-adv-x="888" 
d="M377 66q0 46 55 151q0 10 -4 10q-2 0 -6 -4q-82 -84 -196.5 -159.5t-198.5 -75.5q-44 0 -71.5 28.5t-27.5 69.5q0 71 65 164.5t150 152.5q171 121 336 121q88 0 153.5 -41.5t65.5 -85.5q0 -11 -10 -24t-24 -13q-12 0 -21 12t-17 29t-20.5 33.5t-40 28.5t-67.5 12
q-100 0 -267 -131q-88 -68 -153.5 -152.5t-65.5 -115.5q0 -45 41 -45q53 0 165 74.5t185 152.5q67 72 109 139q25 41 41 41q21 0 41 -39t20 -59q0 -32 -22.5 -78.5t-48.5 -46.5q-16 0 -47 -59t-31 -97q0 -30 43 -30q59 0 184 59q126 60 187 117q11 10 14.5 27t15.5 26
q36 29 49 29q4 0 7.5 -7t3.5 -14q0 -23 -52.5 -69t-126.5 -91.5t-164.5 -79.5t-156.5 -34q-36 0 -64 21.5t-28 52.5zM756 655q0 -7 -11.5 -23.5t-30.5 -35.5t-48.5 -33t-59.5 -14q-57 0 -151 34.5t-119 34.5q-32 0 -70.5 -22.5t-42.5 -22.5q-5 0 -10.5 5.5t-5.5 13.5
q0 24 48.5 67t100.5 43q49 0 139.5 -33.5t135.5 -33.5q35 0 56.5 10.5t31.5 20.5t18 10q6 0 12.5 -6t6.5 -15z" />
    <glyph glyph-name="adieresis" unicode="&#xe4;" horiz-adv-x="888" 
d="M377 727q38 0 61 -25t23 -51q0 -27 -24.5 -59.5t-53.5 -32.5q-18 0 -46 18t-28 31q0 7 5.5 16t16.5 25t19 29q3 5 4 19t5.5 22t17.5 8zM584 727q38 0 61 -25t23 -51q0 -27 -24.5 -59.5t-53.5 -32.5q-18 0 -46 18t-28 31q0 7 5.5 16t16.5 25t19 29q3 5 4 19t5.5 22t17.5 8
zM377 66q0 46 55 151q0 10 -4 10q-2 0 -6 -4q-82 -84 -196.5 -159.5t-198.5 -75.5q-44 0 -71.5 28.5t-27.5 69.5q0 71 65 164.5t150 152.5q171 121 336 121q88 0 153.5 -41.5t65.5 -85.5q0 -11 -10 -24t-24 -13q-12 0 -21 12t-17 29t-20.5 33.5t-40 28.5t-67.5 12
q-100 0 -267 -131q-88 -68 -153.5 -152.5t-65.5 -115.5q0 -45 41 -45q53 0 165 74.5t185 152.5q67 72 109 139q25 41 41 41q21 0 41 -39t20 -59q0 -32 -22.5 -78.5t-48.5 -46.5q-16 0 -47 -59t-31 -97q0 -30 43 -30q59 0 184 59q126 60 187 117q11 10 14.5 27t15.5 26
q36 29 49 29q4 0 7.5 -7t3.5 -14q0 -23 -52.5 -69t-126.5 -91.5t-164.5 -79.5t-156.5 -34q-36 0 -64 21.5t-28 52.5z" />
    <glyph glyph-name="aring" unicode="&#xe5;" horiz-adv-x="888" 
d="M377 66q0 46 55 151q0 10 -4 10q-2 0 -6 -4q-82 -84 -196.5 -159.5t-198.5 -75.5q-44 0 -71.5 28.5t-27.5 69.5q0 71 65 164.5t150 152.5q171 121 336 121q88 0 153.5 -41.5t65.5 -85.5q0 -11 -10 -24t-24 -13q-12 0 -21 12t-17 29t-20.5 33.5t-40 28.5t-67.5 12
q-100 0 -267 -131q-88 -68 -153.5 -152.5t-65.5 -115.5q0 -45 41 -45q53 0 165 74.5t185 152.5q67 72 109 139q25 41 41 41q21 0 41 -39t20 -59q0 -32 -22.5 -78.5t-48.5 -46.5q-16 0 -47 -59t-31 -97q0 -30 43 -30q59 0 184 59q126 60 187 117q11 10 14.5 27t15.5 26
q36 29 49 29q4 0 7.5 -7t3.5 -14q0 -23 -52.5 -69t-126.5 -91.5t-164.5 -79.5t-156.5 -34q-36 0 -64 21.5t-28 52.5zM369 676q0 56 47 98.5t106 42.5q46 0 79.5 -29t33.5 -77q0 -58 -46 -101t-106 -43q-46 0 -80 30.5t-34 78.5zM442 682q0 -38 18 -64t40 -26q25 0 41 30
t16 74q0 38 -18 62t-41 24q-22 0 -39 -29.5t-17 -70.5z" />
    <glyph glyph-name="ae" unicode="&#xe6;" horiz-adv-x="1024" 
d="M860 455q0 -46 -56 -98.5t-143 -88t-167 -35.5q-30 0 -48 5q-49 -62 -49 -132q0 -73 111 -73q114 0 265.5 57t248.5 135q12 9 20 30t19 30q31 24 45 24t14 -20q0 -30 -98 -103q-110 -78 -258 -138t-264 -60q-82 0 -136.5 36t-54.5 113q0 56 27 111q-56 -56 -122.5 -110.5
t-152.5 -102t-145 -47.5q-44 0 -71 28.5t-27 69.5q0 71 65 164.5t150 152.5q171 121 336 121q112 0 182 -63q112 59 207 59q102 0 102 -65zM387 475q-99 0 -266 -131q-88 -68 -153.5 -152.5t-65.5 -115.5q0 -45 41 -45q47 0 141.5 58t189.5 144q23 20 72.5 67t87.5 79.5
t64 48.5q-34 47 -111 47zM805 444q0 10 -10.5 16.5t-24.5 6.5q-51 0 -149 -66.5t-156 -132.5q14 -2 39 -2q70 0 142 31t115.5 72.5t43.5 74.5z" />
    <glyph glyph-name="ccedilla" unicode="&#xe7;" horiz-adv-x="679" 
d="M489 475q18 47 82 47q19 0 19 -12q0 -46 -65.5 -114t-121.5 -68q-16 0 -16 8q0 3 18.5 21.5t37 42.5t18.5 42q0 35 -60 35q-53 0 -141 -60t-158.5 -150.5t-70.5 -162.5q0 -39 22.5 -59t63.5 -20q107 0 271 67.5t276 147.5q12 8 18.5 24t17.5 25q28 22 43 22q5 0 11 -6
t6 -12q0 -16 -23.5 -36.5t-72.5 -53.5q-112 -74 -260 -140.5t-263 -80.5q-2 -6 -2 -33q0 -19 43 -19q20 0 54 6.5t40 6.5q16 0 28.5 -16t12.5 -38q0 -20 -15.5 -49.5t-45 -61t-82 -53.5t-115.5 -22q-45 0 -82 11.5t-55 29.5q-6 6 -6 16q0 12 12.5 29.5t24.5 17.5
q11 0 20 -8.5t17.5 -18t34 -18t65.5 -8.5q79 0 117.5 37t38.5 68q0 28 -29 28q-18 0 -61 -11t-76 -11q-35 0 -35 29q0 5 2.5 31.5t3.5 56.5q-54 9 -88.5 46t-34.5 91q0 91 70.5 184.5t178 153t208.5 59.5q35 0 64.5 -13t39.5 -28z" />
    <glyph glyph-name="egrave" unicode="&#xe8;" horiz-adv-x="657" 
d="M297 797q24 0 31 -23q14 -48 44.5 -95.5t63.5 -70.5q8 -4 8 -12q0 -11 -7.5 -22t-22.5 -11q-40 0 -114.5 55.5t-74.5 94.5q0 19 28.5 51.5t43.5 32.5zM479 455q0 -46 -56 -98.5t-143 -88t-167 -35.5q-29 0 -47 5q-50 -63 -50 -132q0 -73 111 -73q114 0 265.5 57
t248.5 135q11 9 19 30t20 30q31 24 45 24t14 -20q0 -30 -98 -103q-110 -78 -258 -138t-264 -60q-82 0 -135.5 35.5t-53.5 113.5q0 59 37 127t107 129q77 65 157 96t146 31q102 0 102 -65zM424 444q0 10 -10.5 16.5t-24.5 6.5q-51 0 -149 -66.5t-156 -132.5q14 -2 39 -2
q70 0 142 31t115.5 72.5t43.5 74.5z" />
    <glyph glyph-name="eacute" unicode="&#xe9;" horiz-adv-x="657" 
d="M381 784q15 0 43.5 -32.5t28.5 -51.5q0 -39 -74.5 -94t-114.5 -55q-15 0 -23 11.5t-8 21.5q0 8 9 12q33 23 63.5 70.5t44.5 95.5q6 22 31 22zM479 455q0 -46 -56 -98.5t-143 -88t-167 -35.5q-29 0 -47 5q-50 -63 -50 -132q0 -73 111 -73q114 0 265.5 57t248.5 135
q11 9 19 30t20 30q31 24 45 24t14 -20q0 -30 -98 -103q-110 -78 -258 -138t-264 -60q-82 0 -135.5 35.5t-53.5 113.5q0 59 37 127t107 129q77 65 157 96t146 31q102 0 102 -65zM424 444q0 10 -10.5 16.5t-24.5 6.5q-51 0 -149 -66.5t-156 -132.5q14 -2 39 -2q70 0 142 31
t115.5 72.5t43.5 74.5z" />
    <glyph glyph-name="ecircumflex" unicode="&#xea;" horiz-adv-x="657" 
d="M344 799q56 0 127.5 -78t101.5 -139l5 -15q0 -14 -10.5 -27.5t-22.5 -13.5q-22 0 -41 19q-32 40 -109 117q-28 28 -59 28q-29 0 -57 -28q-10 -10 -33.5 -36.5t-41 -44.5t-32.5 -30q-23 -19 -49 -19q-10 0 -16.5 10t-6.5 23q0 10 6 25q29 56 106 132.5t132 76.5zM479 455
q0 -46 -56 -98.5t-143 -88t-167 -35.5q-29 0 -47 5q-50 -63 -50 -132q0 -73 111 -73q114 0 265.5 57t248.5 135q11 9 19 30t20 30q31 24 45 24t14 -20q0 -30 -98 -103q-110 -78 -258 -138t-264 -60q-82 0 -135.5 35.5t-53.5 113.5q0 59 37 127t107 129q77 65 157 96t146 31
q102 0 102 -65zM424 444q0 10 -10.5 16.5t-24.5 6.5q-51 0 -149 -66.5t-156 -132.5q14 -2 39 -2q70 0 142 31t115.5 72.5t43.5 74.5z" />
    <glyph glyph-name="edieresis" unicode="&#xeb;" horiz-adv-x="657" 
d="M260 717q38 0 61 -25t23 -51q0 -27 -24.5 -59.5t-53.5 -32.5q-18 0 -45.5 18t-27.5 31q0 7 5 16t16.5 25t18.5 29q3 5 4 19t5.5 22t17.5 8zM467 717q38 0 61 -25t23 -51q0 -27 -24.5 -59.5t-53.5 -32.5q-18 0 -46 18t-28 31q0 7 5.5 16t16.5 25t19 29q3 5 4 19t5.5 22
t17.5 8zM479 455q0 -46 -56 -98.5t-143 -88t-167 -35.5q-29 0 -47 5q-50 -63 -50 -132q0 -73 111 -73q114 0 265.5 57t248.5 135q11 9 19 30t20 30q31 24 45 24t14 -20q0 -30 -98 -103q-110 -78 -258 -138t-264 -60q-82 0 -135.5 35.5t-53.5 113.5q0 59 37 127t107 129
q77 65 157 96t146 31q102 0 102 -65zM424 444q0 10 -10.5 16.5t-24.5 6.5q-51 0 -149 -66.5t-156 -132.5q14 -2 39 -2q70 0 142 31t115.5 72.5t43.5 74.5z" />
    <glyph glyph-name="igrave" unicode="&#xec;" horiz-adv-x="432" 
d="M274 805q21 -10 17 -35q-9 -49 -3 -105.5t25 -91.5q5 -9 2 -14q-4 -9 -17 -16t-26 0q-35 19 -76.5 101t-23.5 118q7 15 47.5 32t54.5 11zM61 354q0 9 -2 20t-2 15q0 11 3 21t10.5 22t13.5 19.5t19 23.5t20 25q17 24 31 24q21 0 53 -73q8 -20 8 -35q0 -19 -31 -65.5
t-67.5 -94.5t-67.5 -106t-31 -97q0 -10 8 -18t19 -8q68 0 190.5 59.5t186.5 118.5q11 10 16 26t17 25q34 27 43 27q14 0 14 -19q0 -28 -80 -92q-92 -73 -209.5 -127.5t-204.5 -54.5q-37 0 -61.5 21.5t-24.5 54.5q0 42 32 104t64.5 114t32.5 70z" />
    <glyph glyph-name="iacute" unicode="&#xed;" horiz-adv-x="432" 
d="M408 809q15 0 43 -32.5t28 -51.5q0 -39 -74 -94.5t-114 -55.5q-15 0 -23 11.5t-8 21.5q0 9 8 13q33 23 64 70t45 95q7 23 31 23zM61 354q0 9 -2 20t-2 15q0 11 3 21t10.5 22t13.5 19.5t19 23.5t20 25q17 24 31 24q21 0 53 -73q8 -20 8 -35q0 -19 -31 -65.5t-67.5 -94.5
t-67.5 -106t-31 -97q0 -10 8 -18t19 -8q68 0 190.5 59.5t186.5 118.5q11 10 16 26t17 25q34 27 43 27q14 0 14 -19q0 -28 -80 -92q-92 -73 -209.5 -127.5t-204.5 -54.5q-37 0 -61.5 21.5t-24.5 54.5q0 42 32 104t64.5 114t32.5 70z" />
    <glyph glyph-name="icircumflex" unicode="&#xee;" horiz-adv-x="432" 
d="M250 793q38 0 89 -43.5t87 -91.5t53 -83q4 -12 4 -14q0 -105 -152 62q-28 30 -30 32q-29 29 -59 29q-29 0 -58 -29q-10 -11 -33.5 -36.5t-40.5 -43.5t-32 -30q-23 -19 -49 -19q-10 0 -16.5 10t-6.5 23q0 10 6 25q29 56 106 132.5t132 76.5zM61 354q0 9 -2 20t-2 15
q0 11 3 21t10.5 22t13.5 19.5t19 23.5t20 25q17 24 31 24q21 0 53 -73q8 -20 8 -35q0 -19 -31 -65.5t-67.5 -94.5t-67.5 -106t-31 -97q0 -10 8 -18t19 -8q68 0 190.5 59.5t186.5 118.5q11 10 16 26t17 25q34 27 43 27q14 0 14 -19q0 -28 -80 -92q-92 -73 -209.5 -127.5
t-204.5 -54.5q-37 0 -61.5 21.5t-24.5 54.5q0 42 32 104t64.5 114t32.5 70z" />
    <glyph glyph-name="idieresis" unicode="&#xef;" horiz-adv-x="432" 
d="M106 752q38 0 61 -25t23 -51q0 -27 -24 -59.5t-53 -32.5q-18 0 -46 18t-28 31q0 7 5.5 16t16.5 24.5t19 28.5q3 5 3.5 19t5 22.5t17.5 8.5zM313 752q38 0 61 -25t23 -51q0 -27 -24.5 -59.5t-53.5 -32.5q-18 0 -45.5 18t-27.5 31q0 7 5.5 16t16.5 24.5t19 28.5q3 5 3.5 19
t5 22.5t17.5 8.5zM61 354q0 9 -2 20t-2 15q0 11 3 21t10.5 22t13.5 19.5t19 23.5t20 25q17 24 31 24q21 0 53 -73q8 -20 8 -35q0 -19 -31 -65.5t-67.5 -94.5t-67.5 -106t-31 -97q0 -10 8 -18t19 -8q68 0 190.5 59.5t186.5 118.5q11 10 16 26t17 25q34 27 43 27q14 0 14 -19
q0 -28 -80 -92q-92 -73 -209.5 -127.5t-204.5 -54.5q-37 0 -61.5 21.5t-24.5 54.5q0 42 32 104t64.5 114t32.5 70z" />
    <glyph glyph-name="eth" unicode="&#xf0;" horiz-adv-x="614" 
d="M395 698q88 0 172 23q4 50 4 67q0 59 -10 84q-9 22 -34.5 28t-34.5 26q-17 39 -17 61q0 11 9.5 19t19.5 8q39 0 95 -52t63 -108q6 -69 6 -92q46 20 76.5 42.5t40.5 35t14 12.5q24 0 24 -23q0 -21 -65 -71.5t-92 -55.5q-7 -111 -64 -241q-80 -179 -217 -334
q-56 -63 -135 -107.5t-148 -44.5q-65 0 -100 37.5t-35 102.5q0 94 62.5 183.5t154 142.5t178.5 53q41 0 82 -13q11 -4 11 -14q0 -5 -6 -9.5t-15 -4.5q-80 0 -170.5 -63t-150.5 -154t-60 -166q0 -24 17.5 -39t44.5 -15q54 0 113.5 39.5t111.5 100.5q99 117 176 331
q31 81 47 189q-73 -21 -155 -21q-13 0 -21 10t-8 19q0 6 5 10t11 4z" />
    <glyph glyph-name="ntilde" unicode="&#xf1;" horiz-adv-x="886" 
d="M836 676q0 -10 -18.5 -34.5t-55.5 -48.5t-76 -24q-57 0 -151 35t-119 35q-32 0 -70.5 -22.5t-42.5 -22.5q-5 0 -10.5 5t-5.5 13q0 24 48.5 67.5t100.5 43.5q48 0 139 -34t136 -34q35 0 56.5 10.5t31.5 20.5t18 10q6 0 12.5 -5.5t6.5 -14.5zM381 61q0 45 25 102t55 100
t55 86t25 63q0 13 -6.5 20.5t-16.5 7.5q-61 0 -182.5 -77t-231 -181t-139.5 -174q-6 -14 -24 -14q-20 0 -33.5 17.5t-13.5 43.5q0 18 46 101t72 123q33 52 33 77q0 8 -2 18.5t-2 14.5q0 11 3 21t10.5 22t13 19.5t19 24t19.5 24.5q17 24 37 24q17 0 36.5 -34t19.5 -52
q0 -20 -11 -37q-6 -10 -67 -102t-68 -106q54 47 111 92.5t139 104.5t158 95.5t125 36.5q33 0 55.5 -24.5t22.5 -55.5q0 -37 -21.5 -81.5t-52 -85t-61.5 -79t-52.5 -76t-21.5 -63.5q0 -11 12 -19.5t29 -8.5q76 0 194.5 57.5t186.5 120.5q11 10 15.5 27t16.5 26q31 25 41 25
q17 0 17 -21q0 -28 -80 -92q-94 -75 -209 -127.5t-209 -52.5q-38 0 -63 19t-25 50z" />
    <glyph glyph-name="ograve" unicode="&#xf2;" horiz-adv-x="649" 
d="M444 844q24 0 31 -23q14 -48 45 -95.5t64 -70.5q8 -4 8 -12q0 -10 -8 -21.5t-23 -11.5q-40 0 -114 55.5t-74 94.5q0 19 28 51.5t43 32.5zM348 145q44 -20 107 -20q103 0 188 70q9 8 15 24t18 25q35 28 53 28q14 0 14 -18q0 -16 -22 -36.5t-72 -57.5q-92 -66 -192 -66
q-70 0 -138 29q-60 -54 -133.5 -97.5t-132.5 -43.5q-54 0 -82 40.5t-28 94.5q0 129 123 252q80 77 153 108q33 54 84.5 84.5t102.5 30.5q50 0 83 -32.5t33 -94.5q0 -158 -174 -320zM416 481q12 -8 12 -12q0 -5 -7 -10.5t-15 -5.5q-43 0 -100.5 -25.5t-94.5 -60.5
q0 -115 100 -201q58 63 98 146.5t40 140.5q0 47 -23 71.5t-53 24.5q-59 0 -111 -57q40 8 68 8q44 0 86 -19zM80 23q37 0 100 38t105 80q-49 34 -77 91.5t-28 111.5q-58 -45 -107.5 -129.5t-49.5 -128.5q0 -63 57 -63z" />
    <glyph glyph-name="oacute" unicode="&#xf3;" horiz-adv-x="649" 
d="M465 862q15 0 43.5 -32.5t28.5 -51.5q0 -39 -74.5 -94t-114.5 -55q-15 0 -23 11.5t-8 21.5q0 8 9 12q33 23 63.5 70.5t44.5 95.5q6 22 31 22zM348 145q44 -20 107 -20q103 0 188 70q9 8 15 24t18 25q35 28 53 28q14 0 14 -18q0 -16 -22 -36.5t-72 -57.5q-92 -66 -192 -66
q-70 0 -138 29q-60 -54 -133.5 -97.5t-132.5 -43.5q-54 0 -82 40.5t-28 94.5q0 129 123 252q80 77 153 108q33 54 84.5 84.5t102.5 30.5q50 0 83 -32.5t33 -94.5q0 -158 -174 -320zM416 481q12 -8 12 -12q0 -5 -7 -10.5t-15 -5.5q-43 0 -100.5 -25.5t-94.5 -60.5
q0 -115 100 -201q58 63 98 146.5t40 140.5q0 47 -23 71.5t-53 24.5q-59 0 -111 -57q40 8 68 8q44 0 86 -19zM80 23q37 0 100 38t105 80q-49 34 -77 91.5t-28 111.5q-58 -45 -107.5 -129.5t-49.5 -128.5q0 -63 57 -63z" />
    <glyph glyph-name="ocircumflex" unicode="&#xf4;" horiz-adv-x="649" 
d="M444 842q56 0 128 -78t102 -139q4 -12 4 -15q0 -14 -10.5 -27.5t-22.5 -13.5q-22 0 -41 19q-36 45 -108 117q-28 28 -60 28q-29 0 -57 -28q-10 -10 -33.5 -36.5t-41 -44.5t-32.5 -30q-23 -19 -49 -19q-10 0 -16 10t-6 23q0 10 6 25q29 56 105.5 132.5t131.5 76.5z
M348 145q44 -20 107 -20q103 0 188 70q9 8 15 24t18 25q35 28 53 28q14 0 14 -18q0 -16 -22 -36.5t-72 -57.5q-92 -66 -192 -66q-70 0 -138 29q-60 -54 -133.5 -97.5t-132.5 -43.5q-54 0 -82 40.5t-28 94.5q0 129 123 252q80 77 153 108q33 54 84.5 84.5t102.5 30.5
q50 0 83 -32.5t33 -94.5q0 -158 -174 -320zM416 481q12 -8 12 -12q0 -5 -7 -10.5t-15 -5.5q-43 0 -100.5 -25.5t-94.5 -60.5q0 -115 100 -201q58 63 98 146.5t40 140.5q0 47 -23 71.5t-53 24.5q-59 0 -111 -57q40 8 68 8q44 0 86 -19zM80 23q37 0 100 38t105 80
q-49 34 -77 91.5t-28 111.5q-58 -45 -107.5 -129.5t-49.5 -128.5q0 -63 57 -63z" />
    <glyph glyph-name="otilde" unicode="&#xf5;" horiz-adv-x="649" 
d="M756 727q0 -7 -11.5 -23.5t-30.5 -35.5t-48.5 -33t-59.5 -14q-57 0 -151 34.5t-119 34.5q-32 0 -70.5 -22.5t-42.5 -22.5q-5 0 -10.5 5.5t-5.5 13.5q0 24 48.5 67t100.5 43q49 0 139.5 -33.5t135.5 -33.5q35 0 56.5 10.5t31.5 20.5t18 10q6 0 12.5 -6t6.5 -15zM348 145
q44 -20 107 -20q103 0 188 70q9 8 15 24t18 25q35 28 53 28q14 0 14 -18q0 -16 -22 -36.5t-72 -57.5q-92 -66 -192 -66q-70 0 -138 29q-60 -54 -133.5 -97.5t-132.5 -43.5q-54 0 -82 40.5t-28 94.5q0 129 123 252q80 77 153 108q33 54 84.5 84.5t102.5 30.5q50 0 83 -32.5
t33 -94.5q0 -158 -174 -320zM416 481q12 -8 12 -12q0 -5 -7 -10.5t-15 -5.5q-43 0 -100.5 -25.5t-94.5 -60.5q0 -115 100 -201q58 63 98 146.5t40 140.5q0 47 -23 71.5t-53 24.5q-59 0 -111 -57q40 8 68 8q44 0 86 -19zM80 23q37 0 100 38t105 80q-49 34 -77 91.5t-28 111.5
q-58 -45 -107.5 -129.5t-49.5 -128.5q0 -63 57 -63z" />
    <glyph glyph-name="odieresis" unicode="&#xf6;" horiz-adv-x="649" 
d="M371 782q38 0 61 -25t23 -50q0 -27 -24.5 -60t-53.5 -33q-18 0 -46 18.5t-28 31.5q0 7 5.5 16t16.5 24.5t19 28.5q3 5 4 19t5.5 22t17.5 8zM578 782q38 0 61 -25t23 -50q0 -27 -24.5 -60t-53.5 -33q-18 0 -46 18.5t-28 31.5q0 7 5.5 16t16.5 24.5t19 28.5q3 5 4 19
t5.5 22t17.5 8zM348 145q44 -20 107 -20q103 0 188 70q9 8 15 24t18 25q35 28 53 28q14 0 14 -18q0 -16 -22 -36.5t-72 -57.5q-92 -66 -192 -66q-70 0 -138 29q-60 -54 -133.5 -97.5t-132.5 -43.5q-54 0 -82 40.5t-28 94.5q0 129 123 252q80 77 153 108q33 54 84.5 84.5
t102.5 30.5q50 0 83 -32.5t33 -94.5q0 -158 -174 -320zM416 481q12 -8 12 -12q0 -5 -7 -10.5t-15 -5.5q-43 0 -100.5 -25.5t-94.5 -60.5q0 -115 100 -201q58 63 98 146.5t40 140.5q0 47 -23 71.5t-53 24.5q-59 0 -111 -57q40 8 68 8q44 0 86 -19zM80 23q37 0 100 38t105 80
q-49 34 -77 91.5t-28 111.5q-58 -45 -107.5 -129.5t-49.5 -128.5q0 -63 57 -63z" />
    <glyph glyph-name="divide" unicode="&#xf7;" horiz-adv-x="843" 
d="M461 952q30 0 49.5 -23t19.5 -52q0 -45 -36 -89.5t-80 -44.5q-34 0 -59 26.5t-25 59.5q0 43 44 83t87 40zM461 557q30 0 49.5 -23.5t19.5 -52.5q0 -45 -36 -89t-80 -44q-34 0 -59 26.5t-25 59.5q0 43 44 83t87 40zM846 647q0 -25 -11.5 -45t-29.5 -20h-756
q-18 0 -30.5 18.5t-12.5 42.5t12.5 41.5t32.5 17.5h754q18 0 29.5 -15.5t11.5 -39.5z" />
    <glyph glyph-name="oslash" unicode="&#xf8;" horiz-adv-x="579" 
d="M647 674l-92 -123q25 -36 25 -86q0 -79 -41.5 -162.5t-107 -149.5t-149.5 -113t-165 -58l-88 -107q-10 -12 -29 -12q-17 0 -31 11t-14 26q0 12 8 20l1.5 1.5t1.5 1t2 1.5t3.5 3t5.5 6t8.5 10.5t12.5 15.5t17 22t22 29q-37 37 -37 107q0 129 123 252q80 77 153 108
q33 55 84.5 86t102.5 31q3 0 9 -1t9 -1l94 123q10 12 29 12q18 0 33.5 -11t15.5 -26q0 -7 -6 -16zM143 16q79 16 168 88.5t149 169.5t60 177q0 21 -8 45zM186 322q-63 -65 -95 -129.5t-32 -110.5q0 -18 7 -35q30 39 130.5 172t161.5 211q-113 -46 -172 -108zM307 487
q40 11 103 11l43 57q-6 2 -23 2q-67 0 -123 -70z" />
    <glyph glyph-name="ugrave" unicode="&#xf9;" horiz-adv-x="843" 
d="M328 756q23 0 30 -23q14 -48 45 -95.5t64 -70.5q8 -4 8 -12q0 -10 -8 -21.5t-23 -11.5q-40 0 -114 55.5t-74 94.5q0 19 28.5 51.5t43.5 32.5zM31 346v21q0 50 63 129q22 28 51 28q24 0 54 -63q4 -6 4 -19q0 -15 -30 -68t-72.5 -120.5t-49.5 -79.5q-41 -68 -41 -92
q0 -10 7 -16.5t18 -6.5q44 0 153 72.5t214 168.5t135 157q17 34 28.5 47.5t30.5 13.5t35 -32.5t16 -51.5q0 -30 -28.5 -84t-57.5 -55q-10 0 -18.5 -8.5t-26.5 -36.5q-84 -121 -84 -180q0 -31 49 -31q63 0 176.5 55.5t173.5 110.5q11 10 16 27t17 26q31 25 41 25q19 0 19 -17
q0 -28 -80 -92q-94 -75 -209 -127.5t-209 -52.5q-36 0 -58 15t-22 44q0 82 88 213q0 4 -0.5 6.5t-1.5 1.5q-84 -82 -242.5 -181t-230.5 -99q-35 0 -49 14t-14 47q0 37 21 79.5t46.5 74.5t46.5 70t21 67z" />
    <glyph glyph-name="uacute" unicode="&#xfa;" horiz-adv-x="843" 
d="M477 770q15 0 43.5 -32.5t28.5 -51.5q0 -39 -74.5 -94t-114.5 -55q-15 0 -22.5 11t-7.5 21q0 9 8 13q33 23 63.5 70.5t44.5 95.5q6 22 31 22zM31 346v21q0 50 63 129q22 28 51 28q24 0 54 -63q4 -6 4 -19q0 -15 -30 -68t-72.5 -120.5t-49.5 -79.5q-41 -68 -41 -92
q0 -10 7 -16.5t18 -6.5q44 0 153 72.5t214 168.5t135 157q17 34 28.5 47.5t30.5 13.5t35 -32.5t16 -51.5q0 -30 -28.5 -84t-57.5 -55q-10 0 -18.5 -8.5t-26.5 -36.5q-84 -121 -84 -180q0 -31 49 -31q63 0 176.5 55.5t173.5 110.5q11 10 16 27t17 26q31 25 41 25q19 0 19 -17
q0 -28 -80 -92q-94 -75 -209 -127.5t-209 -52.5q-36 0 -58 15t-22 44q0 82 88 213q0 4 -0.5 6.5t-1.5 1.5q-84 -82 -242.5 -181t-230.5 -99q-35 0 -49 14t-14 47q0 37 21 79.5t46.5 74.5t46.5 70t21 67z" />
    <glyph glyph-name="ucircumflex" unicode="&#xfb;" horiz-adv-x="843" 
d="M418 850q56 0 127.5 -78t101.5 -139q4 -12 4 -15q0 -14 -10.5 -27t-22.5 -13q-22 0 -40 18q-32 40 -109 117q-28 28 -59 28q-30 0 -58 -28q-11 -12 -33.5 -37t-40 -43.5t-32.5 -30.5q-22 -18 -49 -18q-10 0 -16.5 9.5t-6.5 22.5q0 10 6 25q29 56 106 132.5t132 76.5z
M31 346v21q0 50 63 129q22 28 51 28q24 0 54 -63q4 -6 4 -19q0 -15 -30 -68t-72.5 -120.5t-49.5 -79.5q-41 -68 -41 -92q0 -10 7 -16.5t18 -6.5q44 0 153 72.5t214 168.5t135 157q17 34 28.5 47.5t30.5 13.5t35 -32.5t16 -51.5q0 -30 -28.5 -84t-57.5 -55q-10 0 -18.5 -8.5
t-26.5 -36.5q-84 -121 -84 -180q0 -31 49 -31q63 0 176.5 55.5t173.5 110.5q11 10 16 27t17 26q31 25 41 25q19 0 19 -17q0 -28 -80 -92q-94 -75 -209 -127.5t-209 -52.5q-36 0 -58 15t-22 44q0 82 88 213q0 4 -0.5 6.5t-1.5 1.5q-84 -82 -242.5 -181t-230.5 -99
q-35 0 -49 14t-14 47q0 37 21 79.5t46.5 74.5t46.5 70t21 67z" />
    <glyph glyph-name="udieresis" unicode="&#xfc;" horiz-adv-x="843" 
d="M295 733q38 0 61 -25t23 -51q0 -27 -24.5 -59.5t-53.5 -32.5q-18 0 -46 18t-28 31q0 7 5.5 16t16.5 25t19 29q3 5 4 19t5.5 22t17.5 8zM502 733q38 0 61 -25t23 -51q0 -27 -24.5 -59.5t-53.5 -32.5q-18 0 -46 18t-28 31q0 7 5.5 16t16.5 25t19 29q3 5 4 19t5.5 22t17.5 8
zM31 346v21q0 50 63 129q22 28 51 28q24 0 54 -63q4 -6 4 -19q0 -15 -30 -68t-72.5 -120.5t-49.5 -79.5q-41 -68 -41 -92q0 -10 7 -16.5t18 -6.5q44 0 153 72.5t214 168.5t135 157q17 34 28.5 47.5t30.5 13.5t35 -32.5t16 -51.5q0 -30 -28.5 -84t-57.5 -55q-10 0 -18.5 -8.5
t-26.5 -36.5q-84 -121 -84 -180q0 -31 49 -31q63 0 176.5 55.5t173.5 110.5q11 10 16 27t17 26q31 25 41 25q19 0 19 -17q0 -28 -80 -92q-94 -75 -209 -127.5t-209 -52.5q-36 0 -58 15t-22 44q0 82 88 213q0 4 -0.5 6.5t-1.5 1.5q-84 -82 -242.5 -181t-230.5 -99
q-35 0 -49 14t-14 47q0 37 21 79.5t46.5 74.5t46.5 70t21 67z" />
    <glyph glyph-name="yacute" unicode="&#xfd;" horiz-adv-x="794" 
d="M485 766q15 0 43.5 -32.5t28.5 -51.5q0 -39 -74 -94.5t-114 -55.5q-15 0 -23 11.5t-8 21.5q0 9 8 13q33 23 64 70t45 95q7 23 30 23zM-537 -453q-96 -72 -157.5 -176t-61.5 -188q0 -74 46 -119t118 -45q118 0 297 144.5t299 324.5q162 247 238 385q-261 -59 -439.5 -132
t-339.5 -194zM39 346q0 34 11 64t22.5 46t33.5 42q28 28 52 28q19 0 37 -32t18 -52q0 -21 -10 -36l-57.5 -92t-93 -153t-40.5 -81t10 -18.5t21 -6.5q63 0 225 117q188 137 262 256q6 9 15.5 25.5t15.5 26t13.5 20t14 15.5t13.5 5q22 0 39.5 -35.5t17.5 -58.5q0 -35 -22 -73
t-51 -44q-32 -7 -64 -76q-27 -59 -149 -292q238 74 403 202q12 8 21 40.5t20 41.5q41 33 57 33q11 0 15 -25q0 -20 -29 -56.5t-72 -67.5q-177 -130 -440 -209q-114 -216 -256 -445q-140 -223 -330.5 -378.5t-349.5 -155.5q-101 0 -171 68.5t-70 166.5q0 103 69.5 216
t188.5 202q170 128 342.5 196t492.5 142q25 47 68 125t70 128.5t49 96.5l-2 6q-1 0 -37.5 -29.5t-92.5 -71.5t-118.5 -84t-126.5 -71.5t-107 -29.5q-29 0 -48 18t-19 47q0 42 21.5 87.5t48 78t48 69.5t21.5 64z" />
    <glyph glyph-name="thorn" unicode="&#xfe;" horiz-adv-x="770" 
d="M231 516q70 66 141.5 124t161 107.5t148.5 49.5q37 0 60.5 -26t23.5 -66q0 -78 -68 -181q77 -14 129 -49q34 -22 53 -51.5t19 -50.5q0 -17 -14 -17q-12 0 -33 24t-21 36q0 2 1.5 8t1.5 8t-13 12q-54 42 -141 56q-54 -73 -145 -150q-52 -42 -119.5 -66t-132.5 -24
q-119 0 -119 68q0 25 25.5 58.5t73.5 68t133 58t188 24.5q94 128 94 190q0 31 -23 31q-63 0 -229 -126t-240 -224q-69 -91 -213.5 -383.5t-152.5 -333.5q-3 -19 -13 -19q-23 0 -44 22.5t-21 45.5q0 16 144.5 301t209.5 395l285 482q52 89 67 121t15 57q0 2 -1 10.5t-1 17.5
q0 29 16 57t49 68q24 31 54 31q18 0 37.5 -29.5t19.5 -52.5q0 -22 -10 -37q-30 -53 -95 -153t-92 -144q-30 -48 -70.5 -113t-68 -111.5t-70.5 -123.5zM467 416q66 56 98 94q-85 0 -172.5 -30.5t-141.5 -72.5t-54 -77q0 -14 17.5 -21.5t37.5 -7.5q40 0 99.5 33.5t115.5 81.5z
" />
    <glyph glyph-name="ydieresis" unicode="&#xff;" horiz-adv-x="800" 
d="M319 735q38 0 61 -25t23 -51q0 -27 -24 -59.5t-53 -32.5q-18 0 -46 18t-28 31q0 7 5.5 16t16.5 25t19 29q3 5 3.5 19t5 22t17.5 8zM526 735q38 0 61 -25t23 -51q0 -27 -24.5 -59.5t-53.5 -32.5q-18 0 -45.5 18t-27.5 31q0 7 5.5 16t16.5 25t19 29q3 5 3.5 19t5 22t17.5 8
zM-522 -453q-96 -72 -157.5 -176t-61.5 -188q0 -74 46 -119t117 -45q118 0 297 144.5t299 324.5q162 247 238 385q-261 -59 -439 -132t-339 -194zM53 346q0 34 11.5 64t23 46t33.5 42q28 28 51 28q19 0 37 -32t18 -52q0 -21 -10 -36q-4 -7 -56.5 -91.5t-93 -153.5t-40.5 -81
t9.5 -18.5t20.5 -6.5q64 0 226 117q188 137 262 256q6 10 15 26t15 25.5t13.5 20t14 15.5t13.5 5q22 0 40 -35.5t18 -58.5q0 -35 -22.5 -73t-51.5 -44q-31 -6 -63 -76q-20 -44 -150 -292q239 75 404 202q12 8 20.5 40.5t19.5 41.5q41 33 58 33q10 0 14 -25
q0 -20 -28.5 -56.5t-71.5 -67.5q-176 -130 -441 -209q-114 -216 -256 -445q-141 -223 -330.5 -378.5t-348.5 -155.5q-101 0 -171.5 68.5t-70.5 166.5q0 103 69.5 216t188.5 202q170 128 343 196t493 142q167 310 186 350l-2 6q-1 0 -37.5 -29.5t-92 -71.5t-118 -84
t-126.5 -71.5t-107 -29.5q-30 0 -49 18t-19 47q0 42 21.5 87.5t48 78t48 69.5t21.5 64z" />
    <glyph glyph-name="Amacron" unicode="&#x100;" 
d="M526 1087q140 0 340 -63t387 -150q445 342 856 543q6 64 64 92q40 19 94 34.5t74 15.5q34 0 50.5 -15.5t16.5 -34.5q0 -14 -16 -30q-116 -101 -332.5 -384t-326.5 -474q22 -14 55 -34q52 -32 63 -41.5t11 -25.5q0 -8 -5.5 -20.5t-9.5 -12.5l-9 7q-9 6 -44 30.5t-86 57.5
q-51 -83 -94 -177.5t-67.5 -168.5t-43 -136.5t-29 -96.5t-16.5 -34q-23 0 -60.5 36t-37.5 65q0 41 70.5 193.5t199.5 365.5q-44 28 -153.5 81.5t-163.5 82.5q-101 -79 -273 -227.5t-258 -217.5q-687 -548 -987 -592q-85 -14 -162 -14q-42 0 -85.5 24t-43.5 66q0 20 52 38.5
t112 18.5q25 0 63 -20.5t60 -20.5q115 0 333.5 142.5t590.5 443.5q55 45 224 190t267 218q-357 157 -501 157q-36 0 -66.5 -16t-46.5 -16q-47 0 -108.5 11.5t-61.5 35.5q0 23 34 48t70 25zM2038 1247q6 11 6 21q0 14 -14 14q-26 0 -221 -131.5t-443 -316.5
q181 -100 289 -166q55 95 116.5 188.5t143.5 211.5t123 179zM2589 1683q0 -19 -12.5 -35t-32.5 -16h-459q-20 0 -30.5 15.5t-10.5 35.5q0 21 12.5 38.5t30.5 17.5h461q20 0 30.5 -16.5t10.5 -39.5z" />
    <glyph glyph-name="amacron" unicode="&#x101;" horiz-adv-x="888" 
d="M377 66q0 46 55 151l-10 6q-82 -84 -196.5 -159.5t-198.5 -75.5q-44 0 -71.5 28.5t-27.5 69.5q0 71 65 164.5t150 152.5q171 121 336 121q88 0 153.5 -41.5t65.5 -85.5q0 -11 -10 -24t-24 -13q-12 0 -21 12t-17 29t-20.5 33.5t-40 28.5t-67.5 12q-100 0 -267 -131
q-88 -68 -153.5 -152.5t-65.5 -115.5q0 -49 39 -49q54 0 168.5 76.5t186.5 154.5q69 75 102 131q25 41 41 41q21 0 41 -39t20 -59q0 -32 -20.5 -74.5t-46.5 -42.5q-16 0 -47 -59t-31 -97q0 -30 43 -30q62 0 186.5 60.5t184.5 115.5q11 10 14.5 27t15.5 26q36 29 49 29
q4 0 7.5 -7t3.5 -14q0 -23 -52.5 -69t-126.5 -91.5t-164.5 -79.5t-156.5 -34q-36 0 -64 21.5t-28 52.5zM733 662q0 -19 -12.5 -35.5t-32.5 -16.5h-459q-20 0 -30.5 16t-10.5 36q0 21 12.5 38t30.5 17h461q20 0 30.5 -16t10.5 -39z" />
    <glyph glyph-name="Abreve" unicode="&#x102;" 
d="M526 1087q140 0 340 -63t387 -150q445 342 856 543q6 64 64 92q40 19 94 34.5t74 15.5q34 0 50.5 -15.5t16.5 -34.5q0 -14 -16 -30q-116 -101 -332.5 -384t-326.5 -474q22 -14 55 -34q52 -32 63 -41.5t11 -25.5q0 -8 -5.5 -20.5t-9.5 -12.5l-9 7q-9 6 -44 30.5t-86 57.5
q-51 -83 -94 -177.5t-67.5 -168.5t-43 -136.5t-29 -96.5t-16.5 -34q-23 0 -60.5 36t-37.5 65q0 41 70.5 193.5t199.5 365.5q-44 28 -153.5 81.5t-163.5 82.5q-101 -79 -273 -227.5t-258 -217.5q-687 -548 -987 -592q-85 -14 -162 -14q-42 0 -85.5 24t-43.5 66q0 20 52 38.5
t112 18.5q25 0 63 -20.5t60 -20.5q115 0 333.5 142.5t590.5 443.5q55 45 224 190t267 218q-357 157 -501 157q-36 0 -66.5 -16t-46.5 -16q-47 0 -108.5 11.5t-61.5 35.5q0 23 34 48t70 25zM2038 1247q6 11 6 21q0 14 -14 14q-26 0 -221 -131.5t-443 -316.5
q181 -100 289 -166q55 95 116.5 188.5t143.5 211.5t123 179zM2126 1786q-6 6 -6 20q0 19 16 19q85 0 100 -64q19 -75 78 -75q45 0 66 17t37 58q22 54 80 60q12 2 26 2q8 0 14.5 -5t6.5 -10q0 -6 -17 -32q-18 -23 -34 -51t-24.5 -42t-26 -28t-48.5 -19.5t-82 -5.5
q-48 0 -81 11.5t-49.5 31.5t-25 39t-16 41.5t-14.5 32.5z" />
    <glyph glyph-name="abreve" unicode="&#x103;" horiz-adv-x="888" 
d="M377 66q0 46 55 151l-10 6q-82 -84 -196.5 -159.5t-198.5 -75.5q-44 0 -71.5 28.5t-27.5 69.5q0 71 65 164.5t150 152.5q171 121 336 121q88 0 153.5 -41.5t65.5 -85.5q0 -11 -10 -24t-24 -13q-12 0 -21 12t-17 29t-20.5 33.5t-40 28.5t-67.5 12q-100 0 -267 -131
q-88 -68 -153.5 -152.5t-65.5 -115.5q0 -49 39 -49q54 0 168.5 76.5t186.5 154.5q69 75 102 131q25 41 41 41q21 0 41 -39t20 -59q0 -32 -20.5 -74.5t-46.5 -42.5q-16 0 -47 -59t-31 -97q0 -30 43 -30q62 0 186.5 60.5t184.5 115.5q11 10 14.5 27t15.5 26q36 29 49 29
q4 0 7.5 -7t3.5 -14q0 -23 -52.5 -69t-126.5 -91.5t-164.5 -79.5t-156.5 -34q-36 0 -64 21.5t-28 52.5zM279 741q-7 7 -7 21q0 18 17 18q85 0 100 -63q19 -76 78 -76q45 0 65.5 17t36.5 59q22 53 80 59q12 2 27 2q8 0 14 -4.5t6 -9.5q0 -9 -16 -33q-20 -25 -40 -60.5
t-31 -49t-46 -24.5t-98 -11q-48 0 -81 11.5t-49.5 31t-25 38.5t-16 41.5t-14.5 32.5z" />
    <glyph glyph-name="Aogonek" unicode="&#x104;" 
d="M526 1087q140 0 340 -63t387 -150q445 342 856 543q6 64 64 92q40 19 94 34.5t74 15.5q34 0 50.5 -15.5t16.5 -34.5q0 -14 -16 -30q-116 -101 -332.5 -384t-326.5 -474q22 -14 55 -34q52 -32 63 -41.5t11 -25.5q0 -8 -5.5 -20.5t-9.5 -12.5l-9 7q-9 6 -44 30.5t-86 57.5
q-60 -97 -109 -210.5t-72.5 -192.5t-41.5 -139.5t-25 -68.5h2q-1 -1 -12 -6t-17 -8.5t-19.5 -11t-22.5 -13.5t-21.5 -16t-21.5 -18.5t-18.5 -20.5t-15.5 -23.5t-10 -25t-4 -27.5q0 -31 18 -49t54 -18q44 0 82 13t63 26.5t37 13.5q8 0 13.5 -11t5.5 -24t-10 -39t-25 -35
q-34 -20 -111 -20q-79 0 -141.5 39t-62.5 110q0 59 58 116.5t112 84.5q-33 37 -33 62q0 41 70.5 193.5t199.5 365.5q-44 28 -153.5 81.5t-163.5 82.5q-101 -79 -273 -227.5t-258 -217.5q-687 -548 -987 -592q-85 -14 -162 -14q-42 0 -85.5 24t-43.5 66q0 20 52 38.5
t112 18.5q25 0 63 -20.5t60 -20.5q115 0 333.5 142.5t590.5 443.5q55 45 224 190t267 218q-357 157 -501 157q-36 0 -66.5 -16t-46.5 -16q-47 0 -108.5 11.5t-61.5 35.5q0 23 34 48t70 25zM2038 1247q6 11 6 21q0 14 -14 14q-26 0 -221 -131.5t-443 -316.5
q181 -100 289 -166q55 95 116.5 188.5t143.5 211.5t123 179z" />
    <glyph glyph-name="aogonek" unicode="&#x105;" horiz-adv-x="888" 
d="M508 29q83 0 193.5 57t177.5 119q11 10 14.5 27t15.5 26q36 29 49 29q4 0 7.5 -7t3.5 -14q0 -22 -45.5 -63.5t-112 -84t-149.5 -78t-150 -44.5q-143 -76 -143 -162q0 -31 18 -49t53 -18q44 0 82 13.5t63.5 26.5t37.5 13q18 0 18 -35q0 -13 -10 -39t-25 -35
q-34 -20 -110 -20q-79 0 -142 39t-63 110q0 82 117 168q-31 24 -31 58q0 46 55 151l-10 6q-82 -84 -196.5 -159.5t-198.5 -75.5q-44 0 -71.5 28.5t-27.5 69.5q0 71 65 164.5t150 152.5q171 121 336 121q88 0 153.5 -41.5t65.5 -85.5q0 -11 -10 -24t-24 -13q-12 0 -21 12
t-17 29t-20.5 33.5t-40 28.5t-67.5 12q-100 0 -267 -131q-88 -68 -153.5 -152.5t-65.5 -115.5q0 -49 39 -49q54 0 168.5 76.5t186.5 154.5q69 75 102 131q25 41 41 41q21 0 41 -39t20 -59q0 -32 -20.5 -74.5t-46.5 -42.5q-16 0 -47 -59t-31 -97q0 -30 43 -30z" />
    <glyph glyph-name="Cacute" unicode="&#x106;" horiz-adv-x="1230" 
d="M1368 1049q44 49 81.5 132t37.5 156q0 79 -46.5 114.5t-115.5 35.5q-79 0 -198.5 -47.5t-251.5 -127.5t-264.5 -195.5t-238 -242t-171.5 -276t-66 -289.5q0 -174 81 -241.5t261 -67.5q198 0 408 86q371 154 469 244q13 12 29 39.5t28 36.5q41 36 51 36q9 0 15 -7.5
t6 -18.5q0 -35 -101 -115q-71 -56 -211.5 -138t-269.5 -136q-102 -42 -225.5 -70.5t-237.5 -28.5q-202 0 -320 101t-118 309q0 151 62.5 307t165.5 286.5t238 247t278 197t287 127.5t263 47q51 0 94 -10t80.5 -32.5t58.5 -64.5t21 -100q0 -27 -3.5 -55t-11.5 -55.5
t-14.5 -49t-18 -47.5t-17 -38.5t-16.5 -33.5t-11 -22q-37 -74 -127 -148.5t-160 -74.5q-22 0 -64 17.5t-42 40.5q0 29 89.5 87t135.5 58q27 0 47 7t27 13zM1470 1872q15 0 43.5 -32.5t28.5 -51.5q0 -39 -74 -94.5t-114 -55.5q-15 0 -23 11.5t-8 21.5q0 8 8 12q33 23 64 70.5
t45 95.5q7 23 30 23z" />
    <glyph glyph-name="cacute" unicode="&#x107;" horiz-adv-x="679" 
d="M489 475q18 47 82 47q19 0 19 -12q0 -46 -65.5 -114t-121.5 -68q-16 0 -16 8q0 3 18.5 21.5t37 42.5t18.5 42q0 35 -60 35q-53 0 -141 -60t-158.5 -150.5t-70.5 -162.5q0 -39 22.5 -59t63.5 -20q107 0 271 67.5t276 147.5q12 8 18.5 24t17.5 25q28 22 43 22q5 0 11 -6
t6 -12q0 -16 -23.5 -36.5t-72.5 -53.5q-125 -84 -291.5 -155t-280.5 -71q-68 0 -116 39t-48 103q0 91 70.5 184.5t178 153t208.5 59.5q35 0 64.5 -13t39.5 -28zM518 809q15 0 43.5 -32.5t28.5 -51.5q0 -39 -74.5 -94.5t-114.5 -55.5q-15 0 -22.5 11t-7.5 22q0 9 8 13
q33 23 63.5 70t44.5 95q7 23 31 23z" />
    <glyph glyph-name="Ccaron" unicode="&#x10c;" horiz-adv-x="1230" 
d="M1368 1049q44 49 81.5 132t37.5 156q0 79 -46.5 114.5t-115.5 35.5q-79 0 -198.5 -47.5t-251.5 -127.5t-264.5 -195.5t-238 -242t-171.5 -276t-66 -289.5q0 -174 81 -241.5t261 -67.5q198 0 408 86q371 154 469 244q13 12 29 39.5t28 36.5q41 36 51 36q9 0 15 -7.5
t6 -18.5q0 -35 -101 -115q-71 -56 -211.5 -138t-269.5 -136q-102 -42 -225.5 -70.5t-237.5 -28.5q-202 0 -320 101t-118 309q0 151 62.5 307t165.5 286.5t238 247t278 197t287 127.5t263 47q51 0 94 -10t80.5 -32.5t58.5 -64.5t21 -100q0 -27 -3.5 -55t-11.5 -55.5
t-14.5 -49t-18 -47.5t-17 -38.5t-16.5 -33.5t-11 -22q-37 -74 -127 -148.5t-160 -74.5q-22 0 -64 17.5t-42 40.5q0 29 89.5 87t135.5 58q27 0 47 7t27 13zM1317 1632q-56 0 -128 78t-102 139q-4 12 -4 15q0 14 10.5 27.5t22.5 13.5q22 0 41 -19q32 -40 109 -117
q28 -28 59 -28q29 0 57 28q10 10 33.5 36.5t41 44.5t32.5 30q22 18 49 18q10 0 16.5 -9.5t6.5 -22.5q0 -7 -7 -25q-29 -56 -105.5 -132.5t-131.5 -76.5z" />
    <glyph glyph-name="ccaron" unicode="&#x10d;" horiz-adv-x="679" 
d="M489 475q18 47 82 47q19 0 19 -12q0 -46 -65.5 -114t-121.5 -68q-16 0 -16 8q0 3 18.5 21.5t37 42.5t18.5 42q0 35 -60 35q-53 0 -141 -60t-158.5 -150.5t-70.5 -162.5q0 -39 22.5 -59t63.5 -20q107 0 271 67.5t276 147.5q12 8 18.5 24t17.5 25q28 22 43 22q5 0 11 -6
t6 -12q0 -16 -23.5 -36.5t-72.5 -53.5q-125 -84 -291.5 -155t-280.5 -71q-68 0 -116 39t-48 103q0 91 70.5 184.5t178 153t208.5 59.5q35 0 64.5 -13t39.5 -28zM381 578q-56 0 -127.5 78t-101.5 139q-1 2 -2 5t-2 5t-1 4q0 14 10.5 27.5t22.5 13.5q22 0 41 -19
q28 -35 109 -116q29 -29 59 -29q28 0 57 29q8 9 33 36t42 44.5t32 29.5q23 19 49 19q10 0 16.5 -10t6.5 -23q0 -7 -7 -25q-29 -56 -105.5 -132t-131.5 -76z" />
    <glyph glyph-name="Dcaron" unicode="&#x10e;" horiz-adv-x="2064" 
d="M2001 508q-73 -189 -193.5 -350.5t-259 -272t-294 -189t-302.5 -115t-280 -36.5q-70 0 -133.5 19t-110.5 66t-47 114q0 100 98 228t244.5 238t298.5 177q376 168 864 168q88 229 88 453q0 246 -139 370.5t-405 124.5q-204 0 -447.5 -48t-411 -106.5t-221.5 -101.5
q-23 -18 -39 -37.5t-24 -32t-33 -29t-68 -32.5q-103 -39 -137 -39q-22 0 -22 23q0 122 79 160q307 144 650 218t690 74q319 0 491 -143t172 -397t-84 -455q24 -3 46 -8.5t46 -13.5t35 -11q111 -27 111 -49q0 -11 -9.5 -21t-19.5 -10q-18 0 -36 5q-15 3 -30 16t-30 18
q-65 22 -137 25zM1040 352q-152 -74 -291.5 -186t-225 -227.5t-85.5 -196.5q0 -53 35.5 -89t82.5 -49.5t101 -13.5q89 0 210.5 36t265.5 113t280 182.5t259.5 259.5t197.5 329q-235 0 -451.5 -40t-378.5 -118zM1362 1460q22 0 37.5 -22t15.5 -43q0 -37 -33 -84
q-31 -45 -75 -79t-72 -34q-66 0 -177 -117t-267 -331q-122 -168 -229 -382.5t-175 -394.5q-6 -18 -22 -18q-20 0 -50 31.5t-30 60.5q0 16 6 31q65 151 176 344.5t244 370.5q146 193 306 364t281 270q12 11 32.5 22t31.5 11zM1610 1622q-56 0 -128 78t-102 139q-4 12 -4 14
q0 14 10.5 27.5t22.5 13.5q23 0 41 -18q32 -40 109 -117q28 -28 59 -28q29 0 57 28q10 10 33.5 36.5t41 44.5t32.5 30q22 18 49 18q10 0 16 -10t6 -23q0 -9 -6 -24q-29 -56 -105.5 -132.5t-131.5 -76.5z" />
    <glyph glyph-name="dcaron" unicode="&#x10f;" horiz-adv-x="876" 
d="M1292 1411q17 -15 31.5 -39t9.5 -39q-17 -39 -24 -47q-20 -27 -60.5 -55t-62.5 -35q-17 -6 -21 7q-1 11 9 16q32 12 61 69q-12 20 -10.5 33t18.5 50q4 8 6 13q12 33 24 35q9 0 19 -8zM459 -8q-43 0 -67.5 24t-24.5 70q0 22 14 61t27 67.5t12 29.5t-27 -24t-68.5 -62.5
t-91.5 -74.5t-104.5 -63t-97.5 -26q-41 0 -67.5 34.5t-26.5 80.5q0 67 43 143t107.5 135.5t144 99t147.5 39.5q53 0 95 -19.5t56 -49.5q49 83 174.5 274t202.5 326q2 3 6 11t5 10.5t4.5 9t4.5 9t3 8t2.5 9t1.5 8.5t1.5 9.5t0.5 9.5q0 3 -1 14t-1 23q0 20 12.5 46t23.5 41
t34 46q18 24 45 24q18 0 39.5 -30.5t21.5 -53.5q0 -22 -10 -37q-3 -6 -52 -83.5t-75 -124.5q-58 -103 -187.5 -306t-189.5 -305q-152 -257 -152 -334q0 -32 39 -32q76 0 192.5 53t190.5 121q11 10 16 27t17 26q30 27 45 27q12 0 12 -21q0 -27 -79 -90q-227 -180 -418 -180z
M8 78q0 -45 33 -45q61 0 173 85t177 156q89 93 115 144q-21 43 -88 43q-72 0 -171 -71.5t-169 -163t-70 -148.5z" />
    <glyph glyph-name="Emacron" unicode="&#x112;" horiz-adv-x="1728" 
d="M141 -195q0 -111 66 -161t178 -50q262 0 616 203q174 100 293.5 202.5t184.5 190.5q6 9 14 57t27 77q34 55 65 55q19 0 29 -22.5t10 -43.5q0 -33 -47 -96q-46 -61 -89.5 -111.5t-109.5 -115.5t-152 -128.5t-186 -119.5q-385 -217 -663 -217q-158 0 -252 82t-94 241
q0 140 85 291t265 279q101 72 222 135t197 93.5t178 67t112 40.5q20 8 20 14t-6 6q-5 0 -17 -4q-65 -20 -159 -20q-56 0 -106 9.5t-95 30.5t-71.5 59t-26.5 89q0 102 78 197t203.5 165.5t278 124t307 80.5t284.5 27q34 0 65 -19q25 -18 40.5 -45.5t15.5 -40.5q0 -21 -92 -46
t-132 -25q-22 0 -58 12t-75 12q-86 -1 -227.5 -45t-276 -108.5t-232 -147.5t-97.5 -153q0 -62 63.5 -92.5t163.5 -30.5q80 0 165 22.5t93 22.5q31 0 31 -33q0 -82 -20 -110t-95 -58q-8 -3 -57.5 -21.5t-89 -34t-107 -45t-126 -59.5t-130 -73.5t-133.5 -89.5
q-165 -123 -246.5 -257.5t-81.5 -261.5zM1729 1663q0 -19 -13 -35t-33 -16h-458q-20 0 -30.5 15.5t-10.5 35.5q0 21 12.5 38t30.5 17h461q20 0 30.5 -16t10.5 -39z" />
    <glyph glyph-name="emacron" unicode="&#x113;" horiz-adv-x="657" 
d="M479 455q0 -46 -56 -98.5t-143 -88t-167 -35.5q-29 0 -47 5q-50 -63 -50 -132q0 -73 111 -73q114 0 265.5 57t248.5 135q11 9 19 30t20 30q31 24 45 24t14 -20q0 -30 -98 -103q-110 -78 -258 -138t-264 -60q-82 0 -135.5 35.5t-53.5 113.5q0 59 37 127t107 129
q77 65 157 96t146 31q102 0 102 -65zM424 444q0 10 -10.5 16.5t-24.5 6.5q-51 0 -149 -66.5t-156 -132.5q14 -2 39 -2q70 0 142 31t115.5 72.5t43.5 74.5zM600 655q0 -19 -12.5 -35t-32.5 -16h-459q-20 0 -30.5 15.5t-10.5 35.5q0 21 12.5 38.5t30.5 17.5h461
q20 0 30.5 -16.5t10.5 -39.5z" />
    <glyph glyph-name="Ebreve" unicode="&#x114;" horiz-adv-x="1728" 
d="M141 -195q0 -111 66 -161t178 -50q262 0 616 203q174 100 293.5 202.5t184.5 190.5q6 9 14 57t27 77q34 55 65 55q19 0 29 -22.5t10 -43.5q0 -33 -47 -96q-46 -61 -89.5 -111.5t-109.5 -115.5t-152 -128.5t-186 -119.5q-385 -217 -663 -217q-158 0 -252 82t-94 241
q0 140 85 291t265 279q101 72 222 135t197 93.5t178 67t112 40.5q20 8 20 14t-6 6q-5 0 -17 -4q-65 -20 -159 -20q-56 0 -106 9.5t-95 30.5t-71.5 59t-26.5 89q0 102 78 197t203.5 165.5t278 124t307 80.5t284.5 27q34 0 65 -19q25 -18 40.5 -45.5t15.5 -40.5q0 -21 -92 -46
t-132 -25q-22 0 -58 12t-75 12q-86 -1 -227.5 -45t-276 -108.5t-232 -147.5t-97.5 -153q0 -62 63.5 -92.5t163.5 -30.5q80 0 165 22.5t93 22.5q31 0 31 -33q0 -82 -20 -110t-95 -58q-8 -3 -57.5 -21.5t-89 -34t-107 -45t-126 -59.5t-130 -73.5t-133.5 -89.5
q-165 -123 -246.5 -257.5t-81.5 -261.5zM1266 1741q-6 6 -6 20q0 19 16 19q85 0 100 -64q19 -76 78 -76q45 0 65.5 17t36.5 59q22 54 80 60q12 2 27 2q8 0 14 -5t6 -10q0 -8 -16 -32q-18 -23 -34 -51t-24.5 -42t-26 -28t-48.5 -19.5t-82 -5.5q-48 0 -81 11.5t-49.5 31.5
t-25 39t-16 41.5t-14.5 32.5z" />
    <glyph glyph-name="ebreve" unicode="&#x115;" horiz-adv-x="657" 
d="M479 455q0 -46 -56 -98.5t-143 -88t-167 -35.5q-29 0 -47 5q-50 -63 -50 -132q0 -73 111 -73q114 0 265.5 57t248.5 135q11 9 19 30t20 30q31 24 45 24t14 -20q0 -30 -98 -103q-110 -78 -258 -138t-264 -60q-82 0 -135.5 35.5t-53.5 113.5q0 59 37 127t107 129
q77 65 157 96t146 31q102 0 102 -65zM424 444q0 10 -10.5 16.5t-24.5 6.5q-51 0 -149 -66.5t-156 -132.5q14 -2 39 -2q70 0 142 31t115.5 72.5t43.5 74.5zM158 735q-6 6 -6 21q0 18 16 18q85 0 100 -63q19 -76 78 -76q45 0 66 17.5t37 58.5q22 53 79 59q12 2 27 2
q8 0 14 -4.5t6 -9.5q0 -9 -16 -33q-20 -25 -40 -60.5t-31 -49t-46 -24.5t-98 -11q-48 0 -81 11.5t-49.5 31t-25 38.5t-16 41.5t-14.5 32.5z" />
    <glyph glyph-name="Eogonek" unicode="&#x118;" horiz-adv-x="1728" 
d="M848 -268l10 -11q84 41 143 76q174 100 293.5 202.5t184.5 190.5q6 9 14 57t27 77q34 55 65 55q19 0 29 -22.5t10 -43.5q0 -33 -47 -96q-46 -61 -89.5 -111.5t-109.5 -115.5t-152 -128.5t-186 -119.5q-117 -65 -249 -121q-56 -49 -56 -104q0 -31 18.5 -49.5t53.5 -18.5
q44 0 82 13.5t63 26.5t37 13q9 0 14 -10.5t5 -23.5t-10 -39t-25 -35q-35 -21 -111 -21q-79 0 -142 39.5t-63 110.5q0 27 13 53q-162 -51 -293 -51q-158 0 -252 82t-94 241q0 140 85 291t265 279q101 72 222 135t197 93.5t178 67t112 40.5q20 8 20 14t-6 6q-5 0 -17 -4
q-65 -20 -159 -20q-56 0 -106 9.5t-95 30.5t-71.5 59t-26.5 89q0 102 78 197t203.5 165.5t278 124t307 80.5t284.5 27q34 0 65 -19q25 -18 40.5 -45.5t15.5 -40.5q0 -21 -92 -46t-132 -25q-22 0 -58 12t-75 12q-86 -1 -227.5 -45t-276 -108.5t-232 -147.5t-97.5 -153
q0 -62 63.5 -92.5t163.5 -30.5q80 0 165 22.5t93 22.5q31 0 31 -33q0 -82 -20 -110t-95 -58q-8 -3 -57.5 -21.5t-89 -34t-107 -45t-126 -59.5t-130 -73.5t-133.5 -89.5q-165 -123 -246.5 -257.5t-81.5 -261.5q0 -111 66 -161t178 -50q166 0 367 80q30 24 59 41t37 17z" />
    <glyph glyph-name="eogonek" unicode="&#x119;" horiz-adv-x="657" 
d="M127 33q113 0 271.5 62t242.5 130q11 9 19 30t20 30q31 24 45 24t14 -20q0 -30 -98 -103q-83 -59 -198 -111.5t-220 -74.5q-131 -72 -131 -156q0 -30 18 -48.5t54 -18.5q44 0 82 13.5t63 26.5t37 13q8 0 13.5 -11t5.5 -24t-10 -39t-25 -35q-34 -20 -111 -20
q-79 0 -142 39t-63 110q0 67 80 140q-73 5 -118.5 40t-45.5 107q0 59 37 127t107 129q77 65 157 96t146 31q102 0 102 -65q0 -46 -56 -98.5t-143 -88t-167 -35.5q-29 0 -47 5q-50 -63 -50 -132q0 -73 111 -73zM424 444q0 10 -10.5 16.5t-24.5 6.5q-51 0 -149 -66.5
t-156 -132.5q14 -2 39 -2q70 0 142 31t115.5 72.5t43.5 74.5z" />
    <glyph glyph-name="Imacron" unicode="&#x12a;" horiz-adv-x="1531" 
d="M1806 1468q30 0 43 -30q147 38 225.5 56.5t172 34t159.5 15.5q197 0 197 -139q0 -33 -14.5 -76t-22.5 -53q-9 -12 -18 -12q-13 0 -13 20q0 162 -262 162q-134 0 -422 -72q-5 -44 -67 -106t-105 -62q-120 0 -452 -456q-113 -156 -212.5 -344t-166.5 -355q33 2 96 2
q220 0 369 -39q127 -32 127 -61q0 -10 -5.5 -19.5t-13.5 -9.5q-20 0 -39 8q-16 5 -30 20.5t-27 18.5q-162 43 -375 43q-73 0 -112 -2q-1 -2 -3.5 -9.5t-4.5 -12.5t-5.5 -12.5t-7 -11.5t-9 -7.5t-11.5 -3.5q-16 0 -36 13t-30 34q-181 -26 -397 -135q-26 -13 -43.5 -30
t-25.5 -29.5t-34 -27.5t-69 -28q-10 -3 -30.5 -9t-32 -9.5t-29 -6.5t-33.5 -3q-23 0 -23 20q0 42 21 88q20 44 84 68q179 70 315.5 99t282.5 42q-2 4 -2 10q0 8 6 23q59 136 175 326.5t257 377.5q247 328 449 527q-130 -42 -209.5 -64.5t-232.5 -46t-312 -23.5
q-66 0 -103 37q-20 20 -30 45t-10 39q0 20 67.5 28.5t124.5 8.5q33 0 61.5 -10t48.5 -22.5t62.5 -22.5t99.5 -10q60 0 133 14t121 28.5t140.5 45.5t130.5 43q5 4 23 21t28.5 25.5t28 17.5t32.5 9zM2079 1593q0 -19 -12.5 -35t-32.5 -16h-459q-20 0 -30.5 15.5t-10.5 35.5
q0 21 12.5 38.5t30.5 17.5h461q20 0 30.5 -16.5t10.5 -39.5z" />
    <glyph glyph-name="imacron" unicode="&#x12b;" horiz-adv-x="432" 
d="M250 426q0 -16 -6 -31q-13 -31 -27 -49.5t-39 -26.5q-33 -10 -65 -59q-2 -3 -19 -28t-28.5 -43t-26.5 -44.5t-23 -49.5t-8 -40q0 -26 37 -26q67 0 191 57q124 59 186 117q11 10 16 27t17 26q34 27 43 27q6 0 11 -5t5 -14q0 -31 -80 -90q-4 -3 -20.5 -16t-30 -22.5
t-35 -24t-48 -29.5t-56.5 -29q-133 -63 -224 -63q-83 0 -83 82q0 47 42.5 127t147.5 237q2 3 10.5 25t19.5 40.5t23 18.5q24 0 47 -34t23 -60zM489 637q0 -19 -12.5 -35t-32.5 -16h-458q-20 0 -30.5 15.5t-10.5 35.5q0 21 12.5 38t30.5 17h461q20 0 30 -16t10 -39z" />
    <glyph glyph-name="Ibreve" unicode="&#x12c;" horiz-adv-x="1531" 
d="M1806 1468q30 0 43 -30q147 38 225.5 56.5t172 34t159.5 15.5q197 0 197 -139q0 -33 -14.5 -76t-22.5 -53q-9 -12 -18 -12q-13 0 -13 20q0 162 -262 162q-134 0 -422 -72q-5 -44 -67 -106t-105 -62q-120 0 -452 -456q-113 -156 -212.5 -344t-166.5 -355q33 2 96 2
q220 0 369 -39q127 -32 127 -61q0 -10 -5.5 -19.5t-13.5 -9.5q-20 0 -39 8q-16 5 -30 20.5t-27 18.5q-162 43 -375 43q-73 0 -112 -2q-1 -2 -3.5 -9.5t-4.5 -12.5t-5.5 -12.5t-7 -11.5t-9 -7.5t-11.5 -3.5q-16 0 -36 13t-30 34q-181 -26 -397 -135q-26 -13 -43.5 -30
t-25.5 -29.5t-34 -27.5t-69 -28q-10 -3 -30.5 -9t-32 -9.5t-29 -6.5t-33.5 -3q-23 0 -23 20q0 42 21 88q20 44 84 68q179 70 315.5 99t282.5 42q-2 4 -2 10q0 8 6 23q59 136 175 326.5t257 377.5q247 328 449 527q-130 -42 -209.5 -64.5t-232.5 -46t-312 -23.5
q-66 0 -103 37q-20 20 -30 45t-10 39q0 20 67.5 28.5t124.5 8.5q33 0 61.5 -10t48.5 -22.5t62.5 -22.5t99.5 -10q60 0 133 14t121 28.5t140.5 45.5t130.5 43q5 4 23 21t28.5 25.5t28 17.5t32.5 9zM1618 1694q-6 6 -6 20q0 19 16 19q86 0 101 -64q19 -76 77 -76q45 0 66 17.5
t37 58.5q22 54 80 60q12 2 26 2q8 0 14.5 -5t6.5 -10q0 -8 -17 -33q-20 -25 -40 -60.5t-31 -49t-46 -24.5t-98 -11q-48 0 -81 11.5t-49.5 31.5t-25 39t-16 41.5t-14.5 32.5z" />
    <glyph glyph-name="ibreve" unicode="&#x12d;" horiz-adv-x="432" 
d="M250 426q0 -16 -6 -31q-13 -31 -27 -49.5t-39 -26.5q-33 -10 -65 -59q-2 -3 -19 -28t-28.5 -43t-26.5 -44.5t-23 -49.5t-8 -40q0 -26 37 -26q67 0 191 57q124 59 186 117q11 10 16 27t17 26q34 27 43 27q6 0 11 -5t5 -14q0 -31 -80 -90q-4 -3 -20.5 -16t-30 -22.5
t-35 -24t-48 -29.5t-56.5 -29q-133 -63 -224 -63q-83 0 -83 82q0 47 42.5 127t147.5 237q2 3 10.5 25t19.5 40.5t23 18.5q24 0 47 -34t23 -60zM0 737q-6 6 -6 21q0 18 16 18q86 0 101 -63q19 -76 77 -76q45 0 66 17.5t37 58.5q22 53 80 59q12 2 26 2q9 0 15 -4.5t6 -9.5
q0 -8 -17 -33q-20 -25 -40 -60.5t-31 -49t-46 -24.5t-98 -11q-48 0 -81 11.5t-49.5 31t-25 38.5t-16 41.5t-14.5 32.5z" />
    <glyph glyph-name="dotlessi" unicode="&#x131;" horiz-adv-x="432" 
d="M250 426q0 -16 -6 -31q-13 -31 -27 -49.5t-39 -26.5q-33 -10 -65 -59q-2 -3 -19 -28t-28.5 -43t-26.5 -44.5t-23 -49.5t-8 -40q0 -26 37 -26q67 0 191 57q124 59 186 117q11 10 16 27t17 26q34 27 43 27q6 0 11 -5t5 -14q0 -31 -80 -90q-4 -3 -20.5 -16t-30 -22.5
t-35 -24t-48 -29.5t-56.5 -29q-133 -63 -224 -63q-83 0 -83 82q0 47 42.5 127t147.5 237q2 3 10.5 25t19.5 40.5t23 18.5q24 0 47 -34t23 -60z" />
    </font>
</defs>
</svg>
