<?xml version="1.0" standalone="no"?>
<!DOCTYPE svg PUBLIC "-//W3C//DTD SVG 1.1//EN" "http://www.w3.org/Graphics/SVG/1.1/DTD/svg11.dtd" >
<svg xmlns="http://www.w3.org/2000/svg" xmlns:xlink="http://www.w3.org/1999/xlink" version="1.1">
<metadata>
Created by FontForge 20201107 at Fri May 14 16:23:00 2021
 By 
Copyright 2020 Dalton Maag Ltd. Modification of this file requires prior written permission from Dalton Maag Ltd.
</metadata>
<defs>
<font id="DarkmodeTrial-DarkmodeOffRegular" horiz-adv-x="650" >
  <font-face 
    font-family="Darkmode Trial DarkmodeOff"
    font-weight="400"
    font-stretch="normal"
    units-per-em="1000"
    panose-1="2 11 5 3 3 5 4 2 2 4"
    ascent="800"
    descent="-200"
    x-height="532"
    cap-height="741"
    bbox="-258 -268 1227 1046"
    underline-thickness="78"
    underline-position="-169"
    unicode-range="U+000D-FEFF"
  />
<missing-glyph horiz-adv-x="500" 
d="M50 760h400v-760h-400v760zM400 50v660h-300v-660h300z" />
    <glyph glyph-name="f_i" unicode="fi" horiz-adv-x="640" 
d="M130 464h-90v68h90v30q0 99 49.5 155t140.5 56q38 0 72 -9l-9 -80q-21 13 -57 13q-54 0 -80 -33.5t-26 -97.5v-34h150v-68h-150v-464h-90v464zM470 464h-120v68h210v-532h-90v464zM456 688q0 27 17 45.5t42 18.5t42 -18.5t17 -45.5t-17 -45.5t-42 -18.5t-42 18.5
t-17 45.5z" />
    <glyph glyph-name="f_l" unicode="fl" horiz-adv-x="713" 
d="M130 464h-90v68h90v30q0 99 49.5 155t140.5 56q38 0 72 -9l-9 -80q-21 13 -57 13q-54 0 -80 -33.5t-26 -97.5v-34h150v-68h-150v-464h-90v464zM470 760h90v-615q0 -43 16 -61t51 -18q41 0 66 23l-9 -84q-12 -6 -33.5 -10.5t-47.5 -4.5q-68 0 -100.5 36t-32.5 109v625z
" />
    <glyph glyph-name="f_f_i" unicode="ffi" horiz-adv-x="980" 
d="M130 464h-90v68h90v30q0 99 52 155t143 56q43 0 82 -12l-9 -80q-11 8 -26.5 12t-35.5 4q-55 0 -85.5 -33.5t-30.5 -97.5v-34h250v30q0 99 49.5 155t140.5 56q38 0 72 -9l-9 -80q-21 13 -57 13q-54 0 -80 -33.5t-26 -97.5v-34h150v-68h-150v-464h-90v464h-250v-464h-90
v464zM810 464h-120v68h210v-532h-90v464zM796 688q0 27 17 45.5t42 18.5t42 -18.5t17 -45.5t-17 -45.5t-42 -18.5t-42 18.5t-17 45.5z" />
    <glyph glyph-name="f_f_l" unicode="ffl" horiz-adv-x="1053" 
d="M130 464h-90v68h90v30q0 99 52 155t143 56q43 0 82 -12l-9 -80q-11 8 -26.5 12t-35.5 4q-55 0 -85.5 -33.5t-30.5 -97.5v-34h250v30q0 99 49.5 155t140.5 56q38 0 72 -9l-9 -80q-21 13 -57 13q-54 0 -80 -33.5t-26 -97.5v-34h150v-68h-150v-464h-90v464h-250v-464h-90
v464zM810 760h90v-615q0 -43 16 -61t51 -18q41 0 66 23l-9 -84q-12 -6 -33.5 -10.5t-47.5 -4.5q-68 0 -100.5 36t-32.5 109v625z" />
    <glyph glyph-name="f_f" unicode="ff" horiz-adv-x="750" 
d="M130 464h-90v68h90v30q0 99 52 155t143 56q43 0 82 -12l-9 -80q-11 8 -26.5 12t-35.5 4q-55 0 -85.5 -33.5t-30.5 -97.5v-34h250v30q0 99 52 155t143 56q43 0 82 -12l-9 -80q-11 8 -26.5 12t-35.5 4q-55 0 -85.5 -33.5t-30.5 -97.5v-34h150v-68h-150v-464h-90v464h-250
v-464h-90v464z" />
    <glyph glyph-name="f_t" unicode="ft" horiz-adv-x="754" 
d="M130 464h-90v68h90v30q0 99 52 155t143 56q43 0 82 -12l-9 -80q-11 8 -26.5 12t-35.5 4q-55 0 -85.5 -33.5t-30.5 -97.5v-34h250v110l90 43v-153h150v-68h-150v-294q0 -55 19 -81t65 -26q19 0 39.5 6t36.5 18l-10 -85q-19 -7 -43.5 -11t-47.5 -4q-149 0 -149 165v312
h-250v-464h-90v464z" />
    <glyph glyph-name=".notdef" horiz-adv-x="500" 
d="M50 760h400v-760h-400v760zM400 50v660h-300v-660h300z" />
    <glyph glyph-name="uni0000" horiz-adv-x="0" 
 />
    <glyph glyph-name="uni0000" horiz-adv-x="0" 
 />
    <glyph glyph-name="uni000D" unicode="&#xd;" horiz-adv-x="234" 
 />
    <glyph glyph-name="space" unicode=" " horiz-adv-x="234" 
 />
    <glyph glyph-name="exclam" unicode="!" horiz-adv-x="270" 
d="M72 58q0 30 17.5 50.5t45.5 20.5t45.5 -20.5t17.5 -50.5t-17.5 -50.5t-45.5 -20.5t-45.5 20.5t-17.5 50.5zM74 733q8 10 24.5 18.5t36.5 8.5t36.5 -8.5t24.5 -18.5l-27 -530h-68z" />
    <glyph glyph-name="quotedbl" unicode="&#x22;" horiz-adv-x="428" 
d="M80 738q10 9 24.5 15.5t30.5 6.5q14 0 29.5 -6.5t25.5 -15.5l-28 -251h-54zM238 738q10 9 24.5 15.5t30.5 6.5q14 0 29.5 -6.5t25.5 -15.5l-28 -251h-54z" />
    <glyph glyph-name="numbersign" unicode="#" 
d="M144 194h-91v81h103l27 191h-101v81h113l27 194h75l-27 -194h161l27 194h75l-27 -194h91v-81h-103l-27 -191h101v-81h-113l-27 -194h-75l27 194h-161l-27 -194h-75zM419 466h-161l-27 -191h161z" />
    <glyph glyph-name="dollar" unicode="$" 
d="M293 350q-100 38 -146 81.5t-46 104.5q0 55 29.5 96.5t82 65t123.5 25.5l16 135h70l-16 -138q74 -9 139 -41l-26 -82q-55 40 -122 50l-27 -234q98 -37 148.5 -83.5t50.5 -111.5q0 -89 -65 -142.5t-180 -57.5l-16 -135h-70l16 138q-45 6 -89 20t-78 38l9 89q37 -29 81 -48
t86 -25zM360 325l-28 -233q68 5 105.5 34.5t37.5 82.5q0 37 -24.5 63t-90.5 53zM214.5 489q21.5 -24 88.5 -51l25 211q-63 -5 -99 -31.5t-36 -72.5q0 -32 21.5 -56z" />
    <glyph glyph-name="percent" unicode="%" horiz-adv-x="858" 
d="M25 561q0 52 20 96t58.5 70.5t94.5 26.5q55 0 93 -26.5t58 -70.5t20 -96t-20 -96t-58 -70.5t-93 -26.5q-56 0 -94.5 26.5t-58.5 70.5t-20 96zM289 561q0 56 -23 92.5t-68 36.5q-46 0 -69.5 -36.5t-23.5 -92.5q0 -55 23.5 -92t69.5 -37q45 0 68 37t23 92zM634 741h88
l-498 -741h-88zM489 180q0 52 20 96t58.5 70.5t94.5 26.5q55 0 93 -26.5t58 -70.5t20 -96t-20 -96t-58 -70.5t-93 -26.5q-56 0 -94.5 26.5t-58.5 70.5t-20 96zM753 180q0 56 -23 92.5t-68 36.5q-46 0 -69.5 -36.5t-23.5 -92.5q0 -55 23.5 -92t69.5 -37q45 0 68 37t23 92z
" />
    <glyph glyph-name="ampersand" unicode="&#x26;" horiz-adv-x="772" 
d="M249.5 731.5q40.5 22.5 89.5 22.5q50 0 89 -22t61.5 -60t22.5 -85q0 -50 -33 -96t-118 -91q45 -47 91 -95.5t95 -97.5q37 75 59 196l86 -16q-13 -70 -34.5 -130t-52.5 -109q38 -37 77 -74t79 -74h-123q-22 21 -44 41.5t-42 41.5q-45 -46 -102 -71t-126 -25
q-73 0 -131 26.5t-91 73t-33 106.5q0 62 38.5 117.5t133.5 102.5q-39 47 -59 88.5t-20 83.5q0 47 23.5 85.5t64 61zM189.5 283q-24.5 -42 -24.5 -83q0 -60 45.5 -96.5t115.5 -36.5q51 0 93.5 17t76.5 54q-56 57 -108 113.5t-102 110.5q-72 -37 -96.5 -79zM402 656
q-26 25 -64 25q-37 0 -63.5 -26t-26.5 -69q0 -36 16.5 -67.5t51.5 -69.5q60 31 86 64.5t26 74.5q0 43 -26 68z" />
    <glyph glyph-name="quotesingle" unicode="'" horiz-adv-x="270" 
d="M80 738q10 9 24.5 15.5t30.5 6.5q14 0 29.5 -6.5t25.5 -15.5l-28 -251h-54z" />
    <glyph glyph-name="parenleft" unicode="(" horiz-adv-x="327" 
d="M254 -87.5q30 -77.5 59 -129.5h-83q-30 52 -62.5 127.5t-54.5 168t-22 193.5q0 102 22 193.5t54.5 167t62.5 127.5h83q-29 -51 -59 -128.5t-50 -170t-20 -189.5q0 -96 20 -189t50 -170.5z" />
    <glyph glyph-name="parenright" unicode=")" horiz-adv-x="327" 
d="M143 272q0 97 -20 189.5t-50 170t-59 128.5h83q31 -52 63 -127.5t54 -167t22 -193.5q0 -101 -22 -193.5t-54 -168t-63 -127.5h-83q29 52 59 129.5t50 170.5t20 189z" />
    <glyph glyph-name="asterisk" unicode="*" horiz-adv-x="512" 
d="M218 747q16 13 42 13t42 -13l-13 -122l105 48q18 -15 25.5 -37.5t0.5 -42.5l-115 -25l86 -95q-7 -22 -26.5 -35.5t-41.5 -13.5l-63 105l-63 -105q-22 0 -41.5 13.5t-26.5 35.5l86 95l-115 25q-7 20 0.5 42.5t25.5 37.5l105 -48z" />
    <glyph glyph-name="plus" unicode="+" 
d="M283 593h84v-209h196v-78h-196v-209h-84v209h-196v78h196v209z" />
    <glyph glyph-name="comma" unicode="," horiz-adv-x="270" 
d="M121 -165h-49q21 36 36 77t20 78q-22 2 -39 21t-17 47q0 30 17.5 50.5t45.5 20.5t45.5 -22.5t17.5 -61.5q-1 -50 -21.5 -107.5t-55.5 -102.5z" />
    <glyph glyph-name="hyphen" unicode="-" horiz-adv-x="308" 
d="M24 320h260v-80h-260v80z" />
    <glyph glyph-name="period" unicode="." horiz-adv-x="270" 
d="M72 58q0 30 17.5 50.5t45.5 20.5t45.5 -20.5t17.5 -50.5t-17.5 -50.5t-45.5 -20.5t-45.5 20.5t-17.5 50.5z" />
    <glyph glyph-name="slash" unicode="/" horiz-adv-x="444" 
d="M351 760h85l-343 -977h-85z" />
    <glyph glyph-name="zero" unicode="0" 
d="M58 370q0 186 67 285t200 99t200 -99t67 -285q0 -184 -68 -283.5t-199 -99.5t-199 99.5t-68 283.5zM497 370q0 152 -41.5 228.5t-130.5 76.5q-88 0 -130 -76.5t-42 -228.5q0 -151 42 -227.5t130 -76.5t130 76.5t42 227.5z" />
    <glyph glyph-name="one" unicode="1" 
d="M386 81h174v-81h-449v81h184v558l-169 -98l-7 88l195 112h72v-660z" />
    <glyph glyph-name="two" unicode="2" 
d="M389 313q-63 -47 -103 -84.5t-62 -73t-30 -74.5h380l-9 -81h-485q2 59 16 105.5t42 88t73.5 84t109.5 92.5q74 58 105 99.5t31 84.5q0 53 -41.5 85.5t-109.5 32.5q-55 0 -106 -22t-94 -63l-9 100q42 29 99 48t121 19q72 0 125 -25t82 -70.5t29 -106.5q0 -64 -37.5 -119
t-126.5 -120z" />
    <glyph glyph-name="three" unicode="3" 
d="M397 662h-313l8 79h427l-8 -70l-196 -220q111 -1 169 -60t58 -152q0 -73 -35 -130t-98 -89.5t-149 -32.5q-54 0 -105.5 12.5t-94.5 37.5l9 97q42 -33 90.5 -49t93.5 -16q89 0 141 46t52 122q0 74 -44.5 110t-119.5 36q-23 0 -43.5 -3t-36.5 -8v63z" />
    <glyph glyph-name="four" unicode="4" 
d="M419 741h91v-487h96l-6 -78h-90v-176h-90v176h-379v61zM151 254h269v360z" />
    <glyph glyph-name="five" unicode="5" 
d="M159 741h375l-9 -79h-285l-21 -186q39 14 90 14q76 0 131 -30t85 -84t30 -127q0 -79 -35.5 -138t-98.5 -91.5t-146 -32.5q-115 0 -200 50l10 97q85 -65 186 -65q84 0 135 47t51 129q0 78 -46.5 123t-138.5 45q-40 0 -79.5 -8.5t-74.5 -22.5z" />
    <glyph glyph-name="six" unicode="6" 
d="M553 724l-24 -89q-34 21 -66.5 29t-63.5 8q-76 0 -123.5 -38t-72 -100.5t-31.5 -135.5q30 44 77.5 68.5t107.5 24.5q67 0 119 -30.5t82 -87t30 -133.5q0 -74 -30.5 -131t-85 -89.5t-127.5 -32.5q-86 0 -146.5 42.5t-92.5 120t-32 180.5q0 144 41.5 238t116 140t171.5 46
q47 0 85.5 -8.5t64.5 -21.5zM492 235q0 82 -41 129.5t-111 47.5q-64 0 -111 -40t-58 -103q8 -91 52.5 -146t120.5 -55q68 0 108 45.5t40 121.5z" />
    <glyph glyph-name="seven" unicode="7" 
d="M480 660h-412l9 81h518l-8 -75q-85 -126 -144.5 -235.5t-100 -214t-67.5 -216.5h-105q29 107 70 213t99.5 216.5t140.5 230.5z" />
    <glyph glyph-name="eight" unicode="8" 
d="M324 754q66 0 118 -23.5t82 -64.5t30 -94q0 -109 -138 -175q170 -67 170 -194q0 -61 -34.5 -110t-94 -77.5t-134.5 -28.5t-133 26.5t-91.5 73t-33.5 105.5q0 136 161 200q-64 29 -97.5 73.5t-33.5 100.5q0 54 30 96.5t82 67t117 24.5zM323 64q46 0 82.5 18t58 48.5
t21.5 67.5q0 53 -40 90t-135 71q-146 -56 -146 -165q0 -37 20.5 -66.5t56.5 -46.5t82 -17zM191 567q0 -46 34 -79t113 -62q121 52 121 138q0 50 -38 82.5t-97 32.5q-58 0 -95.5 -31.5t-37.5 -80.5z" />
    <glyph glyph-name="nine" unicode="9" 
d="M92 37l9 97q38 -33 81 -49t83 -16q71 0 115.5 39t68 103.5t29.5 139.5q-30 -43 -78 -67t-107 -24q-66 0 -118.5 29t-82.5 83t-30 128t31 131.5t87 90t131 32.5q84 0 143 -42.5t90.5 -119.5t31.5 -181q0 -143 -40.5 -237.5t-109.5 -140.5t-154 -46q-48 0 -95 12.5
t-85 37.5zM158 505q0 -77 41 -121.5t111 -44.5q60 0 107.5 36.5t62.5 94.5q-8 91 -51.5 147t-116.5 56q-71 0 -112.5 -46t-41.5 -122z" />
    <glyph glyph-name="colon" unicode=":" horiz-adv-x="270" 
d="M72 58q0 30 17.5 50.5t45.5 20.5t45.5 -20.5t17.5 -50.5t-17.5 -50.5t-45.5 -20.5t-45.5 20.5t-17.5 50.5zM72 461q0 30 17.5 50.5t45.5 20.5t45.5 -20.5t17.5 -50.5t-17.5 -50.5t-45.5 -20.5t-45.5 20.5t-17.5 50.5z" />
    <glyph glyph-name="semicolon" unicode=";" horiz-adv-x="270" 
d="M121 -165h-49q21 36 36 77t20 78q-22 2 -39 21t-17 47q0 30 17.5 50.5t45.5 20.5t45.5 -22.5t17.5 -61.5q-1 -50 -21.5 -107.5t-55.5 -102.5zM72 461q0 30 17.5 50.5t45.5 20.5t45.5 -20.5t17.5 -50.5t-17.5 -50.5t-45.5 -20.5t-45.5 20.5t-17.5 50.5z" />
    <glyph glyph-name="less" unicode="&#x3c;" 
d="M87 314v62l476 198v-85l-365 -144l365 -144v-85z" />
    <glyph glyph-name="equal" unicode="=" 
d="M563 179h-476v78h476v-78zM563 432h-476v78h476v-78z" />
    <glyph glyph-name="greater" unicode="&#x3e;" 
d="M563 376v-62l-476 -198v85l365 144l-365 144v85z" />
    <glyph glyph-name="question" unicode="?" horiz-adv-x="461" 
d="M125 58q0 30 17.5 50.5t45.5 20.5t45.5 -20.5t17.5 -50.5t-17.5 -50.5t-45.5 -20.5t-45.5 20.5t-17.5 50.5zM27 696q35 26 82 42t104 16q62 0 110 -23.5t75.5 -67.5t27.5 -104q0 -50 -25.5 -97t-87.5 -106q-49 -46 -68.5 -80.5t-22.5 -72.5h-68q-2 34 3.5 62t25.5 58.5
t59 70.5q46 46 67 83.5t21 76.5q0 61 -35 91t-92 30q-49 0 -90.5 -21.5t-77.5 -62.5z" />
    <glyph glyph-name="at" unicode="@" horiz-adv-x="997" 
d="M623 -96l10 -87q-40 -16 -85.5 -24t-91.5 -8q-120 0 -207 46t-134.5 130t-47.5 197q0 103 37.5 192.5t104 156.5t156 104.5t192.5 37.5q111 0 195.5 -44.5t132 -125t47.5 -187.5q0 -84 -29 -153t-78 -109.5t-111 -40.5q-52 0 -86 26.5t-40 78.5q-23 -52 -63 -78.5
t-90 -26.5q-68 0 -110 47.5t-42 130.5q0 54 18.5 103.5t50 89t72 62t83.5 22.5q38 0 69 -18t48 -51l12 49h74l-10 -40q-23 -91 -34.5 -144t-11.5 -91q0 -40 17 -64.5t45 -24.5q35 0 63.5 29t45.5 80t17 115q0 93 -35.5 159t-100 101t-152.5 35q-84 0 -156.5 -32t-126.5 -89
t-84 -132.5t-30 -162.5q0 -94 35.5 -163t100.5 -107t154 -38q108 0 176 49zM449 56q47 0 83.5 44t53.5 118l19 81q-7 31 -33 54t-61 23q-37 0 -70.5 -29t-54 -76t-20.5 -103q0 -54 21.5 -83t61.5 -29z" />
    <glyph glyph-name="A" unicode="A" horiz-adv-x="740" 
d="M316 741h108q144 -370 276 -741h-101q-18 55 -37 110t-39 110h-311q-20 -55 -38.5 -110t-37.5 -110h-96q132 371 276 741zM368 651q-33 -88 -65 -175.5t-63 -175.5h255q-31 88 -63 175.5t-64 175.5z" />
    <glyph glyph-name="B" unicode="B" horiz-adv-x="638" 
d="M100 741h200q74 0 130 -21t88 -62.5t32 -103.5q0 -60 -36.5 -99.5t-82.5 -55.5q75 -16 117.5 -65t42.5 -122q0 -70 -35 -117t-96.5 -71t-143.5 -24h-216v741zM195 77h120q83 0 129 35t46 104q0 66 -45 100t-129 34h-121v-273zM302 426q71 0 110 31t39 92q0 57 -42 86
t-113 29h-101v-238h107z" />
    <glyph glyph-name="C" unicode="C" horiz-adv-x="645" 
d="M221 707q75 47 177 47q59 0 111.5 -14.5t94.5 -40.5l-26 -88q-45 35 -88 49t-87 14q-112 0 -173.5 -81.5t-61.5 -220.5q0 -144 62 -224.5t177 -80.5q52 0 102 15.5t84 48.5l12 -96q-36 -22 -92 -35t-115 -13q-104 0 -179 46t-114.5 131.5t-39.5 204.5t40.5 205t115.5 133
z" />
    <glyph glyph-name="D" unicode="D" horiz-adv-x="730" 
d="M100 741h181q128 0 214.5 -47.5t130.5 -131t44 -191.5t-44 -191.5t-130.5 -131.5t-214.5 -48h-181v741zM196 661v-581h85q139 0 212.5 78.5t73.5 211.5q0 134 -73.5 212.5t-212.5 78.5h-85z" />
    <glyph glyph-name="E" unicode="E" horiz-adv-x="560" 
d="M100 741h418l-9 -80h-313v-229h254v-80h-254v-272h334v-80h-430v741z" />
    <glyph glyph-name="F" unicode="F" horiz-adv-x="548" 
d="M100 741h418l-9 -80h-313v-230h254v-80h-254v-351h-96v741z" />
    <glyph glyph-name="G" unicode="G" horiz-adv-x="705" 
d="M635 53q-39 -29 -100 -47.5t-131 -18.5q-106 0 -182 45.5t-116.5 131.5t-40.5 206q0 119 41.5 205t119 132.5t184.5 46.5q62 0 116.5 -14.5t100.5 -40.5l-27 -88q-47 35 -93 49t-93 14q-79 0 -134 -37.5t-83.5 -105.5t-28.5 -161q0 -145 64 -224t181 -79q73 0 126 28v223
h-171v80h267v-345z" />
    <glyph glyph-name="H" unicode="H" horiz-adv-x="740" 
d="M100 741h96v-309h348v309h96v-741h-96v352h-348v-352h-96v741z" />
    <glyph glyph-name="I" unicode="I" horiz-adv-x="296" 
d="M100 741h96v-741h-96v741z" />
    <glyph glyph-name="J" unicode="J" horiz-adv-x="430" 
d="M340 193q0 -95 -50 -150.5t-148 -55.5q-35 0 -65.5 7t-56.5 19l9 88q48 -29 105 -29q52 0 81.5 34t29.5 110v525h95v-548z" />
    <glyph glyph-name="K" unicode="K" horiz-adv-x="660" 
d="M100 741h96v-330q80 83 156 165t150 165h113q-78 -86 -159 -172.5t-165 -173.5q90 -99 178 -197.5t173 -197.5h-124q-78 90 -158.5 181.5t-163.5 182.5v-364h-96v741z" />
    <glyph glyph-name="L" unicode="L" horiz-adv-x="530" 
d="M100 741h96v-660h314v-81h-410v741z" />
    <glyph glyph-name="M" unicode="M" horiz-adv-x="937" 
d="M112 741h82l277 -562l277 562h77l17 -741h-91l-12 548l-235 -477h-72l-234 475l-12 -546h-91z" />
    <glyph glyph-name="N" unicode="N" horiz-adv-x="740" 
d="M100 741h107l344 -563l-1 54v509h90v-741h-79l-372 610l1 -47v-563h-90v741z" />
    <glyph glyph-name="O" unicode="O" horiz-adv-x="770" 
d="M65 379q0 110 36.5 194.5t107.5 132.5t176 48t176.5 -48t107.5 -132.5t36 -194.5q0 -115 -35.5 -203.5t-106.5 -138.5t-178 -50t-178 50t-106.5 138.5t-35.5 203.5zM602 379q0 137 -56 216.5t-161 79.5q-104 0 -160.5 -79.5t-56.5 -216.5q0 -95 25.5 -165.5t74 -109
t117.5 -38.5q70 0 118 38.5t73.5 109t25.5 165.5z" />
    <glyph glyph-name="P" unicode="P" horiz-adv-x="600" 
d="M100 741h178q128 0 205.5 -54t77.5 -162q0 -109 -77.5 -162.5t-205.5 -53.5h-82v-309h-96v741zM413 420.5q47 34.5 47 104.5q0 69 -47 104t-136 35h-81v-278h81q89 0 136 34.5z" />
    <glyph glyph-name="Q" unicode="Q" horiz-adv-x="770" 
d="M482 0q28 -37 78 -61t121 -32l-52 -76q-85 10 -141 52t-86 104h-17q-107 0 -178 50t-106.5 138.5t-35.5 203.5q0 110 36.5 194.5t107.5 132.5t176 48t176.5 -48t107.5 -132.5t36 -194.5q0 -145 -55.5 -246.5t-167.5 -132.5zM385 66q70 0 118 38.5t73.5 109t25.5 165.5
q0 137 -56 216.5t-161 79.5q-104 0 -160.5 -79.5t-56.5 -216.5q0 -95 25.5 -165.5t74 -109t117.5 -38.5z" />
    <glyph glyph-name="R" unicode="R" horiz-adv-x="656" 
d="M100 741h181q80 0 143.5 -22t100 -66.5t36.5 -113.5q0 -75 -41 -123t-110 -67q59 -29 111 -112.5t113 -236.5h-105q-40 96 -72.5 157.5t-63.5 95t-67.5 47t-86.5 13.5h-43v-313h-96v741zM409.5 426q50.5 36 50.5 103q0 68 -50.5 101.5t-127.5 33.5h-86v-274h86
q77 0 127.5 36z" />
    <glyph glyph-name="S" unicode="S" horiz-adv-x="590" 
d="M276 -13q-62 0 -121 14t-109 42l10 97q105 -74 219 -74q80 0 123.5 33.5t43.5 94.5q0 33 -14 56t-50.5 44t-103.5 47q-77 30 -121.5 61.5t-63.5 68.5t-19 80q0 62 31 107.5t86.5 70.5t130.5 25q106 0 197 -48l-26 -88q-72 57 -170 57q-70 0 -111.5 -29t-41.5 -85
q0 -29 16 -51t53 -42t99 -44q83 -31 127.5 -65t61.5 -72t17 -83q0 -100 -70.5 -158.5t-193.5 -58.5z" />
    <glyph glyph-name="T" unicode="T" horiz-adv-x="580" 
d="M242 660h-222v81h540v-81h-222v-660h-96v660z" />
    <glyph glyph-name="U" unicode="U" horiz-adv-x="710" 
d="M527 741h93v-483q0 -127 -69.5 -199t-194.5 -72q-126 0 -196 72t-70 199v483h96v-467q0 -105 42.5 -155.5t126.5 -50.5q86 0 129 48.5t43 141.5v483z" />
    <glyph glyph-name="V" unicode="V" horiz-adv-x="700" 
d="M30 741h103q53 -154 108.5 -308t111.5 -308q57 154 112.5 308t108.5 308h96q-66 -185 -136 -370.5t-142 -370.5h-84q-72 185 -142 370.5t-136 370.5z" />
    <glyph glyph-name="W" unicode="W" horiz-adv-x="1030" 
d="M515 580l-170 -580h-80q-118 371 -225 741h103q39 -146 80 -291.5t84 -289.5l165 561h87l166 -566q43 147 86 293.5t83 292.5h96q-106 -370 -225 -741h-80z" />
    <glyph glyph-name="X" unicode="X" horiz-adv-x="679" 
d="M286 389l-235 352h115l178 -284l183 284h107l-238 -356l257 -385h-115l-200 317l-205 -317h-107z" />
    <glyph glyph-name="Y" unicode="Y" horiz-adv-x="670" 
d="M385 298v-298h-96v299l-259 442h108l203 -360l198 360h101z" />
    <glyph glyph-name="Z" unicode="Z" horiz-adv-x="590" 
d="M421 660h-362l4 81h470v-73l-372 -587h379v-81h-490v73z" />
    <glyph glyph-name="bracketleft" unicode="[" horiz-adv-x="327" 
d="M112 760h189v-70h-99v-837h99v-70h-189v977z" />
    <glyph glyph-name="backslash" unicode="\" horiz-adv-x="444" 
d="M8 760h85l343 -977h-85z" />
    <glyph glyph-name="bracketright" unicode="]" horiz-adv-x="327" 
d="M215 -217h-189v70h99v837h-99v70h189v-977z" />
    <glyph glyph-name="asciicircum" unicode="^" 
d="M283 741h84l185 -404h-88l-140 317l-140 -317h-86z" />
    <glyph glyph-name="underscore" unicode="_" horiz-adv-x="500" 
d="M0 -91h500v-78h-500v78z" />
    <glyph glyph-name="grave" unicode="`" horiz-adv-x="560" 
d="M198 750q10 20 31 37t49 23l109 -176l-44 -33z" />
    <glyph glyph-name="a" unicode="a" horiz-adv-x="540" 
d="M470 94q0 -23 3 -50.5t7 -43.5h-84q-4 11 -7 28.5t-5 35.5q-28 -38 -70.5 -57.5t-91.5 -19.5q-71 0 -117.5 43.5t-46.5 114.5q0 79 64.5 128t191.5 62l66 7q0 57 -34.5 92t-97.5 35q-38 0 -77.5 -13.5t-74.5 -42.5l-10 87q35 21 82.5 33t93.5 12q101 0 154.5 -56.5
t53.5 -156.5v-238zM175 85q25 -24 68 -24q41 0 77.5 21t59.5 58v136l-62 -7q-85 -10 -126.5 -40.5t-41.5 -79.5q0 -40 25 -64z" />
    <glyph glyph-name="b" unicode="b" horiz-adv-x="607" 
d="M80 760h90v-294q26 37 67.5 58t91.5 21q103 0 162 -75t59 -204t-59 -204t-161 -75q-52 0 -94.5 22.5t-68.5 61.5v-71h-87v760zM313 471q-48 0 -86 -26.5t-57 -71.5v-213q19 -46 57 -72.5t85 -26.5q68 0 106 55.5t38 149.5t-37.5 149.5t-105.5 55.5z" />
    <glyph glyph-name="c" unicode="c" horiz-adv-x="497" 
d="M57 265q0 84 31.5 147t87.5 98t131 35q44 0 83.5 -11t66.5 -29l-26 -81q-27 23 -57 34t-62 11q-74 0 -117.5 -54t-43.5 -148q0 -96 45 -150t124 -54q32 0 67.5 11.5t59.5 36.5l10 -89q-26 -16 -64 -25.5t-84 -9.5q-119 0 -185.5 74.5t-66.5 203.5z" />
    <glyph glyph-name="d" unicode="d" horiz-adv-x="607" 
d="M527 0h-87v71q-25 -39 -67.5 -61.5t-95.5 -22.5q-102 0 -161 75t-59 204t59 204t162 75q50 0 91.5 -21t67.5 -58v294h90v-760zM380 87.5q38 26.5 57 72.5v213q-19 45 -57 71.5t-86 26.5q-67 0 -105 -55.5t-38 -149.5t38 -149.5t106 -55.5q47 0 85 26.5z" />
    <glyph glyph-name="e" unicode="e" horiz-adv-x="552" 
d="M483 111l10 -89q-29 -16 -73 -25.5t-96 -9.5q-81 0 -141 35t-93 99t-33 151q0 81 28 142.5t81 96t126 34.5q95 0 150 -62t55 -180q0 -6 -0.5 -21.5t-1.5 -24.5h-347q6 -97 57.5 -145.5t129.5 -48.5q37 0 78.5 11.5t69.5 36.5zM289 477q-58 0 -94 -40t-45 -112h258
q0 75 -31.5 113.5t-87.5 38.5z" />
    <glyph glyph-name="f" unicode="f" horiz-adv-x="410" 
d="M130 464h-90v68h90v30q0 99 52 155t143 56q43 0 82 -12l-9 -80q-11 8 -26.5 12t-35.5 4q-55 0 -85.5 -33.5t-30.5 -97.5v-34h150v-68h-150v-464h-90v464z" />
    <glyph glyph-name="g" unicode="g" horiz-adv-x="597" 
d="M527 65q0 -142 -65 -218.5t-199 -76.5q-43 0 -86 9.5t-84 31.5l9 91q38 -31 78 -43.5t80 -12.5q89 0 133 48.5t44 136.5v35q-26 -37 -67.5 -58t-91.5 -21q-103 0 -162 75t-59 204t59 204t161 75q53 0 95.5 -22.5t67.5 -61.5v71h87v-467zM295 471q-68 0 -106 -55.5
t-38 -149.5t38 -149.5t105 -55.5q48 0 86 26.5t57 71.5v213q-19 46 -57 72.5t-85 26.5z" />
    <glyph glyph-name="h" unicode="h" horiz-adv-x="580" 
d="M80 760h90v-297q29 42 72 62t91 20q79 0 128 -51t49 -146v-348h-90v345q0 57 -29.5 90.5t-79.5 33.5q-45 0 -83.5 -27t-57.5 -70v-372h-90v760z" />
    <glyph glyph-name="i" unicode="i" horiz-adv-x="250" 
d="M80 532h90v-532h-90v532zM66 688q0 27 17 45.5t42 18.5t42 -18.5t17 -45.5t-17 -45.5t-42 -18.5t-42 18.5t-17 45.5z" />
    <glyph glyph-name="j" unicode="j" horiz-adv-x="250" 
d="M80 532h90v-583q0 -179 -155 -179q-40 0 -70 13l8 77q10 -6 23.5 -10t31.5 -4q72 0 72 99v587zM66 688q0 27 17 45.5t42 18.5t42 -18.5t17 -45.5t-17 -45.5t-42 -18.5t-42 18.5t-17 45.5z" />
    <glyph glyph-name="k" unicode="k" horiz-adv-x="542" 
d="M80 760h90v-464q60 59 118 117.5t114 118.5h109q-60 -62 -122 -124t-126 -124q70 -71 137 -142t132 -142h-119q-58 64 -118.5 129.5t-124.5 131.5v-261h-90v760z" />
    <glyph glyph-name="l" unicode="l" horiz-adv-x="323" 
d="M80 760h90v-615q0 -43 16 -61t51 -18q41 0 66 23l-9 -84q-12 -6 -33.5 -10.5t-47.5 -4.5q-68 0 -100.5 36t-32.5 109v625z" />
    <glyph glyph-name="m" unicode="m" horiz-adv-x="894" 
d="M80 532h87v-73q28 44 70 65t91 21q53 0 92.5 -25.5t59.5 -73.5q31 51 76.5 75t98.5 24q76 0 122.5 -51t46.5 -146v-348h-90v345q0 57 -27 90.5t-74 33.5q-45 0 -81.5 -27t-54.5 -70v-372h-90v345q0 57 -27 90.5t-74 33.5q-45 0 -81.5 -27t-54.5 -70v-372h-90v532z" />
    <glyph glyph-name="n" unicode="n" horiz-adv-x="580" 
d="M80 532h87v-74q29 45 73 66t93 21q79 0 128 -51t49 -146v-348h-90v345q0 57 -29.5 90.5t-79.5 33.5q-45 0 -83.5 -27t-57.5 -70v-372h-90v532z" />
    <glyph glyph-name="o" unicode="o" horiz-adv-x="604" 
d="M57 273q0 80 27.5 141.5t82 96t135.5 34.5q82 0 136 -34.5t81.5 -96t27.5 -141.5q0 -84 -26.5 -148.5t-81 -101t-137.5 -36.5q-82 0 -136.5 36.5t-81.5 101t-27 148.5zM453 273q0 91 -38.5 144.5t-112.5 53.5t-112.5 -53.5t-38.5 -144.5q0 -97 39 -154.5t112 -57.5
q74 0 112.5 57.5t38.5 154.5z" />
    <glyph glyph-name="p" unicode="p" horiz-adv-x="607" 
d="M80 532h87v-71q26 39 68.5 61.5t94.5 22.5q102 0 161 -75t59 -204t-59 -204t-162 -75q-50 0 -91.5 21t-67.5 58v-283h-90v749zM227 444.5q-38 -26.5 -57 -72.5v-213q19 -45 57 -71.5t86 -26.5q68 0 105.5 55.5t37.5 149.5t-38 149.5t-106 55.5q-47 0 -85 -26.5z" />
    <glyph glyph-name="q" unicode="q" horiz-adv-x="607" 
d="M527 -217h-90v283q-26 -37 -67.5 -58t-91.5 -21q-103 0 -162 75t-59 204t59 204t161 75q53 0 95.5 -22.5t67.5 -61.5v71h87v-749zM294 61q48 0 86 26.5t57 71.5v213q-19 46 -57 72.5t-85 26.5q-68 0 -106 -55.5t-38 -149.5t38 -149.5t105 -55.5z" />
    <glyph glyph-name="r" unicode="r" horiz-adv-x="400" 
d="M80 532h87v-97q27 58 72 84t94 26q19 0 37 -3l-11 -97q-19 9 -47 9q-46 0 -85.5 -33.5t-56.5 -86.5v-334h-90v532z" />
    <glyph glyph-name="s" unicode="s" horiz-adv-x="478" 
d="M63 118q34 -29 75 -43t82 -14q54 0 85.5 22.5t31.5 60.5q0 19 -10.5 33t-37 28t-75.5 32q-84 31 -117 68t-33 87q0 48 25 82t68 52.5t97 18.5q43 0 82.5 -11t66.5 -29l-25 -78q-27 23 -57.5 34t-64.5 11q-47 0 -75.5 -19t-28.5 -55q0 -28 27.5 -47t95.5 -44
q60 -22 92.5 -46.5t45.5 -52.5t13 -61q0 -76 -58.5 -118t-150.5 -42q-48 0 -91.5 11t-73.5 29z" />
    <glyph glyph-name="t" unicode="t" horiz-adv-x="404" 
d="M120 464h-90v68h90v110l90 43v-153h150v-68h-150v-294q0 -55 19 -81t65 -26q19 0 39.5 6t36.5 18l-10 -85q-19 -7 -43.5 -11t-47.5 -4q-149 0 -149 165v312z" />
    <glyph glyph-name="u" unicode="u" horiz-adv-x="578" 
d="M408 532h90v-532h-87v74q-30 -47 -74.5 -67t-91.5 -20q-78 0 -126.5 51t-48.5 146v348h90v-345q0 -57 29 -90.5t79 -33.5q45 0 83 27t57 70v372z" />
    <glyph glyph-name="v" unicode="v" horiz-adv-x="540" 
d="M20 532h95q38 -104 77 -207.5t81 -207.5q41 104 80 208t77 207h90q-51 -133 -105 -266t-110 -266h-70q-56 133 -110 266t-105 266z" />
    <glyph glyph-name="w" unicode="w" horiz-adv-x="780" 
d="M390 398l-125 -398h-63q-46 133 -88.5 266t-83.5 266h94q27 -96 55 -192t57 -192l117 370h75l118 -375q30 98 59 195t56 194h89q-40 -133 -83 -266t-89 -266h-63z" />
    <glyph glyph-name="x" unicode="x" horiz-adv-x="524" 
d="M214 280l-177 252h101l128 -194l132 194h96l-181 -255l195 -277h-101l-144 218l-151 -218h-96z" />
    <glyph glyph-name="y" unicode="y" horiz-adv-x="540" 
d="M307 0q-34 -83 -66.5 -133.5t-71 -73.5t-93.5 -23q-28 0 -48.5 5t-37.5 13l8 81q17 -11 35 -17t40 -6q48 0 81.5 34t61.5 109l11 30q-54 128 -106 256.5t-101 256.5h95q38 -104 77 -207.5t81 -207.5q41 104 80 208t77 207h90q-51 -133 -104 -265.5t-109 -266.5z" />
    <glyph glyph-name="z" unicode="z" horiz-adv-x="470" 
d="M315 462h-265v70h370v-63l-274 -399h284v-70h-390v63z" />
    <glyph glyph-name="braceleft" unicode="{" horiz-adv-x="327" 
d="M202 402q0 -49 -18 -80.5t-59 -49.5q41 -19 59 -50.5t18 -80.5v-211q0 -43 24 -60t52 -17h23v-70h-28q-63 0 -98 22t-49 59t-14 81v202q0 47 -19 66t-70 25v67q51 6 70 25t19 66v202q0 45 14 81.5t49 58.5t98 22h28v-70h-23q-28 0 -52 -17t-24 -60v-211z" />
    <glyph glyph-name="bar" unicode="|" horiz-adv-x="268" 
d="M89 760h90v-977h-90v977z" />
    <glyph glyph-name="braceright" unicode="}" horiz-adv-x="327" 
d="M125 141q0 49 18 80.5t59 50.5q-41 18 -59 49.5t-18 80.5v211q0 43 -23.5 60t-52.5 17h-23v70h28q64 0 98.5 -22t48.5 -58.5t14 -81.5v-202q0 -47 19 -66t70 -25v-67q-51 -6 -70 -25t-19 -66v-202q0 -44 -14 -81t-48.5 -59t-98.5 -22h-28v70h23q29 0 52.5 17t23.5 60v211
z" />
    <glyph glyph-name="asciitilde" unicode="~" 
d="M446 247q-33 0 -59.5 11t-70.5 42q-33 25 -52 37t-30.5 16.5t-23.5 4.5q-31 0 -46 -25t-22 -88l-82 20q8 80 47.5 129.5t96.5 49.5q33 0 60 -11t70 -42q34 -24 52.5 -36.5t30.5 -17t23 -4.5q31 0 46 25t22 88l82 -20q-7 -79 -47 -129t-97 -50z" />
    <glyph glyph-name="uni00A0" unicode="&#xa0;" horiz-adv-x="234" 
 />
    <glyph glyph-name="exclamdown" unicode="&#xa1;" horiz-adv-x="238" 
d="M85 316h68l27 -530q-7 -10 -24 -18.5t-37 -8.5q-19 0 -36 8.5t-25 18.5zM182 461q0 -30 -17.5 -50.5t-45.5 -20.5t-45.5 20.5t-17.5 50.5t17.5 50.5t45.5 20.5t45.5 -20.5t17.5 -50.5z" />
    <glyph glyph-name="cent" unicode="&#xa2;" 
d="M367 165q48 0 88.5 14t64.5 36l10 -89q-27 -15 -74 -25t-98 -10l-14 -124h-70l15 132q-85 20 -132 90t-47 175q0 84 30 146.5t84.5 98t127.5 39.5l14 126h70l-15 -129q32 -4 60 -13.5t49 -22.5l-26 -81q-40 33 -91 42zM204 369q0 -71 25 -119.5t69 -70.5l45 391
q-65 -10 -102 -62.5t-37 -138.5z" />
    <glyph glyph-name="sterling" unicode="&#xa3;" 
d="M383 754q49 0 92.5 -12.5t73.5 -32.5l-28 -85q-29 26 -63 38t-70 12q-62 0 -97.5 -33.5t-35.5 -92.5q0 -33 7.5 -64.5t16.5 -65.5h212l-23 -78h-172q3 -18 5 -37.5t2 -40.5q0 -47 -13.5 -94t-46.5 -87h326v-81h-489v81h56q28 16 43.5 46t22 64.5t6.5 61.5q0 24 -2.5 45.5
t-6.5 41.5h-121v78h101q-9 30 -15 61t-6 68q0 95 61 151t164 56z" />
    <glyph glyph-name="currency" unicode="&#xa4;" 
d="M458 154q-28 -19 -62 -30t-71 -11q-36 0 -69.5 11t-62.5 30l-78 -78l-57 58l76 77q-21 29 -33.5 64.5t-12.5 74.5q0 40 12.5 75.5t33.5 64.5l-76 76l57 58l78 -77q58 40 132 40q75 0 133 -40l77 77l57 -58l-75 -76q21 -29 33 -64.5t12 -75.5q0 -39 -12 -74.5t-33 -64.5
l75 -77l-57 -58zM403 209q35 22 56 59t21 82q0 46 -21 82.5t-56 58.5t-78 22t-78 -22t-56 -58.5t-21 -82.5q0 -45 21 -82t56 -59t78 -22t78 22z" />
    <glyph glyph-name="yen" unicode="&#xa5;" 
d="M331 383l188 358h101l-179 -324h130v-78h-174l-22 -41v-51h196v-78h-196v-169h-96v169h-200v78h200v53l-22 39h-178v78h134l-183 324h108z" />
    <glyph glyph-name="brokenbar" unicode="&#xa6;" horiz-adv-x="268" 
d="M89 175h90v-392h-90v392zM89 760h90v-392h-90v392z" />
    <glyph glyph-name="section" unicode="&#xa7;" horiz-adv-x="621" 
d="M54 -50l9 86q40 -38 102.5 -62t125.5 -24q65 0 113 25q3 38 -13.5 75t-48.5 63l-149 118q-66 52 -104.5 112.5t-38.5 141.5q0 79 36 139.5t99.5 95t147.5 34.5q53 0 108 -16t101 -47l-21 -79q-49 38 -100.5 55t-98.5 17q-60 0 -105 -23q-4 -40 12.5 -77t48.5 -63
l149 -118q66 -52 105 -112.5t39 -141.5q0 -79 -37.5 -139.5t-103.5 -95t-151 -34.5q-64 0 -126 19.5t-99 50.5zM246 286l124 -97q37 -29 65 -69t31 -90q30 46 30 109q0 67 -33 116.5t-89 92.5l-124 97q-39 30 -66 70t-29 91q-30 -45 -30 -108q0 -68 33.5 -118.5t87.5 -93.5z
" />
    <glyph glyph-name="dieresis" unicode="&#xa8;" horiz-adv-x="560" 
d="M126 687q0 26 17 44.5t41 18.5t41 -18.5t17 -44.5t-17 -44.5t-41 -18.5t-41 18.5t-17 44.5zM317 687q0 26 17 44.5t41 18.5t41 -18.5t17 -44.5t-17 -44.5t-41 -18.5t-41 18.5t-17 44.5z" />
    <glyph glyph-name="copyright" unicode="&#xa9;" horiz-adv-x="800" 
d="M746 220.5q-28 -70.5 -78 -123t-118.5 -81.5t-149.5 -29t-149.5 29t-118.5 81.5t-78 123t-28 153.5t28 153.5t78 123t118.5 81.5t149.5 29t149.5 -29t118.5 -81.5t78 -123t28 -153.5t-28 -153.5zM694 374q0 90 -38 160t-104.5 110.5t-151.5 40.5t-151.5 -40.5
t-104.5 -110.5t-38 -160q0 -89 38 -159.5t104.5 -111t151.5 -40.5t151.5 40.5t104.5 111t38 159.5zM502 473q-41 32 -87 32q-48 0 -78 -36t-30 -95q0 -58 30.5 -91.5t83.5 -33.5q55 0 96 36l9 -74q-22 -12 -52 -18.5t-60 -6.5q-86 0 -134.5 50.5t-48.5 138.5q0 90 50 141.5
t133 51.5q58 0 106 -27z" />
    <glyph glyph-name="ordfeminine" unicode="&#xaa;" horiz-adv-x="420" 
d="M349 440q0 -16 2 -35.5t5 -30.5h-69q-5 14 -8 40q-23 -25 -53 -37t-61 -12q-52 0 -86.5 30.5t-34.5 79.5q0 55 47.5 89t141.5 43l43 4q0 40 -23 62t-69 22q-28 0 -57 -9.5t-55 -29.5l-7 67q26 14 61 22.5t69 8.5q74 0 114 -39.5t40 -108.5v-166zM118 480q0 -25 16.5 -41
t45.5 -16q25 0 51 12t45 35v90l-38 -4q-62 -6 -91 -25t-29 -51z" />
    <glyph glyph-name="guillemotleft" unicode="&#xab;" horiz-adv-x="560" 
d="M208 493h92l-151 -221l151 -219h-92l-158 219zM408 493h92l-151 -221l151 -219h-92l-158 219z" />
    <glyph glyph-name="logicalnot" unicode="&#xac;" 
d="M479 417h-392v78h476v-284h-84v206z" />
    <glyph glyph-name="uni00AD" unicode="&#xad;" horiz-adv-x="308" 
d="M24 320h260v-80h-260v80z" />
    <glyph glyph-name="registered" unicode="&#xae;" horiz-adv-x="800" 
d="M549.5 16q-68.5 -29 -149.5 -29t-149.5 29t-118.5 81.5t-78 123t-28 153.5t28 153.5t78 123t118.5 81.5t149.5 29t149.5 -29t118.5 -81.5t78 -123t28 -153.5t-28 -153.5t-78 -123t-118.5 -81.5zM551.5 644.5q-66.5 40.5 -151.5 40.5t-151.5 -40.5t-104.5 -110.5t-38 -160
q0 -89 38 -159.5t104.5 -111t151.5 -40.5t151.5 40.5t104.5 111t38 159.5q0 90 -38 160t-104.5 110.5zM257 561h119q68 0 112.5 -25.5t44.5 -80.5q0 -39 -24 -62t-63 -33q35 -15 63 -55t56 -111h-86q-24 55 -43.5 86t-43 44.5t-59.5 14.5v-145h-76v367zM431.5 409.5
q23.5 14.5 23.5 40.5q0 29 -23.5 42t-55.5 13h-43v-110h43q32 0 55.5 14.5z" />
    <glyph glyph-name="macron" unicode="&#xaf;" horiz-adv-x="560" 
d="M143 722h274v-70h-274v70z" />
    <glyph glyph-name="degree" unicode="&#xb0;" horiz-adv-x="420" 
d="M38 587q0 47 23 85t62 60t87 22q49 0 87.5 -22t61.5 -60t23 -85t-23 -85t-61.5 -60t-87.5 -22q-48 0 -87 22t-62 60t-23 85zM304 587q0 41 -26.5 70t-67.5 29q-40 0 -67 -29t-27 -70t27 -70t67 -29q41 0 67.5 29t26.5 70z" />
    <glyph glyph-name="plusminus" unicode="&#xb1;" 
d="M283 643h84v-209h196v-78h-196v-209h-84v209h-196v78h196v209zM87 78h476v-78h-476v78z" />
    <glyph glyph-name="uni00B2" unicode="&#xb2;" horiz-adv-x="395" 
d="M185 656q73 45 73 90q0 26 -21.5 41t-56.5 15q-60 0 -113 -42l-4 65q27 17 60.5 26t67.5 9q66 0 104 -31.5t38 -81.5q0 -35 -22.5 -64.5t-72.5 -61.5q-44 -27 -65.5 -47.5t-31.5 -46.5h203l-6 -58h-285q0 59 32.5 102.5t99.5 84.5z" />
    <glyph glyph-name="uni00B3" unicode="&#xb3;" horiz-adv-x="381" 
d="M231 794h-178l5 57h258l-5 -49l-106 -101q58 -4 90.5 -33.5t32.5 -76.5q0 -58 -47 -93.5t-122 -35.5q-31 0 -62 6.5t-57 19.5l6 61q23 -13 51 -21t56 -8q44 0 71 20t27 53q0 32 -24.5 48.5t-62.5 16.5q-14 0 -24.5 -2t-18.5 -4v34z" />
    <glyph glyph-name="acute" unicode="&#xb4;" horiz-adv-x="560" 
d="M283 810q28 -6 49 -23t31 -37l-145 -149l-44 33z" />
    <glyph glyph-name="uni00B5" unicode="&#xb5;" horiz-adv-x="578" 
d="M70 532h90v-345q0 -57 29 -90.5t79 -33.5q45 0 83 27t57 70v372h90v-532h-87v74q-29 -47 -71.5 -67t-89.5 -20q-56 0 -90 29v-233h-90v749z" />
    <glyph glyph-name="paragraph" unicode="&#xb6;" horiz-adv-x="671" 
d="M585 -108h-82v772h-114v-772h-82v417q-78 1 -138.5 25t-95 71.5t-34.5 119.5q0 110 78.5 163t211.5 53h256v-849zM307 664q-89 0 -136.5 -35t-47.5 -104q0 -136 184 -139v278z" />
    <glyph glyph-name="periodcentered" unicode="&#xb7;" horiz-adv-x="270" 
d="M72 266q0 30 17.5 50.5t45.5 20.5t45.5 -20.5t17.5 -50.5t-17.5 -50.5t-45.5 -20.5t-45.5 20.5t-17.5 50.5z" />
    <glyph glyph-name="cedilla" unicode="&#xb8;" horiz-adv-x="560" 
d="M245 10h64l-19 -72q52 -3 78 -26.5t26 -60.5q0 -48 -36 -73.5t-104 -25.5q-22 0 -48.5 6t-40.5 14l8 67q29 -26 81 -26q34 0 49 9t15 30q0 37 -63 37q-21 0 -43 -5z" />
    <glyph glyph-name="uni00B9" unicode="&#xb9;" horiz-adv-x="380" 
d="M234 531h91v-62h-264v62h101v243l-90 -42l-5 60l117 59h50v-320z" />
    <glyph glyph-name="ordmasculine" unicode="&#xba;" horiz-adv-x="420" 
d="M38 565q0 83 43 136t129 53t129 -53t43 -136q0 -88 -41.5 -144t-130.5 -56q-88 0 -130 56t-42 144zM307 565q0 53 -24.5 89t-72.5 36t-72.5 -36t-24.5 -89q0 -61 24.5 -98.5t72.5 -37.5t72.5 37.5t24.5 98.5z" />
    <glyph glyph-name="guillemotright" unicode="&#xbb;" horiz-adv-x="560" 
d="M60 493h92l158 -221l-158 -219h-92l151 219zM260 493h92l158 -221l-158 -219h-92l151 219z" />
    <glyph glyph-name="onequarter" unicode="&#xbc;" horiz-adv-x="830" 
d="M234 421h91v-62h-264v62h101v243l-90 -42l-5 60l117 59h50v-320zM640 741h88l-498 -741h-88zM664 382h75v-245h69l-5 -56h-64v-81h-72v81h-237v44zM513 137h154v170z" />
    <glyph glyph-name="onehalf" unicode="&#xbd;" horiz-adv-x="845" 
d="M234 421h91v-62h-264v62h101v243l-90 -42l-5 60l117 59h50v-320zM627 741h88l-498 -741h-88zM635 187q73 45 73 90q0 26 -21.5 41t-56.5 15q-60 0 -113 -42l-4 65q27 17 60.5 26t67.5 9q66 0 104 -31.5t38 -81.5q0 -35 -22.5 -64.5t-72.5 -61.5q-44 -27 -65.5 -47.5
t-31.5 -46.5h203l-6 -58h-285q0 59 32.5 102.5t99.5 84.5z" />
    <glyph glyph-name="threequarters" unicode="&#xbe;" horiz-adv-x="831" 
d="M231 684h-178l5 57h258l-5 -49l-106 -101q58 -4 90.5 -33.5t32.5 -76.5q0 -58 -47 -93.5t-122 -35.5q-31 0 -62 6.5t-57 19.5l6 61q23 -13 51 -21t56 -8q44 0 71 20t27 53q0 32 -24.5 48.5t-62.5 16.5q-14 0 -24.5 -2t-18.5 -4v34zM623 741h88l-498 -741h-88zM665 382h75
v-245h69l-5 -56h-64v-81h-72v81h-237v44zM514 137h154v170z" />
    <glyph glyph-name="questiondown" unicode="&#xbf;" horiz-adv-x="461" 
d="M241 316h68q3 -33 -3 -61.5t-26 -59t-59 -70.5q-46 -46 -67 -83.5t-21 -76.5q0 -61 35 -91t92 -30q50 0 91 22t77 62l8 -105q-34 -25 -81.5 -41.5t-104.5 -16.5q-62 0 -110 24t-75.5 67.5t-27.5 103.5q0 50 25.5 97.5t87.5 105.5q49 47 68.5 81t22.5 72zM227.5 511.5
q17.5 20.5 45.5 20.5t45.5 -20.5t17.5 -50.5t-17.5 -50.5t-45.5 -20.5t-45.5 20.5t-17.5 50.5t17.5 50.5z" />
    <glyph glyph-name="Agrave" unicode="&#xc0;" horiz-adv-x="740" 
d="M316 741h108q144 -370 276 -741h-101q-18 55 -37 110t-39 110h-311q-20 -55 -38.5 -110t-37.5 -110h-96q132 371 276 741zM368 651q-33 -88 -65 -175.5t-63 -175.5h255q-31 88 -63 175.5t-64 175.5zM228 936q11 21 31.5 39.5t46.5 24.5l119 -163l-45 -38z" />
    <glyph glyph-name="Aacute" unicode="&#xc1;" horiz-adv-x="740" 
d="M316 741h108q144 -370 276 -741h-101q-18 55 -37 110t-39 110h-311q-20 -55 -38.5 -110t-37.5 -110h-96q132 371 276 741zM368 651q-33 -88 -65 -175.5t-63 -175.5h255q-31 88 -63 175.5t-64 175.5zM432 1000q26 -6 46.5 -24.5t31.5 -39.5l-152 -137l-45 38z" />
    <glyph glyph-name="Acircumflex" unicode="&#xc2;" horiz-adv-x="740" 
d="M316 741h108q144 -370 276 -741h-101q-18 55 -37 110t-39 110h-311q-20 -55 -38.5 -110t-37.5 -110h-96q132 371 276 741zM368 651q-33 -88 -65 -175.5t-63 -175.5h255q-31 88 -63 175.5t-64 175.5zM323 985h92l116 -148l-50 -37l-112 113l-112 -113l-50 37z" />
    <glyph glyph-name="Atilde" unicode="&#xc3;" horiz-adv-x="740" 
d="M316 741h108q144 -370 276 -741h-101q-18 55 -37 110t-39 110h-311q-20 -55 -38.5 -110t-37.5 -110h-96q132 371 276 741zM368 651q-33 -88 -65 -175.5t-63 -175.5h255q-31 88 -63 175.5t-64 175.5zM479 963l64 -15q0 -59 -27 -92.5t-75 -33.5q-19 0 -39.5 8t-49.5 30
q-22 16 -32 21t-22 5q-38 0 -38 -68l-64 15q0 59 27 92.5t75 33.5q20 0 40.5 -8t48.5 -30q22 -16 32 -21t22 -5q38 0 38 68z" />
    <glyph glyph-name="Adieresis" unicode="&#xc4;" horiz-adv-x="740" 
d="M316 741h108q144 -370 276 -741h-101q-18 55 -37 110t-39 110h-311q-20 -55 -38.5 -110t-37.5 -110h-96q132 371 276 741zM368 651q-33 -88 -65 -175.5t-63 -175.5h255q-31 88 -63 175.5t-64 175.5zM210 876q0 27 17 45.5t42 18.5t42 -18.5t17 -45.5t-17 -45.5t-42 -18.5
t-42 18.5t-17 45.5zM411 876q0 27 17 45.5t42 18.5t42 -18.5t17 -45.5t-17 -45.5t-42 -18.5t-42 18.5t-17 45.5z" />
    <glyph glyph-name="Aring" unicode="&#xc5;" horiz-adv-x="740" 
d="M316 741h108q144 -370 276 -741h-101q-18 55 -37 110t-39 110h-311q-20 -55 -38.5 -110t-37.5 -110h-96q132 371 276 741zM368 651q-33 -88 -65 -175.5t-63 -175.5h255q-31 88 -63 175.5t-64 175.5zM369 778q-49 0 -80.5 29.5t-31.5 73.5q0 45 31.5 74.5t80.5 29.5
t80.5 -29.5t31.5 -74.5q0 -44 -31.5 -73.5t-80.5 -29.5zM369 934q-23 0 -37.5 -15t-14.5 -38t14.5 -37.5t37.5 -14.5t37.5 14.5t14.5 37.5t-14.5 38t-37.5 15z" />
    <glyph glyph-name="AE" unicode="&#xc6;" horiz-adv-x="970" 
d="M464 741h464l-9 -80h-313v-229h254v-80h-254v-272h334v-80h-430v220h-246l-123 -220h-101zM510 659l-201 -359h201v359z" />
    <glyph glyph-name="Ccedilla" unicode="&#xc7;" horiz-adv-x="645" 
d="M221 707q75 47 177 47q59 0 111.5 -14.5t94.5 -40.5l-26 -88q-45 35 -88 49t-87 14q-112 0 -173.5 -81.5t-61.5 -220.5q0 -144 62 -224.5t177 -80.5q52 0 102 15.5t84 48.5l12 -96q-36 -22 -92 -35t-115 -13q-104 0 -179 46t-114.5 131.5t-39.5 204.5t40.5 205t115.5 133
zM352 10h66l-19 -71q49 -3 77.5 -25.5t28.5 -62.5q0 -47 -37.5 -73t-105.5 -26q-22 0 -49 6t-41 14l9 69q29 -26 81 -26q62 0 62 37q0 35 -63 35q-23 0 -43 -5z" />
    <glyph glyph-name="Egrave" unicode="&#xc8;" horiz-adv-x="560" 
d="M100 741h418l-9 -80h-313v-229h254v-80h-254v-272h334v-80h-430v741zM168 936q11 21 31.5 39.5t46.5 24.5l119 -163l-45 -38z" />
    <glyph glyph-name="Eacute" unicode="&#xc9;" horiz-adv-x="560" 
d="M100 741h418l-9 -80h-313v-229h254v-80h-254v-272h334v-80h-430v741zM372 1000q26 -6 46.5 -24.5t31.5 -39.5l-152 -137l-45 38z" />
    <glyph glyph-name="Ecircumflex" unicode="&#xca;" horiz-adv-x="560" 
d="M100 741h418l-9 -80h-313v-229h254v-80h-254v-272h334v-80h-430v741zM263 985h92l116 -148l-50 -37l-112 113l-112 -113l-50 37z" />
    <glyph glyph-name="Edieresis" unicode="&#xcb;" horiz-adv-x="560" 
d="M100 741h418l-9 -80h-313v-229h254v-80h-254v-272h334v-80h-430v741zM150 876q0 27 17 45.5t42 18.5t42 -18.5t17 -45.5t-17 -45.5t-42 -18.5t-42 18.5t-17 45.5zM351 876q0 27 17 45.5t42 18.5t42 -18.5t17 -45.5t-17 -45.5t-42 -18.5t-42 18.5t-17 45.5z" />
    <glyph glyph-name="Igrave" unicode="&#xcc;" horiz-adv-x="296" 
d="M100 741h96v-741h-96v741zM7 936q11 21 31.5 39.5t46.5 24.5l119 -163l-45 -38z" />
    <glyph glyph-name="Iacute" unicode="&#xcd;" horiz-adv-x="296" 
d="M100 741h96v-741h-96v741zM211 1000q26 -6 46.5 -24.5t31.5 -39.5l-152 -137l-45 38z" />
    <glyph glyph-name="Icircumflex" unicode="&#xce;" horiz-adv-x="296" 
d="M100 741h96v-741h-96v741zM102 985h92l116 -148l-50 -37l-112 113l-112 -113l-50 37z" />
    <glyph glyph-name="Idieresis" unicode="&#xcf;" horiz-adv-x="296" 
d="M100 741h96v-741h-96v741zM-11 876q0 27 17 45.5t42 18.5t42 -18.5t17 -45.5t-17 -45.5t-42 -18.5t-42 18.5t-17 45.5zM190 876q0 27 17 45.5t42 18.5t42 -18.5t17 -45.5t-17 -45.5t-42 -18.5t-42 18.5t-17 45.5z" />
    <glyph glyph-name="Eth" unicode="&#xd0;" horiz-adv-x="735" 
d="M100 337h-84v80h84v324h181q128 0 214.5 -47.5t130.5 -131t44 -191.5t-44 -191.5t-130.5 -131.5t-214.5 -48h-181v337zM196 80h85q139 0 212.5 78.5t73.5 211.5q0 134 -73.5 212.5t-212.5 78.5h-85v-244h157v-80h-157v-257z" />
    <glyph glyph-name="Ntilde" unicode="&#xd1;" horiz-adv-x="740" 
d="M100 741h107l344 -563l-1 54v509h90v-741h-79l-372 610l1 -47v-563h-90v741zM480 963l64 -15q0 -59 -27 -92.5t-75 -33.5q-19 0 -39.5 8t-49.5 30q-22 16 -32 21t-22 5q-38 0 -38 -68l-64 15q0 59 27 92.5t75 33.5q20 0 40.5 -8t48.5 -30q22 -16 32 -21t22 -5q38 0 38 68
z" />
    <glyph glyph-name="Ograve" unicode="&#xd2;" horiz-adv-x="770" 
d="M65 379q0 110 36.5 194.5t107.5 132.5t176 48t176.5 -48t107.5 -132.5t36 -194.5q0 -115 -35.5 -203.5t-106.5 -138.5t-178 -50t-178 50t-106.5 138.5t-35.5 203.5zM602 379q0 137 -56 216.5t-161 79.5q-104 0 -160.5 -79.5t-56.5 -216.5q0 -95 25.5 -165.5t74 -109
t117.5 -38.5q70 0 118 38.5t73.5 109t25.5 165.5zM244 936q11 21 31.5 39.5t46.5 24.5l119 -163l-45 -38z" />
    <glyph glyph-name="Oacute" unicode="&#xd3;" horiz-adv-x="770" 
d="M65 379q0 110 36.5 194.5t107.5 132.5t176 48t176.5 -48t107.5 -132.5t36 -194.5q0 -115 -35.5 -203.5t-106.5 -138.5t-178 -50t-178 50t-106.5 138.5t-35.5 203.5zM602 379q0 137 -56 216.5t-161 79.5q-104 0 -160.5 -79.5t-56.5 -216.5q0 -95 25.5 -165.5t74 -109
t117.5 -38.5q70 0 118 38.5t73.5 109t25.5 165.5zM448 1000q26 -6 46.5 -24.5t31.5 -39.5l-152 -137l-45 38z" />
    <glyph glyph-name="Ocircumflex" unicode="&#xd4;" horiz-adv-x="770" 
d="M65 379q0 110 36.5 194.5t107.5 132.5t176 48t176.5 -48t107.5 -132.5t36 -194.5q0 -115 -35.5 -203.5t-106.5 -138.5t-178 -50t-178 50t-106.5 138.5t-35.5 203.5zM602 379q0 137 -56 216.5t-161 79.5q-104 0 -160.5 -79.5t-56.5 -216.5q0 -95 25.5 -165.5t74 -109
t117.5 -38.5q70 0 118 38.5t73.5 109t25.5 165.5zM339 985h92l116 -148l-50 -37l-112 113l-112 -113l-50 37z" />
    <glyph glyph-name="Otilde" unicode="&#xd5;" horiz-adv-x="770" 
d="M65 379q0 110 36.5 194.5t107.5 132.5t176 48t176.5 -48t107.5 -132.5t36 -194.5q0 -115 -35.5 -203.5t-106.5 -138.5t-178 -50t-178 50t-106.5 138.5t-35.5 203.5zM602 379q0 137 -56 216.5t-161 79.5q-104 0 -160.5 -79.5t-56.5 -216.5q0 -95 25.5 -165.5t74 -109
t117.5 -38.5q70 0 118 38.5t73.5 109t25.5 165.5zM495 963l64 -15q0 -59 -27 -92.5t-75 -33.5q-19 0 -39.5 8t-49.5 30q-22 16 -32 21t-22 5q-38 0 -38 -68l-64 15q0 59 27 92.5t75 33.5q20 0 40.5 -8t48.5 -30q22 -16 32 -21t22 -5q38 0 38 68z" />
    <glyph glyph-name="Odieresis" unicode="&#xd6;" horiz-adv-x="770" 
d="M65 379q0 110 36.5 194.5t107.5 132.5t176 48t176.5 -48t107.5 -132.5t36 -194.5q0 -115 -35.5 -203.5t-106.5 -138.5t-178 -50t-178 50t-106.5 138.5t-35.5 203.5zM602 379q0 137 -56 216.5t-161 79.5q-104 0 -160.5 -79.5t-56.5 -216.5q0 -95 25.5 -165.5t74 -109
t117.5 -38.5q70 0 118 38.5t73.5 109t25.5 165.5zM226 876q0 27 17 45.5t42 18.5t42 -18.5t17 -45.5t-17 -45.5t-42 -18.5t-42 18.5t-17 45.5zM427 876q0 27 17 45.5t42 18.5t42 -18.5t17 -45.5t-17 -45.5t-42 -18.5t-42 18.5t-17 45.5z" />
    <glyph glyph-name="multiply" unicode="&#xd7;" 
d="M326 289l-163 -166l-59 59l165 163l-165 163l59 59l163 -166l163 166l58 -59l-164 -163l164 -163l-58 -59z" />
    <glyph glyph-name="Oslash" unicode="&#xd8;" horiz-adv-x="770" 
d="M86.5 215q-21.5 74 -21.5 164q0 110 36.5 194.5t107.5 132.5t176 48q51 0 94 -11.5t78 -33.5l47 73l60 -36l-53 -82q47 -50 70.5 -123t23.5 -162q0 -115 -35.5 -203.5t-106.5 -138.5t-178 -50q-55 0 -100.5 14t-81.5 39l-48 -74l-60 36l56 86q-43 53 -64.5 127zM555 582
l-300 -467q53 -49 130 -49q70 0 118 38.5t73.5 109t25.5 165.5q0 127 -47 203zM506 637q-50 38 -121 38q-104 0 -160.5 -79.5t-56.5 -216.5q0 -124 43 -204z" />
    <glyph glyph-name="Ugrave" unicode="&#xd9;" horiz-adv-x="710" 
d="M527 741h93v-483q0 -127 -69.5 -199t-194.5 -72q-126 0 -196 72t-70 199v483h96v-467q0 -105 42.5 -155.5t126.5 -50.5q86 0 129 48.5t43 141.5v483zM214 936q11 21 31.5 39.5t46.5 24.5l119 -163l-45 -38z" />
    <glyph glyph-name="Uacute" unicode="&#xda;" horiz-adv-x="710" 
d="M527 741h93v-483q0 -127 -69.5 -199t-194.5 -72q-126 0 -196 72t-70 199v483h96v-467q0 -105 42.5 -155.5t126.5 -50.5q86 0 129 48.5t43 141.5v483zM418 1000q26 -6 46.5 -24.5t31.5 -39.5l-152 -137l-45 38z" />
    <glyph glyph-name="Ucircumflex" unicode="&#xdb;" horiz-adv-x="710" 
d="M527 741h93v-483q0 -127 -69.5 -199t-194.5 -72q-126 0 -196 72t-70 199v483h96v-467q0 -105 42.5 -155.5t126.5 -50.5q86 0 129 48.5t43 141.5v483zM309 985h92l116 -148l-50 -37l-112 113l-112 -113l-50 37z" />
    <glyph glyph-name="Udieresis" unicode="&#xdc;" horiz-adv-x="710" 
d="M527 741h93v-483q0 -127 -69.5 -199t-194.5 -72q-126 0 -196 72t-70 199v483h96v-467q0 -105 42.5 -155.5t126.5 -50.5q86 0 129 48.5t43 141.5v483zM196 876q0 27 17 45.5t42 18.5t42 -18.5t17 -45.5t-17 -45.5t-42 -18.5t-42 18.5t-17 45.5zM397 876q0 27 17 45.5
t42 18.5t42 -18.5t17 -45.5t-17 -45.5t-42 -18.5t-42 18.5t-17 45.5z" />
    <glyph glyph-name="Yacute" unicode="&#xdd;" horiz-adv-x="670" 
d="M385 298v-298h-96v299l-259 442h108l203 -360l198 360h101zM400 1000q26 -6 46.5 -24.5t31.5 -39.5l-152 -137l-45 38z" />
    <glyph glyph-name="Thorn" unicode="&#xde;" horiz-adv-x="600" 
d="M100 741h96v-139h82q128 0 205.5 -54t77.5 -162q0 -109 -77.5 -162.5t-205.5 -53.5h-82v-170h-96v741zM460 386q0 69 -47 104t-136 35h-81v-278h81q89 0 136 34.5t47 104.5z" />
    <glyph glyph-name="germandbls" unicode="&#xdf;" horiz-adv-x="632" 
d="M170 0h-90v524q0 89 28 143.5t77 80t113 25.5t107.5 -26.5t66 -70t22.5 -95.5v-28q-53 -25 -84.5 -55.5t-31.5 -70.5q0 -23 17.5 -46t56.5 -52q54 -39 82.5 -69.5t39 -57t10.5 -55.5q0 -76 -56 -118t-143 -42q-45 0 -85.5 11t-69.5 29l11 91q32 -29 70 -43t77 -14
q50 0 78.5 22.5t28.5 59.5q0 16 -8 33t-30 39t-65 53q-58 42 -79 76.5t-21 74.5q0 44 25 81t90 80q-1 53 -33.5 85t-78.5 32q-34 0 -62.5 -16t-45.5 -53t-17 -101v-527z" />
    <glyph glyph-name="agrave" unicode="&#xe0;" horiz-adv-x="540" 
d="M470 94q0 -23 3 -50.5t7 -43.5h-84q-4 11 -7 28.5t-5 35.5q-28 -38 -70.5 -57.5t-91.5 -19.5q-71 0 -117.5 43.5t-46.5 114.5q0 79 64.5 128t191.5 62l66 7q0 57 -34.5 92t-97.5 35q-38 0 -77.5 -13.5t-74.5 -42.5l-10 87q35 21 82.5 33t93.5 12q101 0 154.5 -56.5
t53.5 -156.5v-238zM175 85q25 -24 68 -24q41 0 77.5 21t59.5 58v136l-62 -7q-85 -10 -126.5 -40.5t-41.5 -79.5q0 -40 25 -64zM141 750q10 20 31 37t49 23l109 -176l-44 -33z" />
    <glyph glyph-name="aacute" unicode="&#xe1;" horiz-adv-x="540" 
d="M470 94q0 -23 3 -50.5t7 -43.5h-84q-4 11 -7 28.5t-5 35.5q-28 -38 -70.5 -57.5t-91.5 -19.5q-71 0 -117.5 43.5t-46.5 114.5q0 79 64.5 128t191.5 62l66 7q0 57 -34.5 92t-97.5 35q-38 0 -77.5 -13.5t-74.5 -42.5l-10 87q35 21 82.5 33t93.5 12q101 0 154.5 -56.5
t53.5 -156.5v-238zM175 85q25 -24 68 -24q41 0 77.5 21t59.5 58v136l-62 -7q-85 -10 -126.5 -40.5t-41.5 -79.5q0 -40 25 -64zM316 810q28 -6 49 -23t31 -37l-145 -149l-44 33z" />
    <glyph glyph-name="acircumflex" unicode="&#xe2;" horiz-adv-x="540" 
d="M470 94q0 -23 3 -50.5t7 -43.5h-84q-4 11 -7 28.5t-5 35.5q-28 -38 -70.5 -57.5t-91.5 -19.5q-71 0 -117.5 43.5t-46.5 114.5q0 79 64.5 128t191.5 62l66 7q0 57 -34.5 92t-97.5 35q-38 0 -77.5 -13.5t-74.5 -42.5l-10 87q35 21 82.5 33t93.5 12q101 0 154.5 -56.5
t53.5 -156.5v-238zM175 85q25 -24 68 -24q41 0 77.5 21t59.5 58v136l-62 -7q-85 -10 -126.5 -40.5t-41.5 -79.5q0 -40 25 -64zM226 798h84l125 -163l-47 -35l-120 125l-120 -125l-47 35z" />
    <glyph glyph-name="atilde" unicode="&#xe3;" horiz-adv-x="540" 
d="M470 94q0 -23 3 -50.5t7 -43.5h-84q-4 11 -7 28.5t-5 35.5q-28 -38 -70.5 -57.5t-91.5 -19.5q-71 0 -117.5 43.5t-46.5 114.5q0 79 64.5 128t191.5 62l66 7q0 57 -34.5 92t-97.5 35q-38 0 -77.5 -13.5t-74.5 -42.5l-10 87q35 21 82.5 33t93.5 12q101 0 154.5 -56.5
t53.5 -156.5v-238zM175 85q25 -24 68 -24q41 0 77.5 21t59.5 58v136l-62 -7q-85 -10 -126.5 -40.5t-41.5 -79.5q0 -40 25 -64zM376 761l62 -15q0 -59 -26.5 -92.5t-74.5 -33.5q-19 0 -39 8.5t-47 30.5q-20 17 -30 22t-21 5q-39 0 -39 -70l-62 15q0 59 26.5 92.5t74.5 33.5
q20 0 39.5 -8t46.5 -31q20 -17 30.5 -22t20.5 -5q39 0 39 70z" />
    <glyph glyph-name="adieresis" unicode="&#xe4;" horiz-adv-x="540" 
d="M470 94q0 -23 3 -50.5t7 -43.5h-84q-4 11 -7 28.5t-5 35.5q-28 -38 -70.5 -57.5t-91.5 -19.5q-71 0 -117.5 43.5t-46.5 114.5q0 79 64.5 128t191.5 62l66 7q0 57 -34.5 92t-97.5 35q-38 0 -77.5 -13.5t-74.5 -42.5l-10 87q35 21 82.5 33t93.5 12q101 0 154.5 -56.5
t53.5 -156.5v-238zM175 85q25 -24 68 -24q41 0 77.5 21t59.5 58v136l-62 -7q-85 -10 -126.5 -40.5t-41.5 -79.5q0 -40 25 -64zM115 687q0 26 17 44.5t41 18.5t41 -18.5t17 -44.5t-17 -44.5t-41 -18.5t-41 18.5t-17 44.5zM306 687q0 26 17 44.5t41 18.5t41 -18.5t17 -44.5
t-17 -44.5t-41 -18.5t-41 18.5t-17 44.5z" />
    <glyph glyph-name="aring" unicode="&#xe5;" horiz-adv-x="540" 
d="M470 94q0 -23 3 -50.5t7 -43.5h-84q-4 11 -7 28.5t-5 35.5q-28 -38 -70.5 -57.5t-91.5 -19.5q-71 0 -117.5 43.5t-46.5 114.5q0 79 64.5 128t191.5 62l66 7q0 57 -34.5 92t-97.5 35q-38 0 -77.5 -13.5t-74.5 -42.5l-10 87q35 21 82.5 33t93.5 12q101 0 154.5 -56.5
t53.5 -156.5v-238zM175 85q25 -24 68 -24q41 0 77.5 21t59.5 58v136l-62 -7q-85 -10 -126.5 -40.5t-41.5 -79.5q0 -40 25 -64zM268 607q-48 0 -80 29t-32 74q0 46 32 75t80 29t80 -29t32 -75q0 -45 -32 -74t-80 -29zM268 763q-23 0 -37.5 -15t-14.5 -38t14.5 -37.5
t37.5 -14.5q24 0 38 15t14 37q0 23 -14.5 38t-37.5 15z" />
    <glyph glyph-name="ae" unicode="&#xe6;" horiz-adv-x="875" 
d="M58 141q0 78 65 127t191 55l66 3v15q0 58 -34 93t-98 35q-38 0 -77.5 -13.5t-74.5 -42.5l-10 87q35 21 82.5 33t93.5 12q61 0 103.5 -23t66.5 -66q30 42 76.5 65.5t106.5 23.5q95 0 150 -62t55 -180q0 -6 -0.5 -21.5t-1.5 -24.5h-347q6 -97 57.5 -145.5t129.5 -48.5
q37 0 78.5 11.5t69.5 36.5l10 -89q-29 -16 -73 -25.5t-96 -9.5q-73 0 -129 28t-90 80q-42 -57 -92.5 -82.5t-104.5 -25.5q-82 0 -127.5 43.5t-45.5 110.5zM396 161q-14 46 -16 100l-62 -3q-84 -4 -126 -34t-42 -78q0 -38 25 -61.5t68 -23.5q45 0 87 27t66 73zM612 477
q-58 0 -94 -40t-45 -112h258q0 75 -31.5 113.5t-87.5 38.5z" />
    <glyph glyph-name="ccedilla" unicode="&#xe7;" horiz-adv-x="497" 
d="M57 265q0 84 31.5 147t87.5 98t131 35q44 0 83.5 -11t66.5 -29l-26 -81q-27 23 -57 34t-62 11q-74 0 -117.5 -54t-43.5 -148q0 -96 45 -150t124 -54q32 0 67.5 11.5t59.5 36.5l10 -89q-26 -16 -64 -25.5t-84 -9.5q-119 0 -185.5 74.5t-66.5 203.5zM266 10h64l-19 -72
q52 -3 78 -26.5t26 -60.5q0 -48 -36 -73.5t-104 -25.5q-22 0 -48.5 6t-40.5 14l8 67q29 -26 81 -26q34 0 49 9t15 30q0 37 -63 37q-21 0 -43 -5z" />
    <glyph glyph-name="egrave" unicode="&#xe8;" horiz-adv-x="552" 
d="M483 111l10 -89q-29 -16 -73 -25.5t-96 -9.5q-81 0 -141 35t-93 99t-33 151q0 81 28 142.5t81 96t126 34.5q95 0 150 -62t55 -180q0 -6 -0.5 -21.5t-1.5 -24.5h-347q6 -97 57.5 -145.5t129.5 -48.5q37 0 78.5 11.5t69.5 36.5zM289 477q-58 0 -94 -40t-45 -112h258
q0 75 -31.5 113.5t-87.5 38.5zM158 750q10 20 31 37t49 23l109 -176l-44 -33z" />
    <glyph glyph-name="eacute" unicode="&#xe9;" horiz-adv-x="552" 
d="M483 111l10 -89q-29 -16 -73 -25.5t-96 -9.5q-81 0 -141 35t-93 99t-33 151q0 81 28 142.5t81 96t126 34.5q95 0 150 -62t55 -180q0 -6 -0.5 -21.5t-1.5 -24.5h-347q6 -97 57.5 -145.5t129.5 -48.5q37 0 78.5 11.5t69.5 36.5zM289 477q-58 0 -94 -40t-45 -112h258
q0 75 -31.5 113.5t-87.5 38.5zM333 810q28 -6 49 -23t31 -37l-145 -149l-44 33z" />
    <glyph glyph-name="ecircumflex" unicode="&#xea;" horiz-adv-x="552" 
d="M483 111l10 -89q-29 -16 -73 -25.5t-96 -9.5q-81 0 -141 35t-93 99t-33 151q0 81 28 142.5t81 96t126 34.5q95 0 150 -62t55 -180q0 -6 -0.5 -21.5t-1.5 -24.5h-347q6 -97 57.5 -145.5t129.5 -48.5q37 0 78.5 11.5t69.5 36.5zM289 477q-58 0 -94 -40t-45 -112h258
q0 75 -31.5 113.5t-87.5 38.5zM243 798h84l125 -163l-47 -35l-120 125l-120 -125l-47 35z" />
    <glyph glyph-name="edieresis" unicode="&#xeb;" horiz-adv-x="552" 
d="M483 111l10 -89q-29 -16 -73 -25.5t-96 -9.5q-81 0 -141 35t-93 99t-33 151q0 81 28 142.5t81 96t126 34.5q95 0 150 -62t55 -180q0 -6 -0.5 -21.5t-1.5 -24.5h-347q6 -97 57.5 -145.5t129.5 -48.5q37 0 78.5 11.5t69.5 36.5zM289 477q-58 0 -94 -40t-45 -112h258
q0 75 -31.5 113.5t-87.5 38.5zM132 687q0 26 17 44.5t41 18.5t41 -18.5t17 -44.5t-17 -44.5t-41 -18.5t-41 18.5t-17 44.5zM323 687q0 26 17 44.5t41 18.5t41 -18.5t17 -44.5t-17 -44.5t-41 -18.5t-41 18.5t-17 44.5z" />
    <glyph glyph-name="igrave" unicode="&#xec;" horiz-adv-x="250" 
d="M80 532h90v-532h-90v532zM-2 750q10 20 31 37t49 23l109 -176l-44 -33z" />
    <glyph glyph-name="iacute" unicode="&#xed;" horiz-adv-x="250" 
d="M80 532h90v-532h-90v532zM173 810q28 -6 49 -23t31 -37l-145 -149l-44 33z" />
    <glyph glyph-name="icircumflex" unicode="&#xee;" horiz-adv-x="250" 
d="M80 532h90v-532h-90v532zM83 798h84l125 -163l-47 -35l-120 125l-120 -125l-47 35z" />
    <glyph glyph-name="idieresis" unicode="&#xef;" horiz-adv-x="250" 
d="M80 532h90v-532h-90v532zM-28 687q0 26 17 44.5t41 18.5t41 -18.5t17 -44.5t-17 -44.5t-41 -18.5t-41 18.5t-17 44.5zM163 687q0 26 17 44.5t41 18.5t41 -18.5t17 -44.5t-17 -44.5t-41 -18.5t-41 18.5t-17 44.5z" />
    <glyph glyph-name="eth" unicode="&#xf0;" horiz-adv-x="609" 
d="M295 -13q-110 0 -174 68t-64 185q0 78 27.5 136t76 90t112.5 32q51 0 94.5 -18.5t77.5 -58.5q-37 124 -116 201l-105 -88l-38 48l95 79q-52 38 -124 66l65 57q66 -26 123 -70l92 77l38 -48l-84 -70q71 -71 112 -168.5t41 -212.5q0 -148 -64.5 -226.5t-184.5 -78.5z
M456 327q-35 48 -76.5 71.5t-87.5 23.5q-64 0 -103.5 -48.5t-39.5 -131.5q0 -82 40.5 -131.5t107.5 -49.5q79 0 119 55t40 175v18v18z" />
    <glyph glyph-name="ntilde" unicode="&#xf1;" horiz-adv-x="580" 
d="M80 532h87v-74q29 45 73 66t93 21q79 0 128 -51t49 -146v-348h-90v345q0 57 -29.5 90.5t-79.5 33.5q-45 0 -83.5 -27t-57.5 -70v-372h-90v532zM414 761l62 -15q0 -59 -26.5 -92.5t-74.5 -33.5q-19 0 -39 8.5t-47 30.5q-20 17 -30 22t-21 5q-39 0 -39 -70l-62 15
q0 59 26.5 92.5t74.5 33.5q20 0 39.5 -8t46.5 -31q20 -17 30.5 -22t20.5 -5q39 0 39 70z" />
    <glyph glyph-name="ograve" unicode="&#xf2;" horiz-adv-x="604" 
d="M57 273q0 80 27.5 141.5t82 96t135.5 34.5q82 0 136 -34.5t81.5 -96t27.5 -141.5q0 -84 -26.5 -148.5t-81 -101t-137.5 -36.5q-82 0 -136.5 36.5t-81.5 101t-27 148.5zM453 273q0 91 -38.5 144.5t-112.5 53.5t-112.5 -53.5t-38.5 -144.5q0 -97 39 -154.5t112 -57.5
q74 0 112.5 57.5t38.5 154.5zM175 750q10 20 31 37t49 23l109 -176l-44 -33z" />
    <glyph glyph-name="oacute" unicode="&#xf3;" horiz-adv-x="604" 
d="M57 273q0 80 27.5 141.5t82 96t135.5 34.5q82 0 136 -34.5t81.5 -96t27.5 -141.5q0 -84 -26.5 -148.5t-81 -101t-137.5 -36.5q-82 0 -136.5 36.5t-81.5 101t-27 148.5zM453 273q0 91 -38.5 144.5t-112.5 53.5t-112.5 -53.5t-38.5 -144.5q0 -97 39 -154.5t112 -57.5
q74 0 112.5 57.5t38.5 154.5zM350 810q28 -6 49 -23t31 -37l-145 -149l-44 33z" />
    <glyph glyph-name="ocircumflex" unicode="&#xf4;" horiz-adv-x="604" 
d="M57 273q0 80 27.5 141.5t82 96t135.5 34.5q82 0 136 -34.5t81.5 -96t27.5 -141.5q0 -84 -26.5 -148.5t-81 -101t-137.5 -36.5q-82 0 -136.5 36.5t-81.5 101t-27 148.5zM453 273q0 91 -38.5 144.5t-112.5 53.5t-112.5 -53.5t-38.5 -144.5q0 -97 39 -154.5t112 -57.5
q74 0 112.5 57.5t38.5 154.5zM260 798h84l125 -163l-47 -35l-120 125l-120 -125l-47 35z" />
    <glyph glyph-name="otilde" unicode="&#xf5;" horiz-adv-x="604" 
d="M57 273q0 80 27.5 141.5t82 96t135.5 34.5q82 0 136 -34.5t81.5 -96t27.5 -141.5q0 -84 -26.5 -148.5t-81 -101t-137.5 -36.5q-82 0 -136.5 36.5t-81.5 101t-27 148.5zM453 273q0 91 -38.5 144.5t-112.5 53.5t-112.5 -53.5t-38.5 -144.5q0 -97 39 -154.5t112 -57.5
q74 0 112.5 57.5t38.5 154.5zM410 761l62 -15q0 -59 -26.5 -92.5t-74.5 -33.5q-19 0 -39 8.5t-47 30.5q-20 17 -30 22t-21 5q-39 0 -39 -70l-62 15q0 59 26.5 92.5t74.5 33.5q20 0 39.5 -8t46.5 -31q20 -17 30.5 -22t20.5 -5q39 0 39 70z" />
    <glyph glyph-name="odieresis" unicode="&#xf6;" horiz-adv-x="604" 
d="M57 273q0 80 27.5 141.5t82 96t135.5 34.5q82 0 136 -34.5t81.5 -96t27.5 -141.5q0 -84 -26.5 -148.5t-81 -101t-137.5 -36.5q-82 0 -136.5 36.5t-81.5 101t-27 148.5zM453 273q0 91 -38.5 144.5t-112.5 53.5t-112.5 -53.5t-38.5 -144.5q0 -97 39 -154.5t112 -57.5
q74 0 112.5 57.5t38.5 154.5zM149 687q0 26 17 44.5t41 18.5t41 -18.5t17 -44.5t-17 -44.5t-41 -18.5t-41 18.5t-17 44.5zM340 687q0 26 17 44.5t41 18.5t41 -18.5t17 -44.5t-17 -44.5t-41 -18.5t-41 18.5t-17 44.5z" />
    <glyph glyph-name="divide" unicode="&#xf7;" 
d="M563 306h-476v78h476v-78zM275 196.5q20 21.5 50 21.5t49.5 -21.5t19.5 -52.5t-19.5 -52t-49.5 -21t-50 21t-20 52t20 52.5zM275 597q20 21 50 21t49.5 -21t19.5 -52t-19.5 -52.5t-49.5 -21.5t-50 21.5t-20 52.5t20 52z" />
    <glyph glyph-name="oslash" unicode="&#xf8;" horiz-adv-x="604" 
d="M74 150.5q-17 55.5 -17 122.5q0 80 27.5 141.5t82 96t135.5 34.5q72 0 125 -29l44 68l55 -33l-48 -74q34 -36 51.5 -88t17.5 -116q0 -84 -26.5 -148.5t-81 -101t-137.5 -36.5q-73 0 -126 30l-45 -68l-53 36l48 72q-35 38 -52 93.5zM222 85q34 -24 80 -24q74 0 112.5 57.5
t38.5 154.5q0 77 -27 127zM151 273q0 -83 28 -137l203 313q-34 22 -80 22q-74 0 -112.5 -53.5t-38.5 -144.5z" />
    <glyph glyph-name="ugrave" unicode="&#xf9;" horiz-adv-x="578" 
d="M408 532h90v-532h-87v74q-30 -47 -74.5 -67t-91.5 -20q-78 0 -126.5 51t-48.5 146v348h90v-345q0 -57 29 -90.5t79 -33.5q45 0 83 27t57 70v372zM157 750q10 20 31 37t49 23l109 -176l-44 -33z" />
    <glyph glyph-name="uacute" unicode="&#xfa;" horiz-adv-x="578" 
d="M408 532h90v-532h-87v74q-30 -47 -74.5 -67t-91.5 -20q-78 0 -126.5 51t-48.5 146v348h90v-345q0 -57 29 -90.5t79 -33.5q45 0 83 27t57 70v372zM332 810q28 -6 49 -23t31 -37l-145 -149l-44 33z" />
    <glyph glyph-name="ucircumflex" unicode="&#xfb;" horiz-adv-x="578" 
d="M408 532h90v-532h-87v74q-30 -47 -74.5 -67t-91.5 -20q-78 0 -126.5 51t-48.5 146v348h90v-345q0 -57 29 -90.5t79 -33.5q45 0 83 27t57 70v372zM242 798h84l125 -163l-47 -35l-120 125l-120 -125l-47 35z" />
    <glyph glyph-name="udieresis" unicode="&#xfc;" horiz-adv-x="578" 
d="M408 532h90v-532h-87v74q-30 -47 -74.5 -67t-91.5 -20q-78 0 -126.5 51t-48.5 146v348h90v-345q0 -57 29 -90.5t79 -33.5q45 0 83 27t57 70v372zM131 687q0 26 17 44.5t41 18.5t41 -18.5t17 -44.5t-17 -44.5t-41 -18.5t-41 18.5t-17 44.5zM322 687q0 26 17 44.5t41 18.5
t41 -18.5t17 -44.5t-17 -44.5t-41 -18.5t-41 18.5t-17 44.5z" />
    <glyph glyph-name="yacute" unicode="&#xfd;" horiz-adv-x="540" 
d="M307 0q-34 -83 -66.5 -133.5t-71 -73.5t-93.5 -23q-28 0 -48.5 5t-37.5 13l8 81q17 -11 35 -17t40 -6q48 0 81.5 34t61.5 109l11 30q-54 128 -106 256.5t-101 256.5h95q38 -104 77 -207.5t81 -207.5q41 104 80 208t77 207h90q-51 -133 -104 -265.5t-109 -266.5zM318 810
q28 -6 49 -23t31 -37l-145 -149l-44 33z" />
    <glyph glyph-name="thorn" unicode="&#xfe;" horiz-adv-x="607" 
d="M80 760h90v-295q26 37 67.5 58.5t92.5 21.5q102 0 161 -75t59 -204t-59 -204t-162 -75q-50 0 -91.5 21t-67.5 58v-283h-90v977zM312 471q-47 0 -85 -26.5t-57 -72.5v-213q19 -45 57 -71.5t86 -26.5q68 0 105.5 55.5t37.5 149.5t-38 149.5t-106 55.5z" />
    <glyph glyph-name="ydieresis" unicode="&#xff;" horiz-adv-x="540" 
d="M307 0q-34 -83 -66.5 -133.5t-71 -73.5t-93.5 -23q-28 0 -48.5 5t-37.5 13l8 81q17 -11 35 -17t40 -6q48 0 81.5 34t61.5 109l11 30q-54 128 -106 256.5t-101 256.5h95q38 -104 77 -207.5t81 -207.5q41 104 80 208t77 207h90q-51 -133 -104 -265.5t-109 -266.5zM117 687
q0 26 17 44.5t41 18.5t41 -18.5t17 -44.5t-17 -44.5t-41 -18.5t-41 18.5t-17 44.5zM308 687q0 26 17 44.5t41 18.5t41 -18.5t17 -44.5t-17 -44.5t-41 -18.5t-41 18.5t-17 44.5z" />
    <glyph glyph-name="Amacron" unicode="&#x100;" horiz-adv-x="740" 
d="M316 741h108q144 -370 276 -741h-101q-18 55 -37 110t-39 110h-311q-20 -55 -38.5 -110t-37.5 -110h-96q132 371 276 741zM368 651q-33 -88 -65 -175.5t-63 -175.5h255q-31 88 -63 175.5t-64 175.5zM222 912h294v-72h-294v72z" />
    <glyph glyph-name="amacron" unicode="&#x101;" horiz-adv-x="540" 
d="M470 94q0 -23 3 -50.5t7 -43.5h-84q-4 11 -7 28.5t-5 35.5q-28 -38 -70.5 -57.5t-91.5 -19.5q-71 0 -117.5 43.5t-46.5 114.5q0 79 64.5 128t191.5 62l66 7q0 57 -34.5 92t-97.5 35q-38 0 -77.5 -13.5t-74.5 -42.5l-10 87q35 21 82.5 33t93.5 12q101 0 154.5 -56.5
t53.5 -156.5v-238zM175 85q25 -24 68 -24q41 0 77.5 21t59.5 58v136l-62 -7q-85 -10 -126.5 -40.5t-41.5 -79.5q0 -40 25 -64zM131 722h274v-70h-274v70z" />
    <glyph glyph-name="Abreve" unicode="&#x102;" horiz-adv-x="740" 
d="M316 741h108q144 -370 276 -741h-101q-18 55 -37 110t-39 110h-311q-20 -55 -38.5 -110t-37.5 -110h-96q132 371 276 741zM368 651q-33 -88 -65 -175.5t-63 -175.5h255q-31 88 -63 175.5t-64 175.5zM369 867q82 0 82 93h71q5 -71 -36 -113t-117 -42t-117 42t-36 113h71
q0 -93 82 -93z" />
    <glyph glyph-name="abreve" unicode="&#x103;" horiz-adv-x="540" 
d="M470 94q0 -23 3 -50.5t7 -43.5h-84q-4 11 -7 28.5t-5 35.5q-28 -38 -70.5 -57.5t-91.5 -19.5q-71 0 -117.5 43.5t-46.5 114.5q0 79 64.5 128t191.5 62l66 7q0 57 -34.5 92t-97.5 35q-38 0 -77.5 -13.5t-74.5 -42.5l-10 87q35 21 82.5 33t93.5 12q101 0 154.5 -56.5
t53.5 -156.5v-238zM175 85q25 -24 68 -24q41 0 77.5 21t59.5 58v136l-62 -7q-85 -10 -126.5 -40.5t-41.5 -79.5q0 -40 25 -64zM268 674q87 0 87 92h63q0 -74 -39 -114.5t-111 -40.5t-111 40.5t-39 114.5h63q0 -92 87 -92z" />
    <glyph glyph-name="Aogonek" unicode="&#x104;" horiz-adv-x="740" 
d="M316 741h108q144 -370 276 -741h-101q-18 55 -37 110t-39 110h-311q-20 -55 -38.5 -110t-37.5 -110h-96q132 371 276 741zM368 651q-33 -88 -65 -175.5t-63 -175.5h255q-31 88 -63 175.5t-64 175.5zM635 14l65 -14q-95 -71 -95 -122q0 -33 37 -33q23 0 47 18l8 -70
q-16 -8 -36 -13t-36 -5q-49 0 -75.5 23t-26.5 66q0 37 30 77.5t82 72.5z" />
    <glyph glyph-name="aogonek" unicode="&#x105;" horiz-adv-x="540" 
d="M470 94q0 -23 3 -50.5t7 -43.5h-84q-4 11 -7 28.5t-5 35.5q-28 -38 -70.5 -57.5t-91.5 -19.5q-71 0 -117.5 43.5t-46.5 114.5q0 79 64.5 128t191.5 62l66 7q0 57 -34.5 92t-97.5 35q-38 0 -77.5 -13.5t-74.5 -42.5l-10 87q35 21 82.5 33t93.5 12q101 0 154.5 -56.5
t53.5 -156.5v-238zM175 85q25 -24 68 -24q41 0 77.5 21t59.5 58v136l-62 -7q-85 -10 -126.5 -40.5t-41.5 -79.5q0 -40 25 -64zM417 14l63 -14q-52 -40 -75.5 -69t-23.5 -58q0 -16 11 -23.5t27 -7.5q27 0 48 18l8 -68q-32 -17 -75 -17q-46 0 -71.5 22t-25.5 60q0 40 31 82
t83 75z" />
    <glyph glyph-name="Cacute" unicode="&#x106;" horiz-adv-x="645" 
d="M221 707q75 47 177 47q59 0 111.5 -14.5t94.5 -40.5l-26 -88q-45 35 -88 49t-87 14q-112 0 -173.5 -81.5t-61.5 -220.5q0 -144 62 -224.5t177 -80.5q52 0 102 15.5t84 48.5l12 -96q-36 -22 -92 -35t-115 -13q-104 0 -179 46t-114.5 131.5t-39.5 204.5t40.5 205t115.5 133
zM446 1000q26 -6 46.5 -24.5t31.5 -39.5l-152 -137l-45 38z" />
    <glyph glyph-name="cacute" unicode="&#x107;" horiz-adv-x="497" 
d="M57 265q0 84 31.5 147t87.5 98t131 35q44 0 83.5 -11t66.5 -29l-26 -81q-27 23 -57 34t-62 11q-74 0 -117.5 -54t-43.5 -148q0 -96 45 -150t124 -54q32 0 67.5 11.5t59.5 36.5l10 -89q-26 -16 -64 -25.5t-84 -9.5q-119 0 -185.5 74.5t-66.5 203.5zM347 810q28 -6 49 -23
t31 -37l-145 -149l-44 33z" />
    <glyph glyph-name="Cdotaccent" unicode="&#x10a;" horiz-adv-x="645" 
d="M221 707q75 47 177 47q59 0 111.5 -14.5t94.5 -40.5l-26 -88q-45 35 -88 49t-87 14q-112 0 -173.5 -81.5t-61.5 -220.5q0 -144 62 -224.5t177 -80.5q52 0 102 15.5t84 48.5l12 -96q-36 -22 -92 -35t-115 -13q-104 0 -179 46t-114.5 131.5t-39.5 204.5t40.5 205t115.5 133
zM322 876q0 28 17.5 46t43.5 18t43.5 -18t17.5 -46t-17.5 -46t-43.5 -18t-43.5 18.5t-17.5 45.5z" />
    <glyph glyph-name="cdotaccent" unicode="&#x10b;" horiz-adv-x="497" 
d="M57 265q0 84 31.5 147t87.5 98t131 35q44 0 83.5 -11t66.5 -29l-26 -81q-27 23 -57 34t-62 11q-74 0 -117.5 -54t-43.5 -148q0 -96 45 -150t124 -54q32 0 67.5 11.5t59.5 36.5l10 -89q-26 -16 -64 -25.5t-84 -9.5q-119 0 -185.5 74.5t-66.5 203.5zM240 688q0 27 17 45.5
t42 18.5t42 -18.5t17 -45.5t-17 -45.5t-42 -18.5t-42 18.5t-17 45.5z" />
    <glyph glyph-name="Ccaron" unicode="&#x10c;" horiz-adv-x="645" 
d="M221 707q75 47 177 47q59 0 111.5 -14.5t94.5 -40.5l-26 -88q-45 35 -88 49t-87 14q-112 0 -173.5 -81.5t-61.5 -220.5q0 -144 62 -224.5t177 -80.5q52 0 102 15.5t84 48.5l12 -96q-36 -22 -92 -35t-115 -13q-104 0 -179 46t-114.5 131.5t-39.5 204.5t40.5 205t115.5 133
zM221 970l50 37l112 -113l112 113l50 -37l-116 -148h-92z" />
    <glyph glyph-name="ccaron" unicode="&#x10d;" horiz-adv-x="497" 
d="M57 265q0 84 31.5 147t87.5 98t131 35q44 0 83.5 -11t66.5 -29l-26 -81q-27 23 -57 34t-62 11q-74 0 -117.5 -54t-43.5 -148q0 -96 45 -150t124 -54q32 0 67.5 11.5t59.5 36.5l10 -89q-26 -16 -64 -25.5t-84 -9.5q-119 0 -185.5 74.5t-66.5 203.5zM131 778l47 35
l120 -126l120 126l47 -35l-125 -163h-84z" />
    <glyph glyph-name="Dcaron" unicode="&#x10e;" horiz-adv-x="730" 
d="M100 741h181q128 0 214.5 -47.5t130.5 -131t44 -191.5t-44 -191.5t-130.5 -131.5t-214.5 -48h-181v741zM196 661v-581h85q139 0 212.5 78.5t73.5 211.5q0 134 -73.5 212.5t-212.5 78.5h-85zM195 970l50 37l112 -113l112 113l50 -37l-116 -148h-92z" />
    <glyph glyph-name="dcaron" unicode="&#x10f;" horiz-adv-x="667" 
d="M527 0h-87v71q-25 -39 -67.5 -61.5t-95.5 -22.5q-102 0 -161 75t-59 204t59 204t162 75q50 0 91.5 -21t67.5 -58v294h90v-760zM380 87.5q38 26.5 57 72.5v213q-19 45 -57 71.5t-86 26.5q-67 0 -105 -55.5t-38 -149.5t38 -149.5t106 -55.5q47 0 85 26.5zM602 760
q11 4 21.5 6t23.5 2q12 0 23 -2t22 -6l-49 -230h-53z" />
    <glyph glyph-name="Dcroat" unicode="&#x110;" horiz-adv-x="735" 
d="M100 337h-84v80h84v324h181q128 0 214.5 -47.5t130.5 -131t44 -191.5t-44 -191.5t-130.5 -131.5t-214.5 -48h-181v337zM196 80h85q139 0 212.5 78.5t73.5 211.5q0 134 -73.5 212.5t-212.5 78.5h-85v-244h157v-80h-157v-257z" />
    <glyph glyph-name="dcroat" unicode="&#x111;" horiz-adv-x="607" 
d="M527 0h-87v71q-25 -39 -67.5 -61.5t-95.5 -22.5q-68 0 -117.5 33.5t-76 95t-26.5 143.5q0 128 59 200.5t162 72.5q50 0 91.5 -21t67.5 -58v160h-165v62h165v85h90v-85h75v-62h-75v-613zM380 431.5q-38 26.5 -86 26.5q-67 0 -105 -53.5t-38 -145.5q0 -88 38 -143t106 -55
q47 0 85 26.5t57 72.5v200q-19 45 -57 71.5z" />
    <glyph glyph-name="Emacron" unicode="&#x112;" horiz-adv-x="560" 
d="M100 741h418l-9 -80h-313v-229h254v-80h-254v-272h334v-80h-430v741zM162 912h294v-72h-294v72z" />
    <glyph glyph-name="emacron" unicode="&#x113;" horiz-adv-x="552" 
d="M483 111l10 -89q-29 -16 -73 -25.5t-96 -9.5q-81 0 -141 35t-93 99t-33 151q0 81 28 142.5t81 96t126 34.5q95 0 150 -62t55 -180q0 -6 -0.5 -21.5t-1.5 -24.5h-347q6 -97 57.5 -145.5t129.5 -48.5q37 0 78.5 11.5t69.5 36.5zM289 477q-58 0 -94 -40t-45 -112h258
q0 75 -31.5 113.5t-87.5 38.5zM148 722h274v-70h-274v70z" />
    <glyph glyph-name="Edotaccent" unicode="&#x116;" horiz-adv-x="560" 
d="M100 741h418l-9 -80h-313v-229h254v-80h-254v-272h334v-80h-430v741zM248 876q0 28 17.5 46t43.5 18t43.5 -18t17.5 -46t-17.5 -46t-43.5 -18t-43.5 18.5t-17.5 45.5z" />
    <glyph glyph-name="edotaccent" unicode="&#x117;" horiz-adv-x="552" 
d="M483 111l10 -89q-29 -16 -73 -25.5t-96 -9.5q-81 0 -141 35t-93 99t-33 151q0 81 28 142.5t81 96t126 34.5q95 0 150 -62t55 -180q0 -6 -0.5 -21.5t-1.5 -24.5h-347q6 -97 57.5 -145.5t129.5 -48.5q37 0 78.5 11.5t69.5 36.5zM289 477q-58 0 -94 -40t-45 -112h258
q0 75 -31.5 113.5t-87.5 38.5zM226 688q0 27 17 45.5t42 18.5t42 -18.5t17 -45.5t-17 -45.5t-42 -18.5t-42 18.5t-17 45.5z" />
    <glyph glyph-name="Eogonek" unicode="&#x118;" horiz-adv-x="560" 
d="M100 741h418l-9 -80h-313v-229h254v-80h-254v-272h334v-80h-430v741zM465 14l65 -14q-95 -71 -95 -122q0 -33 37 -33q23 0 47 18l8 -70q-16 -8 -36 -13t-36 -5q-49 0 -75.5 23t-26.5 66q0 37 30 77.5t82 72.5z" />
    <glyph glyph-name="eogonek" unicode="&#x119;" horiz-adv-x="552" 
d="M483 111l10 -89q-29 -16 -73 -25.5t-96 -9.5q-81 0 -141 35t-93 99t-33 151q0 81 28 142.5t81 96t126 34.5q95 0 150 -62t55 -180q0 -6 -0.5 -21.5t-1.5 -24.5h-347q6 -97 57.5 -145.5t129.5 -48.5q37 0 78.5 11.5t69.5 36.5zM289 477q-58 0 -94 -40t-45 -112h258
q0 75 -31.5 113.5t-87.5 38.5zM409 14l84 8q-59 -46 -87 -81.5t-28 -67.5q0 -31 36 -31q28 0 50 18l8 -68q-13 -7 -34.5 -12t-40.5 -5q-46 0 -71.5 21.5t-25.5 61.5q0 38 29 80t80 76z" />
    <glyph glyph-name="Ecaron" unicode="&#x11a;" horiz-adv-x="560" 
d="M100 741h418l-9 -80h-313v-229h254v-80h-254v-272h334v-80h-430v741zM147 970l50 37l112 -113l112 113l50 -37l-116 -148h-92z" />
    <glyph glyph-name="ecaron" unicode="&#x11b;" horiz-adv-x="552" 
d="M483 111l10 -89q-29 -16 -73 -25.5t-96 -9.5q-81 0 -141 35t-93 99t-33 151q0 81 28 142.5t81 96t126 34.5q95 0 150 -62t55 -180q0 -6 -0.5 -21.5t-1.5 -24.5h-347q6 -97 57.5 -145.5t129.5 -48.5q37 0 78.5 11.5t69.5 36.5zM289 477q-58 0 -94 -40t-45 -112h258
q0 75 -31.5 113.5t-87.5 38.5zM117 778l47 35l120 -126l120 126l47 -35l-125 -163h-84z" />
    <glyph glyph-name="Gbreve" unicode="&#x11e;" horiz-adv-x="705" 
d="M635 53q-39 -29 -100 -47.5t-131 -18.5q-106 0 -182 45.5t-116.5 131.5t-40.5 206q0 119 41.5 205t119 132.5t184.5 46.5q62 0 116.5 -14.5t100.5 -40.5l-27 -88q-47 35 -93 49t-93 14q-79 0 -134 -37.5t-83.5 -105.5t-28.5 -161q0 -145 64 -224t181 -79q73 0 126 28v223
h-171v80h267v-345zM389 867q82 0 82 93h71q5 -71 -36 -113t-117 -42t-117 42t-36 113h71q0 -93 82 -93z" />
    <glyph glyph-name="gbreve" unicode="&#x11f;" horiz-adv-x="597" 
d="M527 65q0 -142 -65 -218.5t-199 -76.5q-43 0 -86 9.5t-84 31.5l9 91q38 -31 78 -43.5t80 -12.5q89 0 133 48.5t44 136.5v35q-26 -37 -67.5 -58t-91.5 -21q-103 0 -162 75t-59 204t59 204t161 75q53 0 95.5 -22.5t67.5 -61.5v71h87v-467zM295 471q-68 0 -106 -55.5
t-38 -149.5t38 -149.5t105 -55.5q48 0 86 26.5t57 71.5v213q-19 46 -57 72.5t-85 26.5zM292 674q87 0 87 92h63q0 -74 -39 -114.5t-111 -40.5t-111 40.5t-39 114.5h63q0 -92 87 -92z" />
    <glyph glyph-name="Gdotaccent" unicode="&#x120;" horiz-adv-x="705" 
d="M635 53q-39 -29 -100 -47.5t-131 -18.5q-106 0 -182 45.5t-116.5 131.5t-40.5 206q0 119 41.5 205t119 132.5t184.5 46.5q62 0 116.5 -14.5t100.5 -40.5l-27 -88q-47 35 -93 49t-93 14q-79 0 -134 -37.5t-83.5 -105.5t-28.5 -161q0 -145 64 -224t181 -79q73 0 126 28v223
h-171v80h267v-345zM328 876q0 28 17.5 46t43.5 18t43.5 -18t17.5 -46t-17.5 -46t-43.5 -18t-43.5 18.5t-17.5 45.5z" />
    <glyph glyph-name="gdotaccent" unicode="&#x121;" horiz-adv-x="597" 
d="M527 65q0 -142 -65 -218.5t-199 -76.5q-43 0 -86 9.5t-84 31.5l9 91q38 -31 78 -43.5t80 -12.5q89 0 133 48.5t44 136.5v35q-26 -37 -67.5 -58t-91.5 -21q-103 0 -162 75t-59 204t59 204t161 75q53 0 95.5 -22.5t67.5 -61.5v71h87v-467zM295 471q-68 0 -106 -55.5
t-38 -149.5t38 -149.5t105 -55.5q48 0 86 26.5t57 71.5v213q-19 46 -57 72.5t-85 26.5zM233 688q0 27 17 45.5t42 18.5t42 -18.5t17 -45.5t-17 -45.5t-42 -18.5t-42 18.5t-17 45.5z" />
    <glyph glyph-name="uni0122" unicode="&#x122;" horiz-adv-x="705" 
d="M635 53q-39 -29 -100 -47.5t-131 -18.5q-106 0 -182 45.5t-116.5 131.5t-40.5 206q0 119 41.5 205t119 132.5t184.5 46.5q62 0 116.5 -14.5t100.5 -40.5l-27 -88q-47 35 -93 49t-93 14q-79 0 -134 -37.5t-83.5 -105.5t-28.5 -161q0 -145 64 -224t181 -79q73 0 126 28v223
h-171v80h267v-345zM341 -217h-65q22 30 36.5 69t22.5 86h88q-10 -43 -31.5 -83.5t-50.5 -71.5z" />
    <glyph glyph-name="uni0123" unicode="&#x123;" horiz-adv-x="597" 
d="M527 65q0 -142 -65 -218.5t-199 -76.5q-43 0 -86 9.5t-84 31.5l9 91q38 -31 78 -43.5t80 -12.5q89 0 133 48.5t44 136.5v35q-26 -37 -67.5 -58t-91.5 -21q-103 0 -162 75t-59 204t59 204t161 75q53 0 95.5 -22.5t67.5 -61.5v71h87v-467zM295 471q-68 0 -106 -55.5
t-38 -149.5t38 -149.5t105 -55.5q48 0 86 26.5t57 71.5v213q-19 46 -57 72.5t-85 26.5zM307 778h64q-21 -34 -29.5 -69t-10.5 -94h-91q5 91 67 163z" />
    <glyph glyph-name="Hbar" unicode="&#x126;" horiz-adv-x="740" 
d="M640 0h-96v352h-348v-352h-96v540h-86v74h86v127h96v-127h348v127h96v-127h86v-74h-86v-540zM544 540h-348v-108h348v108z" />
    <glyph glyph-name="hbar" unicode="&#x127;" horiz-adv-x="580" 
d="M80 613h-75v62h75v85h90v-85h165v-62h-165v-163q29 42 72 62t91 20q79 0 128 -51t49 -146v-335h-90v332q0 57 -29.5 90.5t-79.5 33.5q-45 0 -83.5 -27t-57.5 -70v-359h-90v613z" />
    <glyph glyph-name="Itilde" unicode="&#x128;" horiz-adv-x="296" 
d="M100 741h96v-741h-96v741zM258 963l64 -15q0 -59 -27 -92.5t-75 -33.5q-19 0 -39.5 8t-49.5 30q-22 16 -32 21t-22 5q-38 0 -38 -68l-64 15q0 59 27 92.5t75 33.5q20 0 40.5 -8t48.5 -30q22 -16 32 -21t22 -5q38 0 38 68z" />
    <glyph glyph-name="itilde" unicode="&#x129;" horiz-adv-x="250" 
d="M80 532h90v-532h-90v532zM233 761l62 -15q0 -59 -26.5 -92.5t-74.5 -33.5q-19 0 -39 8.5t-47 30.5q-20 17 -30 22t-21 5q-39 0 -39 -70l-62 15q0 59 26.5 92.5t74.5 33.5q20 0 39.5 -8t46.5 -31q20 -17 30.5 -22t20.5 -5q39 0 39 70z" />
    <glyph glyph-name="Imacron" unicode="&#x12a;" horiz-adv-x="296" 
d="M100 741h96v-741h-96v741zM1 912h294v-72h-294v72z" />
    <glyph glyph-name="imacron" unicode="&#x12b;" horiz-adv-x="250" 
d="M80 532h90v-532h-90v532zM-12 722h274v-70h-274v70z" />
    <glyph glyph-name="Iogonek" unicode="&#x12e;" horiz-adv-x="296" 
d="M100 741h96v-741h-96v741zM131 14l65 -14q-95 -71 -95 -122q0 -33 37 -33q23 0 47 18l8 -70q-16 -8 -36 -13t-36 -5q-49 0 -75.5 23t-26.5 66q0 37 30 77.5t82 72.5z" />
    <glyph glyph-name="iogonek" unicode="&#x12f;" horiz-adv-x="250" 
d="M80 532h90v-532h-90v532zM66 688q0 27 17 45.5t42 18.5t42 -18.5t17 -45.5t-17 -45.5t-42 -18.5t-42 18.5t-17 45.5zM107 14l63 -14q-52 -40 -75.5 -69t-23.5 -58q0 -16 11 -23.5t27 -7.5q27 0 48 18l8 -68q-32 -17 -75 -17q-46 0 -71.5 22t-25.5 60q0 40 31 82t83 75z
" />
    <glyph glyph-name="Idotaccent" unicode="&#x130;" horiz-adv-x="296" 
d="M100 741h96v-741h-96v741zM87 876q0 28 17.5 46t43.5 18t43.5 -18t17.5 -46t-17.5 -46t-43.5 -18t-43.5 18.5t-17.5 45.5z" />
    <glyph glyph-name="dotlessi" unicode="&#x131;" horiz-adv-x="250" 
d="M80 532h90v-532h-90v532z" />
    <glyph glyph-name="IJ" unicode="&#x132;" horiz-adv-x="726" 
d="M100 741h96v-741h-96v741zM636 193q0 -95 -50 -150.5t-148 -55.5q-35 0 -65.5 7t-56.5 19l9 88q48 -29 105 -29q52 0 81.5 34t29.5 110v525h95v-548z" />
    <glyph glyph-name="ij" unicode="&#x133;" horiz-adv-x="500" 
d="M80 532h90v-532h-90v532zM66 688q0 27 17 45.5t42 18.5t42 -18.5t17 -45.5t-17 -45.5t-42 -18.5t-42 18.5t-17 45.5zM330 532h90v-583q0 -179 -155 -179q-40 0 -70 13l8 77q10 -6 23.5 -10t31.5 -4q72 0 72 99v587zM316 688q0 27 17 45.5t42 18.5t42 -18.5t17 -45.5
t-17 -45.5t-42 -18.5t-42 18.5t-17 45.5z" />
    <glyph glyph-name="uni0136" unicode="&#x136;" horiz-adv-x="660" 
d="M100 741h96v-330q80 83 156 165t150 165h113q-78 -86 -159 -172.5t-165 -173.5q90 -99 178 -197.5t173 -197.5h-124q-78 90 -158.5 181.5t-163.5 182.5v-364h-96v741zM314 -217h-65q22 30 36.5 69t22.5 86h88q-10 -43 -31.5 -83.5t-50.5 -71.5z" />
    <glyph glyph-name="uni0137" unicode="&#x137;" horiz-adv-x="542" 
d="M80 760h90v-464q60 59 118 117.5t114 118.5h109q-60 -62 -122 -124t-126 -124q70 -71 137 -142t132 -142h-119q-58 64 -118.5 129.5t-124.5 131.5v-261h-90v760zM246 -217h-61q22 30 36.5 69t22.5 86h84q-10 -43 -31.5 -83.5t-50.5 -71.5z" />
    <glyph glyph-name="kgreenlandic" unicode="&#x138;" horiz-adv-x="560" 
d="M80 532h90v-236q60 59 118 117.5t114 118.5h109q-60 -62 -122 -124t-126 -124q70 -71 137 -142t132 -142h-119q-58 64 -118.5 129.5t-124.5 131.5v-261h-90v532z" />
    <glyph glyph-name="Lacute" unicode="&#x139;" horiz-adv-x="530" 
d="M100 741h96v-660h314v-81h-410v741zM211 1000q26 -6 46.5 -24.5t31.5 -39.5l-152 -137l-45 38z" />
    <glyph glyph-name="lacute" unicode="&#x13a;" horiz-adv-x="323" 
d="M80 760h90v-615q0 -43 16 -61t51 -18q41 0 66 23l-9 -84q-12 -6 -33.5 -10.5t-47.5 -4.5q-68 0 -100.5 36t-32.5 109v625zM188 1000q26 -6 46.5 -24.5t31.5 -39.5l-152 -137l-45 38z" />
    <glyph glyph-name="uni013B" unicode="&#x13b;" horiz-adv-x="530" 
d="M100 741h96v-660h314v-81h-410v741zM267 -217h-65q22 30 36.5 69t22.5 86h88q-10 -43 -31.5 -83.5t-50.5 -71.5z" />
    <glyph glyph-name="uni013C" unicode="&#x13c;" horiz-adv-x="323" 
d="M80 760h90v-615q0 -43 16 -61t51 -18q41 0 66 23l-9 -84q-12 -6 -33.5 -10.5t-47.5 -4.5q-68 0 -100.5 36t-32.5 109v625zM147 -217h-61q22 30 36.5 69t22.5 86h84q-10 -43 -31.5 -83.5t-50.5 -71.5z" />
    <glyph glyph-name="Lcaron" unicode="&#x13d;" horiz-adv-x="530" 
d="M100 741h96v-660h314v-81h-410v741zM299 760q11 4 21.5 6t23.5 2q12 0 23 -2t22 -6l-49 -230h-53z" />
    <glyph glyph-name="lcaron" unicode="&#x13e;" horiz-adv-x="323" 
d="M80 760h90v-615q0 -43 16 -61t51 -18q41 0 66 23l-9 -84q-12 -6 -33.5 -10.5t-47.5 -4.5q-68 0 -100.5 36t-32.5 109v625zM245 760q11 4 21.5 6t23.5 2q12 0 23 -2t22 -6l-49 -230h-53z" />
    <glyph glyph-name="Lslash" unicode="&#x141;" horiz-adv-x="530" 
d="M100 741h96v-291l199 93v-78l-199 -93v-291h314v-81h-410v328l-100 -47v78l100 47v335z" />
    <glyph glyph-name="lslash" unicode="&#x142;" horiz-adv-x="323" 
d="M80 760h90v-273l89 42v-78l-89 -42v-264q0 -43 16 -61t51 -18q41 0 66 23l-9 -84q-12 -6 -33.5 -10.5t-47.5 -4.5q-68 0 -100.5 36t-32.5 109v231l-70 -33v78l70 33v316z" />
    <glyph glyph-name="Nacute" unicode="&#x143;" horiz-adv-x="740" 
d="M100 741h107l344 -563l-1 54v509h90v-741h-79l-372 610l1 -47v-563h-90v741zM433 1000q26 -6 46.5 -24.5t31.5 -39.5l-152 -137l-45 38z" />
    <glyph glyph-name="nacute" unicode="&#x144;" horiz-adv-x="580" 
d="M80 532h87v-74q29 45 73 66t93 21q79 0 128 -51t49 -146v-348h-90v345q0 57 -29.5 90.5t-79.5 33.5q-45 0 -83.5 -27t-57.5 -70v-372h-90v532zM354 810q28 -6 49 -23t31 -37l-145 -149l-44 33z" />
    <glyph glyph-name="uni0145" unicode="&#x145;" horiz-adv-x="740" 
d="M100 741h107l344 -563l-1 54v509h90v-741h-79l-372 610l1 -47v-563h-90v741zM332 -217h-65q22 30 36.5 69t22.5 86h88q-10 -43 -31.5 -83.5t-50.5 -71.5z" />
    <glyph glyph-name="uni0146" unicode="&#x146;" horiz-adv-x="580" 
d="M80 532h87v-74q29 45 73 66t93 21q79 0 128 -51t49 -146v-348h-90v345q0 57 -29.5 90.5t-79.5 33.5q-45 0 -83.5 -27t-57.5 -70v-372h-90v532zM255 -217h-61q22 30 36.5 69t22.5 86h84q-10 -43 -31.5 -83.5t-50.5 -71.5z" />
    <glyph glyph-name="Ncaron" unicode="&#x147;" horiz-adv-x="740" 
d="M100 741h107l344 -563l-1 54v509h90v-741h-79l-372 610l1 -47v-563h-90v741zM208 970l50 37l112 -113l112 113l50 -37l-116 -148h-92z" />
    <glyph glyph-name="ncaron" unicode="&#x148;" horiz-adv-x="580" 
d="M80 532h87v-74q29 45 73 66t93 21q79 0 128 -51t49 -146v-348h-90v345q0 57 -29.5 90.5t-79.5 33.5q-45 0 -83.5 -27t-57.5 -70v-372h-90v532zM138 778l47 35l120 -126l120 126l47 -35l-125 -163h-84z" />
    <glyph glyph-name="Eng" unicode="&#x14a;" horiz-adv-x="740" 
d="M640 -21q0 -95 -50 -150.5t-148 -55.5q-67 0 -122 26l9 88q25 -13 55.5 -21t58.5 -8q53 0 82.5 33.5t29.5 110.5v8l-366 600l1 -47v-563h-90v741h107l344 -563l-1 54v509h90v-762z" />
    <glyph glyph-name="eng" unicode="&#x14b;" horiz-adv-x="580" 
d="M80 532h87v-74q29 45 73 66t93 21q79 0 128 -51t49 -146v-399q0 -179 -155 -179q-40 0 -70 13l8 77q10 -6 23.5 -10t31.5 -4q72 0 72 99v400q0 57 -29.5 90.5t-79.5 33.5q-45 0 -83.5 -27t-57.5 -70v-372h-90v532z" />
    <glyph glyph-name="Omacron" unicode="&#x14c;" horiz-adv-x="770" 
d="M65 379q0 110 36.5 194.5t107.5 132.5t176 48t176.5 -48t107.5 -132.5t36 -194.5q0 -115 -35.5 -203.5t-106.5 -138.5t-178 -50t-178 50t-106.5 138.5t-35.5 203.5zM602 379q0 137 -56 216.5t-161 79.5q-104 0 -160.5 -79.5t-56.5 -216.5q0 -95 25.5 -165.5t74 -109
t117.5 -38.5q70 0 118 38.5t73.5 109t25.5 165.5zM238 912h294v-72h-294v72z" />
    <glyph glyph-name="omacron" unicode="&#x14d;" horiz-adv-x="604" 
d="M57 273q0 80 27.5 141.5t82 96t135.5 34.5q82 0 136 -34.5t81.5 -96t27.5 -141.5q0 -84 -26.5 -148.5t-81 -101t-137.5 -36.5q-82 0 -136.5 36.5t-81.5 101t-27 148.5zM453 273q0 91 -38.5 144.5t-112.5 53.5t-112.5 -53.5t-38.5 -144.5q0 -97 39 -154.5t112 -57.5
q74 0 112.5 57.5t38.5 154.5zM165 722h274v-70h-274v70z" />
    <glyph glyph-name="Ohungarumlaut" unicode="&#x150;" horiz-adv-x="770" 
d="M65 379q0 110 36.5 194.5t107.5 132.5t176 48t176.5 -48t107.5 -132.5t36 -194.5q0 -115 -35.5 -203.5t-106.5 -138.5t-178 -50t-178 50t-106.5 138.5t-35.5 203.5zM602 379q0 137 -56 216.5t-161 79.5q-104 0 -160.5 -79.5t-56.5 -216.5q0 -95 25.5 -165.5t74 -109
t117.5 -38.5q70 0 118 38.5t73.5 109t25.5 165.5zM374 1000q23 -7 42.5 -23.5t29.5 -36.5l-141 -141l-41 35zM548 1000q23 -7 42.5 -23.5t29.5 -36.5l-141 -141l-41 35z" />
    <glyph glyph-name="ohungarumlaut" unicode="&#x151;" horiz-adv-x="604" 
d="M57 273q0 80 27.5 141.5t82 96t135.5 34.5q82 0 136 -34.5t81.5 -96t27.5 -141.5q0 -84 -26.5 -148.5t-81 -101t-137.5 -36.5q-82 0 -136.5 36.5t-81.5 101t-27 148.5zM453 273q0 91 -38.5 144.5t-112.5 53.5t-112.5 -53.5t-38.5 -144.5q0 -97 39 -154.5t112 -57.5
q74 0 112.5 57.5t38.5 154.5zM422 809q22 -1 46.5 -13t39.5 -29l-119 -167l-46 24zM264 809q22 -1 46.5 -13t39.5 -29l-119 -167l-46 24z" />
    <glyph glyph-name="OE" unicode="&#x152;" horiz-adv-x="1042" 
d="M678 80h334v-80h-430v95q-37 -50 -91.5 -79t-125.5 -29q-100 0 -166.5 50t-100 138.5t-33.5 203.5q0 110 34 194.5t101 132.5t165 48q70 0 124.5 -28.5t92.5 -78.5v94h418l-9 -80h-313v-229h254v-80h-254v-272zM375 675q-100 0 -153.5 -79.5t-53.5 -216.5
q0 -95 24 -165.5t70.5 -109t112.5 -38.5q67 0 113 38.5t70 109t24 165.5q0 137 -53 216.5t-154 79.5z" />
    <glyph glyph-name="oe" unicode="&#x153;" horiz-adv-x="942" 
d="M572 516.5q48 28.5 112 28.5q93 0 148 -62t55 -180q0 -6 -0.5 -21.5t-1.5 -24.5h-341q5 -97 54.5 -145.5t126.5 -48.5q37 0 78.5 11.5t69.5 36.5l10 -89q-29 -16 -72 -25.5t-87 -9.5q-77 0 -134.5 30.5t-90.5 85.5q-29 -56 -80.5 -86t-121.5 -30q-78 0 -131.5 36t-81 100
t-27.5 146t27.5 144.5t80.5 97.5t131 35q70 0 120.5 -28t79.5 -80q28 50 76 78.5zM412.5 117q39.5 56 39.5 154q0 96 -39 148.5t-113 52.5q-73 0 -111 -54.5t-38 -146.5q0 -94 38.5 -152t111.5 -58q72 0 111.5 56zM545 325h253q0 75 -31.5 113.5t-87.5 38.5t-90.5 -40
t-43.5 -112z" />
    <glyph glyph-name="Racute" unicode="&#x154;" horiz-adv-x="656" 
d="M100 741h181q80 0 143.5 -22t100 -66.5t36.5 -113.5q0 -75 -41 -123t-110 -67q59 -29 111 -112.5t113 -236.5h-105q-40 96 -72.5 157.5t-63.5 95t-67.5 47t-86.5 13.5h-43v-313h-96v741zM409.5 426q50.5 36 50.5 103q0 68 -50.5 101.5t-127.5 33.5h-86v-274h86
q77 0 127.5 36zM378 1000q26 -6 46.5 -24.5t31.5 -39.5l-152 -137l-45 38z" />
    <glyph glyph-name="racute" unicode="&#x155;" horiz-adv-x="400" 
d="M80 532h87v-97q27 58 72 84t94 26q19 0 37 -3l-11 -97q-19 9 -47 9q-46 0 -85.5 -33.5t-56.5 -86.5v-334h-90v532zM285 810q28 -6 49 -23t31 -37l-145 -149l-44 33z" />
    <glyph glyph-name="Rcaron" unicode="&#x158;" horiz-adv-x="656" 
d="M100 741h181q80 0 143.5 -22t100 -66.5t36.5 -113.5q0 -75 -41 -123t-110 -67q59 -29 111 -112.5t113 -236.5h-105q-40 96 -72.5 157.5t-63.5 95t-67.5 47t-86.5 13.5h-43v-313h-96v741zM409.5 426q50.5 36 50.5 103q0 68 -50.5 101.5t-127.5 33.5h-86v-274h86
q77 0 127.5 36zM153 970l50 37l112 -113l112 113l50 -37l-116 -148h-92z" />
    <glyph glyph-name="rcaron" unicode="&#x159;" horiz-adv-x="400" 
d="M80 532h87v-97q27 58 72 84t94 26q19 0 37 -3l-11 -97q-19 9 -47 9q-46 0 -85.5 -33.5t-56.5 -86.5v-334h-90v532zM69 778l47 35l120 -126l120 126l47 -35l-125 -163h-84z" />
    <glyph glyph-name="Sacute" unicode="&#x15a;" horiz-adv-x="590" 
d="M276 -13q-62 0 -121 14t-109 42l10 97q105 -74 219 -74q80 0 123.5 33.5t43.5 94.5q0 33 -14 56t-50.5 44t-103.5 47q-77 30 -121.5 61.5t-63.5 68.5t-19 80q0 62 31 107.5t86.5 70.5t130.5 25q106 0 197 -48l-26 -88q-72 57 -170 57q-70 0 -111.5 -29t-41.5 -85
q0 -29 16 -51t53 -42t99 -44q83 -31 127.5 -65t61.5 -72t17 -83q0 -100 -70.5 -158.5t-193.5 -58.5zM372 1000q26 -6 46.5 -24.5t31.5 -39.5l-152 -137l-45 38z" />
    <glyph glyph-name="sacute" unicode="&#x15b;" horiz-adv-x="478" 
d="M63 118q34 -29 75 -43t82 -14q54 0 85.5 22.5t31.5 60.5q0 19 -10.5 33t-37 28t-75.5 32q-84 31 -117 68t-33 87q0 48 25 82t68 52.5t97 18.5q43 0 82.5 -11t66.5 -29l-25 -78q-27 23 -57.5 34t-64.5 11q-47 0 -75.5 -19t-28.5 -55q0 -28 27.5 -47t95.5 -44
q60 -22 92.5 -46.5t45.5 -52.5t13 -61q0 -76 -58.5 -118t-150.5 -42q-48 0 -91.5 11t-73.5 29zM294 810q28 -6 49 -23t31 -37l-145 -149l-44 33z" />
    <glyph glyph-name="Scedilla" unicode="&#x15e;" horiz-adv-x="590" 
d="M276 -13q-62 0 -121 14t-109 42l10 97q105 -74 219 -74q80 0 123.5 33.5t43.5 94.5q0 33 -14 56t-50.5 44t-103.5 47q-77 30 -121.5 61.5t-63.5 68.5t-19 80q0 62 31 107.5t86.5 70.5t130.5 25q106 0 197 -48l-26 -88q-72 57 -170 57q-70 0 -111.5 -29t-41.5 -85
q0 -29 16 -51t53 -42t99 -44q83 -31 127.5 -65t61.5 -72t17 -83q0 -100 -70.5 -158.5t-193.5 -58.5zM264 10h66l-19 -71q49 -3 77.5 -25.5t28.5 -62.5q0 -47 -37.5 -73t-105.5 -26q-22 0 -49 6t-41 14l9 69q29 -26 81 -26q62 0 62 37q0 35 -63 35q-23 0 -43 -5z" />
    <glyph glyph-name="scedilla" unicode="&#x15f;" horiz-adv-x="478" 
d="M63 118q34 -29 75 -43t82 -14q54 0 85.5 22.5t31.5 60.5q0 19 -10.5 33t-37 28t-75.5 32q-84 31 -117 68t-33 87q0 48 25 82t68 52.5t97 18.5q43 0 82.5 -11t66.5 -29l-25 -78q-27 23 -57.5 34t-64.5 11q-47 0 -75.5 -19t-28.5 -55q0 -28 27.5 -47t95.5 -44
q60 -22 92.5 -46.5t45.5 -52.5t13 -61q0 -76 -58.5 -118t-150.5 -42q-48 0 -91.5 11t-73.5 29zM216 10h64l-19 -72q52 -3 78 -26.5t26 -60.5q0 -48 -36 -73.5t-104 -25.5q-22 0 -48.5 6t-40.5 14l8 67q29 -26 81 -26q34 0 49 9t15 30q0 37 -63 37q-21 0 -43 -5z" />
    <glyph glyph-name="Scaron" unicode="&#x160;" horiz-adv-x="590" 
d="M276 -13q-62 0 -121 14t-109 42l10 97q105 -74 219 -74q80 0 123.5 33.5t43.5 94.5q0 33 -14 56t-50.5 44t-103.5 47q-77 30 -121.5 61.5t-63.5 68.5t-19 80q0 62 31 107.5t86.5 70.5t130.5 25q106 0 197 -48l-26 -88q-72 57 -170 57q-70 0 -111.5 -29t-41.5 -85
q0 -29 16 -51t53 -42t99 -44q83 -31 127.5 -65t61.5 -72t17 -83q0 -100 -70.5 -158.5t-193.5 -58.5zM147 970l50 37l112 -113l112 113l50 -37l-116 -148h-92z" />
    <glyph glyph-name="scaron" unicode="&#x161;" horiz-adv-x="478" 
d="M63 118q34 -29 75 -43t82 -14q54 0 85.5 22.5t31.5 60.5q0 19 -10.5 33t-37 28t-75.5 32q-84 31 -117 68t-33 87q0 48 25 82t68 52.5t97 18.5q43 0 82.5 -11t66.5 -29l-25 -78q-27 23 -57.5 34t-64.5 11q-47 0 -75.5 -19t-28.5 -55q0 -28 27.5 -47t95.5 -44
q60 -22 92.5 -46.5t45.5 -52.5t13 -61q0 -76 -58.5 -118t-150.5 -42q-48 0 -91.5 11t-73.5 29zM78 778l47 35l120 -126l120 126l47 -35l-125 -163h-84z" />
    <glyph glyph-name="uni0162" unicode="&#x162;" horiz-adv-x="580" 
d="M242 660h-222v81h540v-81h-222v-660h-96v660zM261 10h66l-19 -71q49 -3 77.5 -25.5t28.5 -62.5q0 -47 -37.5 -73t-105.5 -26q-22 0 -49 6t-41 14l9 69q29 -26 81 -26q62 0 62 37q0 35 -63 35q-23 0 -43 -5z" />
    <glyph glyph-name="uni0163" unicode="&#x163;" horiz-adv-x="404" 
d="M120 464h-90v68h90v110l90 43v-153h150v-68h-150v-294q0 -55 19 -81t65 -26q19 0 39.5 6t36.5 18l-10 -85q-19 -7 -43.5 -11t-47.5 -4q-149 0 -149 165v312zM223 10h64l-19 -72q52 -3 78 -26.5t26 -60.5q0 -48 -36 -73.5t-104 -25.5q-22 0 -48.5 6t-40.5 14l8 67
q29 -26 81 -26q34 0 49 9t15 30q0 37 -63 37q-21 0 -43 -5z" />
    <glyph glyph-name="Tcaron" unicode="&#x164;" horiz-adv-x="580" 
d="M242 660h-222v81h540v-81h-222v-660h-96v660zM128 970l50 37l112 -113l112 113l50 -37l-116 -148h-92z" />
    <glyph glyph-name="tcaron" unicode="&#x165;" horiz-adv-x="404" 
d="M120 464h-90v68h90v110l90 43v-153h150v-68h-150v-294q0 -55 19 -81t65 -26q19 0 39.5 6t36.5 18l-10 -85q-19 -7 -43.5 -11t-47.5 -4q-149 0 -149 165v312zM285 760q11 4 21.5 6t23.5 2q12 0 23 -2t22 -6l-48 -165h-50z" />
    <glyph glyph-name="Tbar" unicode="&#x166;" horiz-adv-x="580" 
d="M338 0h-96v324h-171v77h171v259h-222v81h540v-81h-222v-259h176v-77h-176v-324z" />
    <glyph glyph-name="tbar" unicode="&#x167;" horiz-adv-x="404" 
d="M120 152v100h-90v62h90v150h-90v68h90v110l90 43v-153h150v-68h-150v-150h150v-62h-150v-82q0 -55 19 -81t65 -26q19 0 39.5 6t36.5 18l-10 -85q-19 -7 -43.5 -11t-47.5 -4q-149 0 -149 165z" />
    <glyph glyph-name="Utilde" unicode="&#x168;" horiz-adv-x="710" 
d="M527 741h93v-483q0 -127 -69.5 -199t-194.5 -72q-126 0 -196 72t-70 199v483h96v-467q0 -105 42.5 -155.5t126.5 -50.5q86 0 129 48.5t43 141.5v483zM465 963l64 -15q0 -59 -27 -92.5t-75 -33.5q-19 0 -39.5 8t-49.5 30q-22 16 -32 21t-22 5q-38 0 -38 -68l-64 15
q0 59 27 92.5t75 33.5q20 0 40.5 -8t48.5 -30q22 -16 32 -21t22 -5q38 0 38 68z" />
    <glyph glyph-name="utilde" unicode="&#x169;" horiz-adv-x="578" 
d="M408 532h90v-532h-87v74q-30 -47 -74.5 -67t-91.5 -20q-78 0 -126.5 51t-48.5 146v348h90v-345q0 -57 29 -90.5t79 -33.5q45 0 83 27t57 70v372zM392 761l62 -15q0 -59 -26.5 -92.5t-74.5 -33.5q-19 0 -39 8.5t-47 30.5q-20 17 -30 22t-21 5q-39 0 -39 -70l-62 15
q0 59 26.5 92.5t74.5 33.5q20 0 39.5 -8t46.5 -31q20 -17 30.5 -22t20.5 -5q39 0 39 70z" />
    <glyph glyph-name="Umacron" unicode="&#x16a;" horiz-adv-x="710" 
d="M527 741h93v-483q0 -127 -69.5 -199t-194.5 -72q-126 0 -196 72t-70 199v483h96v-467q0 -105 42.5 -155.5t126.5 -50.5q86 0 129 48.5t43 141.5v483zM208 912h294v-72h-294v72z" />
    <glyph glyph-name="umacron" unicode="&#x16b;" horiz-adv-x="578" 
d="M408 532h90v-532h-87v74q-30 -47 -74.5 -67t-91.5 -20q-78 0 -126.5 51t-48.5 146v348h90v-345q0 -57 29 -90.5t79 -33.5q45 0 83 27t57 70v372zM147 722h274v-70h-274v70z" />
    <glyph glyph-name="Uring" unicode="&#x16e;" horiz-adv-x="710" 
d="M527 741h93v-483q0 -127 -69.5 -199t-194.5 -72q-126 0 -196 72t-70 199v483h96v-467q0 -105 42.5 -155.5t126.5 -50.5q86 0 129 48.5t43 141.5v483zM355 778q-49 0 -80.5 29.5t-31.5 73.5q0 45 31.5 74.5t80.5 29.5t80.5 -29.5t31.5 -74.5q0 -44 -31.5 -73.5
t-80.5 -29.5zM355 934q-23 0 -37.5 -15t-14.5 -38t14.5 -37.5t37.5 -14.5t37.5 14.5t14.5 37.5t-14.5 38t-37.5 15z" />
    <glyph glyph-name="uring" unicode="&#x16f;" horiz-adv-x="578" 
d="M408 532h90v-532h-87v74q-30 -47 -74.5 -67t-91.5 -20q-78 0 -126.5 51t-48.5 146v348h90v-345q0 -57 29 -90.5t79 -33.5q45 0 83 27t57 70v372zM284 607q-48 0 -80 29t-32 74q0 46 32 75t80 29t80 -29t32 -75q0 -45 -32 -74t-80 -29zM284 763q-23 0 -37.5 -15t-14.5 -38
t14.5 -37.5t37.5 -14.5q24 0 38 15t14 37q0 23 -14.5 38t-37.5 15z" />
    <glyph glyph-name="Uhungarumlaut" unicode="&#x170;" horiz-adv-x="710" 
d="M527 741h93v-483q0 -127 -69.5 -199t-194.5 -72q-126 0 -196 72t-70 199v483h96v-467q0 -105 42.5 -155.5t126.5 -50.5q86 0 129 48.5t43 141.5v483zM344 1000q23 -7 42.5 -23.5t29.5 -36.5l-141 -141l-41 35zM518 1000q23 -7 42.5 -23.5t29.5 -36.5l-141 -141l-41 35z
" />
    <glyph glyph-name="uhungarumlaut" unicode="&#x171;" horiz-adv-x="578" 
d="M408 532h90v-532h-87v74q-30 -47 -74.5 -67t-91.5 -20q-78 0 -126.5 51t-48.5 146v348h90v-345q0 -57 29 -90.5t79 -33.5q45 0 83 27t57 70v372zM404 809q22 -1 46.5 -13t39.5 -29l-119 -167l-46 24zM246 809q22 -1 46.5 -13t39.5 -29l-119 -167l-46 24z" />
    <glyph glyph-name="Uogonek" unicode="&#x172;" horiz-adv-x="710" 
d="M527 741h93v-483q0 -127 -69.5 -199t-194.5 -72q-126 0 -196 72t-70 199v483h96v-467q0 -105 42.5 -155.5t126.5 -50.5q86 0 129 48.5t43 141.5v483zM418 14l95 15q-66 -52 -95.5 -87t-29.5 -64q0 -33 37 -33q23 0 47 18l8 -70q-14 -8 -34.5 -13t-37.5 -5q-49 0 -75.5 23
t-26.5 66q0 35 30 75.5t82 74.5z" />
    <glyph glyph-name="uogonek" unicode="&#x173;" horiz-adv-x="578" 
d="M408 532h90v-532h-87v74q-30 -47 -74.5 -67t-91.5 -20q-78 0 -126.5 51t-48.5 146v348h90v-345q0 -57 29 -90.5t79 -33.5q45 0 83 27t57 70v372zM435 14l63 -14q-52 -40 -75.5 -69t-23.5 -58q0 -16 11 -23.5t27 -7.5q27 0 48 18l8 -68q-32 -17 -75 -17q-46 0 -71.5 22
t-25.5 60q0 40 31 82t83 75z" />
    <glyph glyph-name="Wcircumflex" unicode="&#x174;" horiz-adv-x="1030" 
d="M515 580l-170 -580h-80q-118 371 -225 741h103q39 -146 80 -291.5t84 -289.5l165 561h87l166 -566q43 147 86 293.5t83 292.5h96q-106 -370 -225 -741h-80zM469 985h92l116 -148l-50 -37l-112 113l-112 -113l-50 37z" />
    <glyph glyph-name="wcircumflex" unicode="&#x175;" horiz-adv-x="780" 
d="M390 398l-125 -398h-63q-46 133 -88.5 266t-83.5 266h94q27 -96 55 -192t57 -192l117 370h75l118 -375q30 98 59 195t56 194h89q-40 -133 -83 -266t-89 -266h-63zM348 798h84l125 -163l-47 -35l-120 125l-120 -125l-47 35z" />
    <glyph glyph-name="Ycircumflex" unicode="&#x176;" horiz-adv-x="670" 
d="M385 298v-298h-96v299l-259 442h108l203 -360l198 360h101zM291 985h92l116 -148l-50 -37l-112 113l-112 -113l-50 37z" />
    <glyph glyph-name="ycircumflex" unicode="&#x177;" horiz-adv-x="540" 
d="M307 0q-34 -83 -66.5 -133.5t-71 -73.5t-93.5 -23q-28 0 -48.5 5t-37.5 13l8 81q17 -11 35 -17t40 -6q48 0 81.5 34t61.5 109l11 30q-54 128 -106 256.5t-101 256.5h95q38 -104 77 -207.5t81 -207.5q41 104 80 208t77 207h90q-51 -133 -104 -265.5t-109 -266.5zM228 798
h84l125 -163l-47 -35l-120 125l-120 -125l-47 35z" />
    <glyph glyph-name="Ydieresis" unicode="&#x178;" horiz-adv-x="670" 
d="M385 298v-298h-96v299l-259 442h108l203 -360l198 360h101zM178 876q0 27 17 45.5t42 18.5t42 -18.5t17 -45.5t-17 -45.5t-42 -18.5t-42 18.5t-17 45.5zM379 876q0 27 17 45.5t42 18.5t42 -18.5t17 -45.5t-17 -45.5t-42 -18.5t-42 18.5t-17 45.5z" />
    <glyph glyph-name="Zacute" unicode="&#x179;" horiz-adv-x="590" 
d="M421 660h-362l4 81h470v-73l-372 -587h379v-81h-490v73zM361 1000q26 -6 46.5 -24.5t31.5 -39.5l-152 -137l-45 38z" />
    <glyph glyph-name="zacute" unicode="&#x17a;" horiz-adv-x="470" 
d="M315 462h-265v70h370v-63l-274 -399h284v-70h-390v63zM283 810q28 -6 49 -23t31 -37l-145 -149l-44 33z" />
    <glyph glyph-name="Zdotaccent" unicode="&#x17b;" horiz-adv-x="590" 
d="M421 660h-362l4 81h470v-73l-372 -587h379v-81h-490v73zM237 876q0 28 17.5 46t43.5 18t43.5 -18t17.5 -46t-17.5 -46t-43.5 -18t-43.5 18.5t-17.5 45.5z" />
    <glyph glyph-name="zdotaccent" unicode="&#x17c;" horiz-adv-x="470" 
d="M315 462h-265v70h370v-63l-274 -399h284v-70h-390v63zM176 688q0 27 17 45.5t42 18.5t42 -18.5t17 -45.5t-17 -45.5t-42 -18.5t-42 18.5t-17 45.5z" />
    <glyph glyph-name="Zcaron" unicode="&#x17d;" horiz-adv-x="590" 
d="M421 660h-362l4 81h470v-73l-372 -587h379v-81h-490v73zM136 970l50 37l112 -113l112 113l50 -37l-116 -148h-92z" />
    <glyph glyph-name="zcaron" unicode="&#x17e;" horiz-adv-x="470" 
d="M315 462h-265v70h370v-63l-274 -399h284v-70h-390v63zM67 778l47 35l120 -126l120 126l47 -35l-125 -163h-84z" />
    <glyph glyph-name="florin" unicode="&#x192;" 
d="M280 464h-90v68h90v25q0 105 51 160.5t151 55.5q51 0 87 -13l-9 -75q-23 13 -68 13q-122 0 -122 -131v-35h150v-68h-150v-478q0 -105 -50.5 -160.5t-151.5 -55.5q-25 0 -48 3.5t-39 8.5l8 77q25 -14 69 -14q122 0 122 131v488z" />
    <glyph glyph-name="uni0218" unicode="&#x218;" horiz-adv-x="590" 
d="M276 -13q-62 0 -121 14t-109 42l10 97q105 -74 219 -74q80 0 123.5 33.5t43.5 94.5q0 33 -14 56t-50.5 44t-103.5 47q-77 30 -121.5 61.5t-63.5 68.5t-19 80q0 62 31 107.5t86.5 70.5t130.5 25q106 0 197 -48l-26 -88q-72 57 -170 57q-70 0 -111.5 -29t-41.5 -85
q0 -29 16 -51t53 -42t99 -44q83 -31 127.5 -65t61.5 -72t17 -83q0 -100 -70.5 -158.5t-193.5 -58.5zM255 -217h-65q22 30 36.5 69t22.5 86h88q-10 -43 -31.5 -83.5t-50.5 -71.5z" />
    <glyph glyph-name="uni0219" unicode="&#x219;" horiz-adv-x="478" 
d="M63 118q34 -29 75 -43t82 -14q54 0 85.5 22.5t31.5 60.5q0 19 -10.5 33t-37 28t-75.5 32q-84 31 -117 68t-33 87q0 48 25 82t68 52.5t97 18.5q43 0 82.5 -11t66.5 -29l-25 -78q-27 23 -57.5 34t-64.5 11q-47 0 -75.5 -19t-28.5 -55q0 -28 27.5 -47t95.5 -44
q60 -22 92.5 -46.5t45.5 -52.5t13 -61q0 -76 -58.5 -118t-150.5 -42q-48 0 -91.5 11t-73.5 29zM193 -217h-61q22 30 36.5 69t22.5 86h84q-10 -43 -31.5 -83.5t-50.5 -71.5z" />
    <glyph glyph-name="uni021A" unicode="&#x21a;" horiz-adv-x="580" 
d="M242 660h-222v81h540v-81h-222v-660h-96v660zM252 -217h-65q22 30 36.5 69t22.5 86h88q-10 -43 -31.5 -83.5t-50.5 -71.5z" />
    <glyph glyph-name="uni021B" unicode="&#x21b;" horiz-adv-x="404" 
d="M120 464h-90v68h90v110l90 43v-153h150v-68h-150v-294q0 -55 19 -81t65 -26q19 0 39.5 6t36.5 18l-10 -85q-19 -7 -43.5 -11t-47.5 -4q-149 0 -149 165v312zM200 -217h-61q22 30 36.5 69t22.5 86h84q-10 -43 -31.5 -83.5t-50.5 -71.5z" />
    <glyph glyph-name="uni0237" unicode="&#x237;" horiz-adv-x="250" 
d="M80 532h90v-583q0 -179 -155 -179q-40 0 -70 13l8 77q10 -6 23.5 -10t31.5 -4q72 0 72 99v587z" />
    <glyph glyph-name="circumflex" unicode="&#x2c6;" horiz-adv-x="560" 
d="M238 798h84l125 -163l-47 -35l-120 125l-120 -125l-47 35z" />
    <glyph glyph-name="caron" unicode="&#x2c7;" horiz-adv-x="560" 
d="M112 778l47 35l120 -126l120 126l47 -35l-125 -163h-84z" />
    <glyph glyph-name="uni02C9" unicode="&#x2c9;" horiz-adv-x="560" 
d="M143 722h274v-70h-274v70z" />
    <glyph glyph-name="uni02CB" unicode="&#x2cb;" horiz-adv-x="560" 
d="M198 750q10 20 31 37t49 23l109 -176l-44 -33z" />
    <glyph glyph-name="breve" unicode="&#x2d8;" horiz-adv-x="560" 
d="M280 674q87 0 87 92h63q0 -74 -39 -114.5t-111 -40.5t-111 40.5t-39 114.5h63q0 -92 87 -92z" />
    <glyph glyph-name="dotaccent" unicode="&#x2d9;" horiz-adv-x="560" 
d="M221 688q0 27 17 45.5t42 18.5t42 -18.5t17 -45.5t-17 -45.5t-42 -18.5t-42 18.5t-17 45.5z" />
    <glyph glyph-name="ring" unicode="&#x2da;" horiz-adv-x="560" 
d="M280 607q-48 0 -80 29t-32 74q0 46 32 75t80 29t80 -29t32 -75q0 -45 -32 -74t-80 -29zM280 763q-23 0 -37.5 -15t-14.5 -38t14.5 -37.5t37.5 -14.5q24 0 38 15t14 37q0 23 -14.5 38t-37.5 15z" />
    <glyph glyph-name="ogonek" unicode="&#x2db;" horiz-adv-x="560" 
d="M305 14l63 -14q-52 -40 -75.5 -69t-23.5 -58q0 -16 11 -23.5t27 -7.5q27 0 48 18l8 -68q-32 -17 -75 -17q-46 0 -71.5 22t-25.5 60q0 40 31 82t83 75z" />
    <glyph glyph-name="tilde" unicode="&#x2dc;" horiz-adv-x="560" 
d="M387 761l62 -15q0 -59 -26.5 -92.5t-74.5 -33.5q-19 0 -39 8.5t-47 30.5q-20 17 -30 22t-21 5q-39 0 -39 -70l-62 15q0 59 26.5 92.5t74.5 33.5q20 0 39.5 -8t46.5 -31q20 -17 30.5 -22t20.5 -5q39 0 39 70z" />
    <glyph glyph-name="hungarumlaut" unicode="&#x2dd;" horiz-adv-x="560" 
d="M360 809q22 -1 46.5 -13t39.5 -29l-119 -167l-46 24zM202 809q22 -1 46.5 -13t39.5 -29l-119 -167l-46 24z" />
    <glyph glyph-name="gravecomb" unicode="&#x300;" horiz-adv-x="0" 
d="M-127 750q10 20 31 37t49 23l109 -176l-44 -33z" />
    <glyph glyph-name="acutecomb" unicode="&#x301;" horiz-adv-x="0" 
d="M48 810q28 -6 49 -23t31 -37l-145 -149l-44 33z" />
    <glyph glyph-name="uni0302" unicode="&#x302;" horiz-adv-x="0" 
d="M-42 798h84l125 -163l-47 -35l-120 125l-120 -125l-47 35z" />
    <glyph glyph-name="tildecomb" unicode="&#x303;" horiz-adv-x="0" 
d="M108 761l62 -15q0 -59 -26.5 -92.5t-74.5 -33.5q-19 0 -39 8.5t-47 30.5q-20 17 -30 22t-21 5q-39 0 -39 -70l-62 15q0 59 26.5 92.5t74.5 33.5q20 0 39.5 -8t46.5 -31q20 -17 30.5 -22t20.5 -5q39 0 39 70z" />
    <glyph glyph-name="uni0304" unicode="&#x304;" horiz-adv-x="0" 
d="M-137 722h274v-70h-274v70z" />
    <glyph glyph-name="uni0306" unicode="&#x306;" horiz-adv-x="0" 
d="M0 674q87 0 87 92h63q0 -74 -39 -114.5t-111 -40.5t-111 40.5t-39 114.5h63q0 -92 87 -92z" />
    <glyph glyph-name="uni0307" unicode="&#x307;" horiz-adv-x="0" 
d="M-59 688q0 27 17 45.5t42 18.5t42 -18.5t17 -45.5t-17 -45.5t-42 -18.5t-42 18.5t-17 45.5z" />
    <glyph glyph-name="uni0308" unicode="&#x308;" horiz-adv-x="0" 
d="M-153 687q0 26 17 44.5t41 18.5t41 -18.5t17 -44.5t-17 -44.5t-41 -18.5t-41 18.5t-17 44.5zM38 687q0 26 17 44.5t41 18.5t41 -18.5t17 -44.5t-17 -44.5t-41 -18.5t-41 18.5t-17 44.5z" />
    <glyph glyph-name="uni030A" unicode="&#x30a;" horiz-adv-x="0" 
d="M0 607q-48 0 -80 29t-32 74q0 46 32 75t80 29t80 -29t32 -75q0 -45 -32 -74t-80 -29zM0 763q-23 0 -37.5 -15t-14.5 -38t14.5 -37.5t37.5 -14.5q24 0 38 15t14 37q0 23 -14.5 38t-37.5 15z" />
    <glyph glyph-name="uni030B" unicode="&#x30b;" horiz-adv-x="0" 
d="M120 809q22 -1 46.5 -13t39.5 -29l-119 -167l-46 24zM-38 809q22 -1 46.5 -13t39.5 -29l-119 -167l-46 24z" />
    <glyph glyph-name="uni030C" unicode="&#x30c;" horiz-adv-x="0" 
d="M-168 778l47 35l120 -126l120 126l47 -35l-125 -163h-84z" />
    <glyph glyph-name="uni0312" unicode="&#x312;" horiz-adv-x="0" 
d="M15 778h64q-21 -34 -29.5 -69t-10.5 -94h-91q5 91 67 163z" />
    <glyph glyph-name="uni0315" unicode="&#x315;" horiz-adv-x="0" 
d="M-39 760q11 4 21.5 6t23.5 2q12 0 23 -2t22 -6l-49 -230h-53z" />
    <glyph glyph-name="dotbelowcomb" unicode="&#x323;" horiz-adv-x="0" 
d="M-59 -126q0 27 17 45.5t42 18.5t42 -18.5t17 -45.5t-17 -45.5t-42 -18.5t-42 18.5t-17 45.5z" />
    <glyph glyph-name="uni0326" unicode="&#x326;" horiz-adv-x="0" 
d="M-40 -217h-61q22 30 36.5 69t22.5 86h84q-10 -43 -31.5 -83.5t-50.5 -71.5z" />
    <glyph glyph-name="uni0327" unicode="&#x327;" horiz-adv-x="0" 
d="M-17 10h64l-19 -72q52 -3 78 -26.5t26 -60.5q0 -48 -36 -73.5t-104 -25.5q-22 0 -48.5 6t-40.5 14l8 67q29 -26 81 -26q34 0 49 9t15 30q0 37 -63 37q-21 0 -43 -5z" />
    <glyph glyph-name="uni0328" unicode="&#x328;" horiz-adv-x="0" 
d="M25 14l63 -14q-52 -40 -75.5 -69t-23.5 -58q0 -16 11 -23.5t27 -7.5q27 0 48 18l8 -68q-32 -17 -75 -17q-46 0 -71.5 22t-25.5 60q0 40 31 82t83 75z" />
    <glyph glyph-name="uni1E24" unicode="&#x1e24;" horiz-adv-x="740" 
d="M100 741h96v-309h348v309h96v-741h-96v352h-348v-352h-96v741zM309 -126q0 28 17.5 46t43.5 18t43.5 -18t17.5 -46t-17.5 -46t-43.5 -18t-43.5 18.5t-17.5 45.5z" />
    <glyph glyph-name="uni1E25" unicode="&#x1e25;" horiz-adv-x="580" 
d="M80 760h90v-297q29 42 72 62t91 20q79 0 128 -51t49 -146v-348h-90v345q0 57 -29.5 90.5t-79.5 33.5q-45 0 -83.5 -27t-57.5 -70v-372h-90v760zM236 -126q0 27 17 45.5t42 18.5t42 -18.5t17 -45.5t-17 -45.5t-42 -18.5t-42 18.5t-17 45.5z" />
    <glyph glyph-name="uni1E36" unicode="&#x1e36;" horiz-adv-x="530" 
d="M100 741h96v-660h314v-81h-410v741zM244 -126q0 28 17.5 46t43.5 18t43.5 -18t17.5 -46t-17.5 -46t-43.5 -18t-43.5 18.5t-17.5 45.5z" />
    <glyph glyph-name="uni1E37" unicode="&#x1e37;" horiz-adv-x="323" 
d="M80 760h90v-615q0 -43 16 -61t51 -18q41 0 66 23l-9 -84q-12 -6 -33.5 -10.5t-47.5 -4.5q-68 0 -100.5 36t-32.5 109v625zM128 -126q0 27 17 45.5t42 18.5t42 -18.5t17 -45.5t-17 -45.5t-42 -18.5t-42 18.5t-17 45.5z" />
    <glyph glyph-name="Wgrave" unicode="&#x1e80;" horiz-adv-x="1030" 
d="M515 580l-170 -580h-80q-118 371 -225 741h103q39 -146 80 -291.5t84 -289.5l165 561h87l166 -566q43 147 86 293.5t83 292.5h96q-106 -370 -225 -741h-80zM374 936q11 21 31.5 39.5t46.5 24.5l119 -163l-45 -38z" />
    <glyph glyph-name="wgrave" unicode="&#x1e81;" horiz-adv-x="780" 
d="M390 398l-125 -398h-63q-46 133 -88.5 266t-83.5 266h94q27 -96 55 -192t57 -192l117 370h75l118 -375q30 98 59 195t56 194h89q-40 -133 -83 -266t-89 -266h-63zM263 750q10 20 31 37t49 23l109 -176l-44 -33z" />
    <glyph glyph-name="Wacute" unicode="&#x1e82;" horiz-adv-x="1030" 
d="M515 580l-170 -580h-80q-118 371 -225 741h103q39 -146 80 -291.5t84 -289.5l165 561h87l166 -566q43 147 86 293.5t83 292.5h96q-106 -370 -225 -741h-80zM578 1000q26 -6 46.5 -24.5t31.5 -39.5l-152 -137l-45 38z" />
    <glyph glyph-name="wacute" unicode="&#x1e83;" horiz-adv-x="780" 
d="M390 398l-125 -398h-63q-46 133 -88.5 266t-83.5 266h94q27 -96 55 -192t57 -192l117 370h75l118 -375q30 98 59 195t56 194h89q-40 -133 -83 -266t-89 -266h-63zM438 810q28 -6 49 -23t31 -37l-145 -149l-44 33z" />
    <glyph glyph-name="Wdieresis" unicode="&#x1e84;" horiz-adv-x="1030" 
d="M515 580l-170 -580h-80q-118 371 -225 741h103q39 -146 80 -291.5t84 -289.5l165 561h87l166 -566q43 147 86 293.5t83 292.5h96q-106 -370 -225 -741h-80zM356 876q0 27 17 45.5t42 18.5t42 -18.5t17 -45.5t-17 -45.5t-42 -18.5t-42 18.5t-17 45.5zM557 876
q0 27 17 45.5t42 18.5t42 -18.5t17 -45.5t-17 -45.5t-42 -18.5t-42 18.5t-17 45.5z" />
    <glyph glyph-name="wdieresis" unicode="&#x1e85;" horiz-adv-x="780" 
d="M390 398l-125 -398h-63q-46 133 -88.5 266t-83.5 266h94q27 -96 55 -192t57 -192l117 370h75l118 -375q30 98 59 195t56 194h89q-40 -133 -83 -266t-89 -266h-63zM237 687q0 26 17 44.5t41 18.5t41 -18.5t17 -44.5t-17 -44.5t-41 -18.5t-41 18.5t-17 44.5zM428 687
q0 26 17 44.5t41 18.5t41 -18.5t17 -44.5t-17 -44.5t-41 -18.5t-41 18.5t-17 44.5z" />
    <glyph glyph-name="uni1E9E" unicode="&#x1e9e;" horiz-adv-x="730" 
d="M90 484q0 131 77 200.5t213 69.5q71 0 136 -16.5t116 -47.5v-2l-167 -259q79 -31 126.5 -64t68 -72.5t20.5 -91.5q0 -65 -32 -113.5t-88.5 -74.5t-128.5 -26q-47 0 -95.5 12t-89.5 34l10 97q44 -32 87.5 -48t89.5 -16q69 0 109 34t40 92q0 31 -11 55t-38 45t-75 43.5
t-122 50.5v2l167 260q-33 15 -62 19.5t-65 4.5q-91 0 -140.5 -50t-49.5 -154v-468h-96v484z" />
    <glyph glyph-name="Ygrave" unicode="&#x1ef2;" horiz-adv-x="670" 
d="M385 298v-298h-96v299l-259 442h108l203 -360l198 360h101zM196 936q11 21 31.5 39.5t46.5 24.5l119 -163l-45 -38z" />
    <glyph glyph-name="ygrave" unicode="&#x1ef3;" horiz-adv-x="540" 
d="M307 0q-34 -83 -66.5 -133.5t-71 -73.5t-93.5 -23q-28 0 -48.5 5t-37.5 13l8 81q17 -11 35 -17t40 -6q48 0 81.5 34t61.5 109l11 30q-54 128 -106 256.5t-101 256.5h95q38 -104 77 -207.5t81 -207.5q41 104 80 208t77 207h90q-51 -133 -104 -265.5t-109 -266.5zM143 750
q10 20 31 37t49 23l109 -176l-44 -33z" />
    <glyph glyph-name="uni2000" unicode="&#x2000;" horiz-adv-x="500" 
 />
    <glyph glyph-name="uni2001" unicode="&#x2001;" horiz-adv-x="1000" 
 />
    <glyph glyph-name="uni2002" unicode="&#x2002;" horiz-adv-x="500" 
 />
    <glyph glyph-name="uni2003" unicode="&#x2003;" horiz-adv-x="1000" 
 />
    <glyph glyph-name="uni2004" unicode="&#x2004;" horiz-adv-x="333" 
 />
    <glyph glyph-name="uni2005" unicode="&#x2005;" horiz-adv-x="250" 
 />
    <glyph glyph-name="uni2006" unicode="&#x2006;" horiz-adv-x="167" 
 />
    <glyph glyph-name="uni2007" unicode="&#x2007;" 
 />
    <glyph glyph-name="uni2008" unicode="&#x2008;" horiz-adv-x="270" 
 />
    <glyph glyph-name="uni2009" unicode="&#x2009;" horiz-adv-x="200" 
 />
    <glyph glyph-name="uni200A" unicode="&#x200a;" horiz-adv-x="62" 
 />
    <glyph glyph-name="uni200B" unicode="&#x200b;" horiz-adv-x="0" 
 />
    <glyph glyph-name="uni2010" unicode="&#x2010;" horiz-adv-x="308" 
d="M24 320h260v-80h-260v80z" />
    <glyph glyph-name="uni2011" unicode="&#x2011;" horiz-adv-x="308" 
d="M24 320h260v-80h-260v80z" />
    <glyph glyph-name="figuredash" unicode="&#x2012;" 
d="M25 312h600v-76h-600v76z" />
    <glyph glyph-name="endash" unicode="&#x2013;" horiz-adv-x="500" 
d="M0 312h500v-76h-500v76z" />
    <glyph glyph-name="emdash" unicode="&#x2014;" horiz-adv-x="1000" 
d="M0 312h1000v-76h-1000v76z" />
    <glyph glyph-name="uni2015" unicode="&#x2015;" horiz-adv-x="1000" 
d="M0 312h1000v-76h-1000v76z" />
    <glyph glyph-name="quoteleft" unicode="&#x2018;" horiz-adv-x="220" 
d="M125 760h49q-21 -36 -36 -77t-20 -78q22 -2 39 -21t17 -47q0 -30 -17.5 -50.5t-45.5 -20.5t-45.5 22.5t-17.5 61.5q1 50 21.5 107.5t55.5 102.5z" />
    <glyph glyph-name="quoteright" unicode="&#x2019;" horiz-adv-x="220" 
d="M95 466h-49q21 36 36 77t20 78q-22 2 -39 21t-17 47q0 30 17.5 50.5t45.5 20.5t45.5 -22.5t17.5 -61.5q-1 -50 -21.5 -107.5t-55.5 -102.5z" />
    <glyph glyph-name="quotesinglbase" unicode="&#x201a;" horiz-adv-x="220" 
d="M95 -165h-49q21 36 36 77t20 78q-22 2 -39 21t-17 47q0 30 17.5 50.5t45.5 20.5t45.5 -22.5t17.5 -61.5q-1 -50 -21.5 -107.5t-55.5 -102.5z" />
    <glyph glyph-name="quotedblleft" unicode="&#x201c;" horiz-adv-x="390" 
d="M125 760h49q-21 -36 -36 -77t-20 -78q22 -2 39 -21t17 -47q0 -30 -17.5 -50.5t-45.5 -20.5t-45.5 22.5t-17.5 61.5q1 50 21.5 107.5t55.5 102.5zM295 760h49q-21 -36 -36 -77t-20 -78q22 -2 39 -21t17 -47q0 -30 -17.5 -50.5t-45.5 -20.5t-45.5 22.5t-17.5 61.5
q1 50 21.5 107.5t55.5 102.5z" />
    <glyph glyph-name="quotedblright" unicode="&#x201d;" horiz-adv-x="390" 
d="M95 466h-49q21 36 36 77t20 78q-22 2 -39 21t-17 47q0 30 17.5 50.5t45.5 20.5t45.5 -22.5t17.5 -61.5q-1 -50 -21.5 -107.5t-55.5 -102.5zM265 466h-49q21 36 36 77t20 78q-22 2 -39 21t-17 47q0 30 17.5 50.5t45.5 20.5t45.5 -22.5t17.5 -61.5q-1 -50 -21.5 -107.5
t-55.5 -102.5z" />
    <glyph glyph-name="quotedblbase" unicode="&#x201e;" horiz-adv-x="390" 
d="M95 -165h-49q21 36 36 77t20 78q-22 2 -39 21t-17 47q0 30 17.5 50.5t45.5 20.5t45.5 -22.5t17.5 -61.5q-1 -50 -21.5 -107.5t-55.5 -102.5zM265 -165h-49q21 36 36 77t20 78q-22 2 -39 21t-17 47q0 30 17.5 50.5t45.5 20.5t45.5 -22.5t17.5 -61.5q-1 -50 -21.5 -107.5
t-55.5 -102.5z" />
    <glyph glyph-name="dagger" unicode="&#x2020;" horiz-adv-x="503" 
d="M207 452h-177v80h177v228h90v-228h176v-80h-176v-560h-90v560z" />
    <glyph glyph-name="daggerdbl" unicode="&#x2021;" horiz-adv-x="503" 
d="M207 452h-177v80h177v228h90v-228h176v-80h-176v-252h176v-80h-176v-228h-90v228h-177v80h177v252z" />
    <glyph glyph-name="bullet" unicode="&#x2022;" horiz-adv-x="385" 
d="M192 151q-51 0 -85.5 34.5t-34.5 85.5q0 52 34.5 86.5t85.5 34.5q52 0 86.5 -34.5t34.5 -86.5q0 -51 -34.5 -85.5t-86.5 -34.5z" />
    <glyph glyph-name="ellipsis" unicode="&#x2026;" horiz-adv-x="1000" 
d="M103 58q0 30 17.5 50.5t45.5 20.5t45.5 -20.5t17.5 -50.5t-17.5 -50.5t-45.5 -20.5t-45.5 20.5t-17.5 50.5zM437 58q0 30 17.5 50.5t45.5 20.5t45.5 -20.5t17.5 -50.5t-17.5 -50.5t-45.5 -20.5t-45.5 20.5t-17.5 50.5zM771 58q0 30 17.5 50.5t45.5 20.5t45.5 -20.5
t17.5 -50.5t-17.5 -50.5t-45.5 -20.5t-45.5 20.5t-17.5 50.5z" />
    <glyph glyph-name="perthousand" unicode="&#x2030;" horiz-adv-x="1252" 
d="M25 561q0 52 20 96t58.5 70.5t94.5 26.5q55 0 93 -26.5t58 -70.5t20 -96t-20 -96t-58 -70.5t-93 -26.5q-56 0 -94.5 26.5t-58.5 70.5t-20 96zM289 561q0 56 -23 92.5t-68 36.5q-46 0 -69.5 -36.5t-23.5 -92.5q0 -55 23.5 -92t69.5 -37q45 0 68 37t23 92zM634 741h88
l-498 -741h-88zM489 180q0 52 20 96t58.5 70.5t94.5 26.5q55 0 93 -26.5t58 -70.5t20 -96t-20 -96t-58 -70.5t-93 -26.5q-56 0 -94.5 26.5t-58.5 70.5t-20 96zM753 180q0 56 -23 92.5t-68 36.5q-46 0 -69.5 -36.5t-23.5 -92.5q0 -55 23.5 -92t69.5 -37q45 0 68 37t23 92z
M883 180q0 52 20 96t58.5 70.5t94.5 26.5q55 0 93 -26.5t58 -70.5t20 -96t-20 -96t-58 -70.5t-93 -26.5q-56 0 -94.5 26.5t-58.5 70.5t-20 96zM1147 180q0 56 -23 92.5t-68 36.5q-46 0 -69.5 -36.5t-23.5 -92.5q0 -55 23.5 -92t69.5 -37q45 0 68 37t23 92z" />
    <glyph glyph-name="minute" unicode="&#x2032;" horiz-adv-x="265" 
d="M107 748q11 5 25 8.5t27 3.5q14 0 25 -3.5t20 -8.5l-89 -250h-54z" />
    <glyph glyph-name="second" unicode="&#x2033;" horiz-adv-x="422" 
d="M107 748q11 5 25 8.5t27 3.5q14 0 25 -3.5t20 -8.5l-89 -250h-54zM264 748q11 5 25 8.5t27 3.5q14 0 25 -3.5t20 -8.5l-89 -250h-54z" />
    <glyph glyph-name="guilsinglleft" unicode="&#x2039;" horiz-adv-x="360" 
d="M208 493h92l-151 -221l151 -219h-92l-158 219z" />
    <glyph glyph-name="guilsinglright" unicode="&#x203a;" horiz-adv-x="360" 
d="M60 493h92l158 -221l-158 -219h-92l151 219z" />
    <glyph glyph-name="fraction" unicode="&#x2044;" horiz-adv-x="70" 
d="M240 741h88l-498 -741h-88z" />
    <glyph glyph-name="uni2070" unicode="&#x2070;" horiz-adv-x="436" 
d="M58 661q0 98 40 148.5t120 50.5t120 -50.5t40 -148.5q0 -97 -41 -148t-119 -51q-79 0 -119.5 52t-40.5 147zM135 661q0 -141 83 -141t83 141t-83 141t-83 -141z" />
    <glyph glyph-name="uni2074" unicode="&#x2074;" horiz-adv-x="420" 
d="M254 851h75v-245h69l-5 -56h-64v-81h-72v81h-237v44zM103 606h154v170z" />
    <glyph glyph-name="uni2075" unicode="&#x2075;" horiz-adv-x="385" 
d="M94 851h224l-7 -58h-157l-10 -77q19 4 41 4q67 0 106.5 -34t39.5 -90q0 -61 -47 -97.5t-122 -36.5q-31 0 -60.5 6.5t-57.5 19.5l6 61q23 -13 49 -21t54 -8q44 0 72.5 19.5t28.5 56.5q0 34 -26 54t-77 20q-40 0 -81 -12z" />
    <glyph glyph-name="uni2076" unicode="&#x2076;" horiz-adv-x="420" 
d="M343 842l-10 -60q-21 11 -40.5 15.5t-34.5 4.5q-61 0 -88.5 -34.5t-33.5 -90.5q16 23 43 35.5t59 12.5q58 0 95 -34.5t37 -92.5q0 -60 -41.5 -98t-109.5 -38q-75 0 -118 47.5t-43 133.5q0 111 54 164t142 53q24 0 47 -4.5t42 -13.5zM159 546.5q21 -26.5 59 -26.5
q33 0 54 20.5t21 53.5q0 35 -21 55.5t-55 20.5q-29 0 -52 -15.5t-30 -39.5q3 -42 24 -68.5z" />
    <glyph glyph-name="uni2077" unicode="&#x2077;" horiz-adv-x="368" 
d="M267 793h-227l6 58h298l-6 -56q-36 -54 -62.5 -96t-45 -78.5t-31.5 -72.5t-22 -79h-80q14 55 35.5 104t54.5 102t80 118z" />
    <glyph glyph-name="uni2078" unicode="&#x2078;" horiz-adv-x="430" 
d="M214 860q62 0 102 -27.5t40 -68.5q0 -29 -20 -52.5t-64 -40.5q49 -16 75 -38.5t26 -59.5q0 -49 -45 -80t-115 -31q-69 0 -112.5 30.5t-43.5 77.5q0 37 26 61t72 39q-42 14 -62 37.5t-20 53.5q0 41 40 70t101 29zM214 520q35 0 58.5 15.5t23.5 43.5q0 23 -19.5 39
t-65.5 26q-36 -10 -56.5 -25.5t-20.5 -41.5t23 -41.5t57 -15.5zM220 696q66 17 66 62q0 20 -19.5 34t-51.5 14q-31 0 -51.5 -14t-20.5 -35q0 -43 77 -61z" />
    <glyph glyph-name="uni2079" unicode="&#x2079;" horiz-adv-x="420" 
d="M72 481l7 64q20 -13 42 -19t42 -6q59 0 87 35t34 93q-16 -23 -43.5 -35t-59.5 -12q-57 0 -94 35t-37 90q0 59 43 96.5t110 37.5q74 0 116.5 -50.5t42.5 -136.5q0 -106 -54 -158.5t-142 -52.5q-55 0 -94 19zM285 711q-3 40 -23.5 65.5t-57.5 25.5q-34 0 -55.5 -20
t-21.5 -53q0 -31 21.5 -52t55.5 -21q28 0 51 15t30 40z" />
    <glyph glyph-name="uni2080" unicode="&#x2080;" horiz-adv-x="436" 
d="M58 82q0 98 40 148.5t120 50.5t120 -50.5t40 -148.5q0 -97 -41 -148t-119 -51q-79 0 -119.5 52t-40.5 147zM135 82q0 -141 83 -141t83 141t-83 141t-83 -141z" />
    <glyph glyph-name="uni2081" unicode="&#x2081;" horiz-adv-x="380" 
d="M234 -48h91v-62h-264v62h101v243l-90 -42l-5 60l117 59h50v-320z" />
    <glyph glyph-name="uni2082" unicode="&#x2082;" horiz-adv-x="395" 
d="M185 77q73 45 73 90q0 26 -21.5 41t-56.5 15q-60 0 -113 -42l-4 65q27 17 60.5 26t67.5 9q66 0 104 -31.5t38 -81.5q0 -35 -22.5 -64.5t-72.5 -61.5q-44 -27 -65.5 -47.5t-31.5 -46.5h203l-6 -58h-285q0 59 32.5 102.5t99.5 84.5z" />
    <glyph glyph-name="uni2083" unicode="&#x2083;" horiz-adv-x="381" 
d="M231 215h-178l5 57h258l-5 -49l-106 -101q58 -4 90.5 -33.5t32.5 -76.5q0 -58 -47 -93.5t-122 -35.5q-31 0 -62 6.5t-57 19.5l6 61q23 -13 51 -21t56 -8q44 0 71 20t27 53q0 32 -24.5 48.5t-62.5 16.5q-14 0 -24.5 -2t-18.5 -4v34z" />
    <glyph glyph-name="uni2084" unicode="&#x2084;" horiz-adv-x="420" 
d="M254 272h75v-245h69l-5 -56h-64v-81h-72v81h-237v44zM103 27h154v170z" />
    <glyph glyph-name="uni2085" unicode="&#x2085;" horiz-adv-x="385" 
d="M94 272h224l-7 -58h-157l-10 -77q19 4 41 4q67 0 106.5 -34t39.5 -90q0 -61 -47 -97.5t-122 -36.5q-31 0 -60.5 6.5t-57.5 19.5l6 61q23 -13 49 -21t54 -8q44 0 72.5 19.5t28.5 56.5q0 34 -26 54t-77 20q-40 0 -81 -12z" />
    <glyph glyph-name="uni2086" unicode="&#x2086;" horiz-adv-x="420" 
d="M343 263l-10 -60q-21 11 -40.5 15.5t-34.5 4.5q-61 0 -88.5 -34.5t-33.5 -90.5q16 23 43 35.5t59 12.5q58 0 95 -34.5t37 -92.5q0 -60 -41.5 -98t-109.5 -38q-75 0 -118 47.5t-43 133.5q0 111 54 164t142 53q24 0 47 -4.5t42 -13.5zM159 -32.5q21 -26.5 59 -26.5
q33 0 54 20.5t21 53.5q0 35 -21 55.5t-55 20.5q-29 0 -52 -15.5t-30 -39.5q3 -42 24 -68.5z" />
    <glyph glyph-name="uni2087" unicode="&#x2087;" horiz-adv-x="368" 
d="M267 214h-227l6 58h298l-6 -56q-36 -54 -62.5 -96t-45 -78.5t-31.5 -72.5t-22 -79h-80q14 55 35.5 104t54.5 102t80 118z" />
    <glyph glyph-name="uni2088" unicode="&#x2088;" horiz-adv-x="430" 
d="M214 281q62 0 102 -27.5t40 -68.5q0 -29 -20 -52.5t-64 -40.5q49 -16 75 -38.5t26 -59.5q0 -49 -45 -80t-115 -31q-69 0 -112.5 30.5t-43.5 77.5q0 37 26 61t72 39q-42 14 -62 37.5t-20 53.5q0 41 40 70t101 29zM214 -59q35 0 58.5 15.5t23.5 43.5q0 23 -19.5 39
t-65.5 26q-36 -10 -56.5 -25.5t-20.5 -41.5t23 -41.5t57 -15.5zM220 117q66 17 66 62q0 20 -19.5 34t-51.5 14q-31 0 -51.5 -14t-20.5 -35q0 -43 77 -61z" />
    <glyph glyph-name="uni2089" unicode="&#x2089;" horiz-adv-x="420" 
d="M72 -98l7 64q20 -13 42 -19t42 -6q59 0 87 35t34 93q-16 -23 -43.5 -35t-59.5 -12q-57 0 -94 35t-37 90q0 59 43 96.5t110 37.5q74 0 116.5 -50.5t42.5 -136.5q0 -106 -54 -158.5t-142 -52.5q-55 0 -94 19zM285 132q-3 40 -23.5 65.5t-57.5 25.5q-34 0 -55.5 -20
t-21.5 -53q0 -31 21.5 -52t55.5 -21q28 0 51 15t30 40z" />
    <glyph glyph-name="Euro" unicode="&#x20ac;" 
d="M96 250h-77v78h67q-1 20 -1 41q0 26 2 51h-68v78h80q29 119 108 187.5t193 68.5q57 0 106.5 -14.5t89.5 -40.5l-26 -88q-43 35 -83.5 48.5t-81.5 13.5q-80 0 -132.5 -47t-74.5 -128h338l-23 -78h-328q-2 -23 -2 -48q0 -23 2 -44h301l-23 -78h-267q22 -88 76 -135.5
t137 -47.5q50 0 97.5 15.5t80.5 48.5l10 -96q-34 -22 -87.5 -35t-109.5 -13q-122 0 -200.5 69t-103.5 194z" />
    <glyph glyph-name="uni20B9" unicode="&#x20b9;" 
d="M92 317v70h123q70 0 114.5 26t56.5 74h-294v77h294q-12 48 -56 74t-115 26h-123v77h498l-23 -77h-144q53 -38 65 -100h102l-23 -77h-78q-13 -81 -81.5 -127t-177.5 -46h-6l315 -314h-125z" />
    <glyph glyph-name="uni20BA" unicode="&#x20ba;" 
d="M150 267l-96 -52v81l96 52v92l-96 -52v82l96 52v219h96v-167l144 78v-82l-144 -78v-92l144 78v-81l-144 -78v-238h18q81 0 129.5 25.5t73.5 75t35 121.5l91 -15q-14 -88 -52 -152.5t-105.5 -100t-172.5 -35.5h-113v267z" />
    <glyph glyph-name="uni20BD" unicode="&#x20bd;" 
d="M120 741h178q128 0 205.5 -54t77.5 -162q0 -109 -77.5 -162.5t-205.5 -53.5h-82v-92h216l-23 -77h-193v-140h-96v140h-91v77h91v92h-91v77h91v355zM297 386q89 0 136 34.5t47 104.5q0 69 -47 104t-136 35h-81v-278h81z" />
    <glyph glyph-name="trademark" unicode="&#x2122;" horiz-adv-x="746" 
d="M338 741h76l114 -248l117 248h72l9 -367h-68l-6 249l-101 -214h-51l-94 207l-5 -242h-71zM191 374h-74v305h-97v62h267v-62h-96v-305z" />
    <glyph glyph-name="uni2150" unicode="&#x2150;" horiz-adv-x="818" 
d="M234 421h91v-62h-264v62h101v243l-90 -42l-5 60l117 59h50v-320zM616 741h88l-498 -741h-88zM717 324h-227l6 58h298l-6 -56q-36 -54 -62.5 -96t-45 -78.5t-31.5 -72.5t-22 -79h-80q14 55 35.5 104t54.5 102t80 118z" />
    <glyph glyph-name="uni2151" unicode="&#x2151;" horiz-adv-x="870" 
d="M234 421h91v-62h-264v62h101v243l-90 -42l-5 60l117 59h50v-320zM633 741h88l-498 -741h-88zM522 12l7 64q20 -13 42 -19t42 -6q59 0 87 35t34 93q-16 -23 -43.5 -35t-59.5 -12q-57 0 -94 35t-37 90q0 59 43 96.5t110 37.5q74 0 116.5 -50.5t42.5 -136.5
q0 -106 -54 -158.5t-142 -52.5q-55 0 -94 19zM735 242q-3 40 -23.5 65.5t-57.5 25.5q-34 0 -55.5 -20t-21.5 -53q0 -31 21.5 -52t55.5 -21q28 0 51 15t30 40z" />
    <glyph glyph-name="uni2153" unicode="&#x2153;" horiz-adv-x="831" 
d="M234 421h91v-62h-264v62h101v243l-90 -42l-5 60l117 59h50v-320zM620 741h88l-498 -741h-88zM681 325h-178l5 57h258l-5 -49l-106 -101q58 -4 90.5 -33.5t32.5 -76.5q0 -58 -47 -93.5t-122 -35.5q-31 0 -62 6.5t-57 19.5l6 61q23 -13 51 -21t56 -8q44 0 71 20t27 53
q0 32 -24.5 48.5t-62.5 16.5q-14 0 -24.5 -2t-18.5 -4v34z" />
    <glyph glyph-name="uni2154" unicode="&#x2154;" horiz-adv-x="846" 
d="M185 546q73 45 73 90q0 26 -21.5 41t-56.5 15q-60 0 -113 -42l-4 65q27 17 60.5 26t67.5 9q66 0 104 -31.5t38 -81.5q0 -35 -22.5 -64.5t-72.5 -61.5q-44 -27 -65.5 -47.5t-31.5 -46.5h203l-6 -58h-285q0 59 32.5 102.5t99.5 84.5zM635 741h88l-498 -741h-88zM696 325
h-178l5 57h258l-5 -49l-106 -101q58 -4 90.5 -33.5t32.5 -76.5q0 -58 -47 -93.5t-122 -35.5q-31 0 -62 6.5t-57 19.5l6 61q23 -13 51 -21t56 -8q44 0 71 20t27 53q0 32 -24.5 48.5t-62.5 16.5q-14 0 -24.5 -2t-18.5 -4v34z" />
    <glyph glyph-name="uni2155" unicode="&#x2155;" horiz-adv-x="835" 
d="M234 421h91v-62h-264v62h101v243l-90 -42l-5 60l117 59h50v-320zM630 741h88l-498 -741h-88zM544 382h224l-7 -58h-157l-10 -77q19 4 41 4q67 0 106.5 -34t39.5 -90q0 -61 -47 -97.5t-122 -36.5q-31 0 -60.5 6.5t-57.5 19.5l6 61q23 -13 49 -21t54 -8q44 0 72.5 19.5
t28.5 56.5q0 34 -26 54t-77 20q-40 0 -81 -12z" />
    <glyph glyph-name="uni2156" unicode="&#x2156;" horiz-adv-x="850" 
d="M185 546q73 45 73 90q0 26 -21.5 41t-56.5 15q-60 0 -113 -42l-4 65q27 17 60.5 26t67.5 9q66 0 104 -31.5t38 -81.5q0 -35 -22.5 -64.5t-72.5 -61.5q-44 -27 -65.5 -47.5t-31.5 -46.5h203l-6 -58h-285q0 59 32.5 102.5t99.5 84.5zM645 741h88l-498 -741h-88zM559 382
h224l-7 -58h-157l-10 -77q19 4 41 4q67 0 106.5 -34t39.5 -90q0 -61 -47 -97.5t-122 -36.5q-31 0 -60.5 6.5t-57.5 19.5l6 61q23 -13 49 -21t54 -8q44 0 72.5 19.5t28.5 56.5q0 34 -26 54t-77 20q-40 0 -81 -12z" />
    <glyph glyph-name="uni2157" unicode="&#x2157;" horiz-adv-x="836" 
d="M231 684h-178l5 57h258l-5 -49l-106 -101q58 -4 90.5 -33.5t32.5 -76.5q0 -58 -47 -93.5t-122 -35.5q-31 0 -62 6.5t-57 19.5l6 61q23 -13 51 -21t56 -8q44 0 71 20t27 53q0 32 -24.5 48.5t-62.5 16.5q-14 0 -24.5 -2t-18.5 -4v34zM611 741h88l-498 -741h-88zM545 382
h224l-7 -58h-157l-10 -77q19 4 41 4q67 0 106.5 -34t39.5 -90q0 -61 -47 -97.5t-122 -36.5q-31 0 -60.5 6.5t-57.5 19.5l6 61q23 -13 49 -21t54 -8q44 0 72.5 19.5t28.5 56.5q0 34 -26 54t-77 20q-40 0 -81 -12z" />
    <glyph glyph-name="uni2158" unicode="&#x2158;" horiz-adv-x="875" 
d="M254 741h75v-245h69l-5 -56h-64v-81h-72v81h-237v44zM103 496h154v170zM662 741h88l-498 -741h-88zM584 382h224l-7 -58h-157l-10 -77q19 4 41 4q67 0 106.5 -34t39.5 -90q0 -61 -47 -97.5t-122 -36.5q-31 0 -60.5 6.5t-57.5 19.5l6 61q23 -13 49 -21t54 -8
q44 0 72.5 19.5t28.5 56.5q0 34 -26 54t-77 20q-40 0 -81 -12z" />
    <glyph glyph-name="uni2159" unicode="&#x2159;" horiz-adv-x="870" 
d="M234 421h91v-62h-264v62h101v243l-90 -42l-5 60l117 59h50v-320zM640 741h88l-498 -741h-88zM793 373l-10 -60q-21 11 -40.5 15.5t-34.5 4.5q-61 0 -88.5 -34.5t-33.5 -90.5q16 23 43 35.5t59 12.5q58 0 95 -34.5t37 -92.5q0 -60 -41.5 -98t-109.5 -38q-75 0 -118 47.5
t-43 133.5q0 111 54 164t142 53q24 0 47 -4.5t42 -13.5zM609 77.5q21 -26.5 59 -26.5q33 0 54 20.5t21 53.5q0 35 -21 55.5t-55 20.5q-29 0 -52 -15.5t-30 -39.5q3 -42 24 -68.5z" />
    <glyph glyph-name="uni215A" unicode="&#x215a;" horiz-adv-x="875" 
d="M94 741h224l-7 -58h-157l-10 -77q19 4 41 4q67 0 106.5 -34t39.5 -90q0 -61 -47 -97.5t-122 -36.5q-31 0 -60.5 6.5t-57.5 19.5l6 61q23 -13 49 -21t54 -8q44 0 72.5 19.5t28.5 56.5q0 34 -26 54t-77 20q-40 0 -81 -12zM633 741h88l-498 -741h-88zM798 373l-10 -60
q-21 11 -40.5 15.5t-34.5 4.5q-61 0 -88.5 -34.5t-33.5 -90.5q16 23 43 35.5t59 12.5q58 0 95 -34.5t37 -92.5q0 -60 -41.5 -98t-109.5 -38q-75 0 -118 47.5t-43 133.5q0 111 54 164t142 53q24 0 47 -4.5t42 -13.5zM614 77.5q21 -26.5 59 -26.5q33 0 54 20.5t21 53.5
q0 35 -21 55.5t-55 20.5q-29 0 -52 -15.5t-30 -39.5q3 -42 24 -68.5z" />
    <glyph glyph-name="oneeighth" unicode="&#x215b;" horiz-adv-x="880" 
d="M234 421h91v-62h-264v62h101v243l-90 -42l-5 60l117 59h50v-320zM640 741h88l-498 -741h-88zM664 391q62 0 102 -27.5t40 -68.5q0 -29 -20 -52.5t-64 -40.5q49 -16 75 -38.5t26 -59.5q0 -49 -45 -80t-115 -31q-69 0 -112.5 30.5t-43.5 77.5q0 37 26 61t72 39
q-42 14 -62 37.5t-20 53.5q0 41 40 70t101 29zM664 51q35 0 58.5 15.5t23.5 43.5q0 23 -19.5 39t-65.5 26q-36 -10 -56.5 -25.5t-20.5 -41.5t23 -41.5t57 -15.5zM670 227q66 17 66 62q0 20 -19.5 34t-51.5 14q-31 0 -51.5 -14t-20.5 -35q0 -43 77 -61z" />
    <glyph glyph-name="threeeighths" unicode="&#x215c;" horiz-adv-x="881" 
d="M231 684h-178l5 57h258l-5 -49l-106 -101q58 -4 90.5 -33.5t32.5 -76.5q0 -58 -47 -93.5t-122 -35.5q-31 0 -62 6.5t-57 19.5l6 61q23 -13 51 -21t56 -8q44 0 71 20t27 53q0 32 -24.5 48.5t-62.5 16.5q-14 0 -24.5 -2t-18.5 -4v34zM621 741h88l-498 -741h-88zM665 391
q62 0 102 -27.5t40 -68.5q0 -29 -20 -52.5t-64 -40.5q49 -16 75 -38.5t26 -59.5q0 -49 -45 -80t-115 -31q-69 0 -112.5 30.5t-43.5 77.5q0 37 26 61t72 39q-42 14 -62 37.5t-20 53.5q0 41 40 70t101 29zM665 51q35 0 58.5 15.5t23.5 43.5q0 23 -19.5 39t-65.5 26
q-36 -10 -56.5 -25.5t-20.5 -41.5t23 -41.5t57 -15.5zM671 227q66 17 66 62q0 20 -19.5 34t-51.5 14q-31 0 -51.5 -14t-20.5 -35q0 -43 77 -61z" />
    <glyph glyph-name="fiveeighths" unicode="&#x215d;" horiz-adv-x="885" 
d="M94 741h224l-7 -58h-157l-10 -77q19 4 41 4q67 0 106.5 -34t39.5 -90q0 -61 -47 -97.5t-122 -36.5q-31 0 -60.5 6.5t-57.5 19.5l6 61q23 -13 49 -21t54 -8q44 0 72.5 19.5t28.5 56.5q0 34 -26 54t-77 20q-40 0 -81 -12zM625 741h88l-498 -741h-88zM669 391
q62 0 102 -27.5t40 -68.5q0 -29 -20 -52.5t-64 -40.5q49 -16 75 -38.5t26 -59.5q0 -49 -45 -80t-115 -31q-69 0 -112.5 30.5t-43.5 77.5q0 37 26 61t72 39q-42 14 -62 37.5t-20 53.5q0 41 40 70t101 29zM669 51q35 0 58.5 15.5t23.5 43.5q0 23 -19.5 39t-65.5 26
q-36 -10 -56.5 -25.5t-20.5 -41.5t23 -41.5t57 -15.5zM675 227q66 17 66 62q0 20 -19.5 34t-51.5 14q-31 0 -51.5 -14t-20.5 -35q0 -43 77 -61z" />
    <glyph glyph-name="seveneighths" unicode="&#x215e;" horiz-adv-x="838" 
d="M267 683h-227l6 58h298l-6 -56q-36 -54 -62.5 -96t-45 -78.5t-31.5 -72.5t-22 -79h-80q14 55 35.5 104t54.5 102t80 118zM578 741h88l-498 -741h-88zM622 391q62 0 102 -27.5t40 -68.5q0 -29 -20 -52.5t-64 -40.5q49 -16 75 -38.5t26 -59.5q0 -49 -45 -80t-115 -31
q-69 0 -112.5 30.5t-43.5 77.5q0 37 26 61t72 39q-42 14 -62 37.5t-20 53.5q0 41 40 70t101 29zM622 51q35 0 58.5 15.5t23.5 43.5q0 23 -19.5 39t-65.5 26q-36 -10 -56.5 -25.5t-20.5 -41.5t23 -41.5t57 -15.5zM628 227q66 17 66 62q0 20 -19.5 34t-51.5 14
q-31 0 -51.5 -14t-20.5 -35q0 -43 77 -61z" />
    <glyph glyph-name="arrowleft" unicode="&#x2190;" horiz-adv-x="915" 
d="M80 370l341 313l47 -52l-260 -229l627 4v-72l-627 4l260 -229l-47 -52z" />
    <glyph glyph-name="arrowup" unicode="&#x2191;" horiz-adv-x="786" 
d="M431 -8h-76l4 627l-227 -260l-52 47l313 342l313 -342l-52 -47l-227 260z" />
    <glyph glyph-name="arrowright" unicode="&#x2192;" horiz-adv-x="915" 
d="M835 370l-341 -313l-47 52l260 229l-627 -4v72l627 -4l-260 229l47 52z" />
    <glyph glyph-name="arrowdown" unicode="&#x2193;" horiz-adv-x="786" 
d="M355 748h76l-4 -627l227 260l52 -47l-313 -342l-313 342l52 47l227 -260z" />
    <glyph glyph-name="partialdiff" unicode="&#x2202;" 
d="M481 114q-41 -60 -97.5 -93.5t-124.5 -33.5q-87 0 -137 57.5t-50 157.5q0 64 19 123.5t54 106t83 73.5t105 27q79 0 138 -52q-7 89 -43.5 140.5t-114.5 87.5l42 68q77 -33 123.5 -78.5t67.5 -109t21 -153.5q0 -97 -22.5 -179t-63.5 -142zM471 396q-51 61 -120 61
q-50 0 -92 -34t-67 -92t-25 -129q0 -68 24 -102.5t68 -34.5q55 0 101 43t75.5 118t35.5 170z" />
    <glyph glyph-name="uni2206" unicode="&#x2206;" horiz-adv-x="710" 
d="M306 741h97l264 -667v-74h-625v74zM352 643l-215 -562h430z" />
    <glyph glyph-name="product" unicode="&#x220f;" horiz-adv-x="680" 
d="M76 741h528v-849h-91v768h-346v-768h-91v849z" />
    <glyph glyph-name="summation" unicode="&#x2211;" 
d="M276 331l-228 344v66h518l-9 -78h-399l215 -329l-223 -365h421v-78h-523v64z" />
    <glyph glyph-name="minus" unicode="&#x2212;" 
d="M87 384h476v-78h-476v78z" />
    <glyph glyph-name="uni2215" unicode="&#x2215;" horiz-adv-x="606" 
d="M508 741h88l-498 -741h-88z" />
    <glyph glyph-name="uni2219" unicode="&#x2219;" horiz-adv-x="270" 
d="M72 370q0 30 17.5 50.5t45.5 20.5t45.5 -20.5t17.5 -50.5t-17.5 -50.5t-45.5 -20.5t-45.5 20.5t-17.5 50.5z" />
    <glyph glyph-name="radical" unicode="&#x221a;" 
d="M349 0h-95l-127 314h-81v78h143l113 -294l224 643h91z" />
    <glyph glyph-name="infinity" unicode="&#x221e;" horiz-adv-x="700" 
d="M491 186q-46 0 -80 23.5t-57 59.5q-26 -40 -62.5 -61.5t-82.5 -21.5q-66 0 -109 42.5t-43 112.5q0 48 20 84.5t54.5 57.5t77.5 21q46 0 80 -23.5t57 -59.5q26 40 62.5 61.5t82.5 21.5q66 0 109 -42.5t43 -112.5q0 -47 -20 -84t-54 -58t-78 -21zM160.5 407.5
q-21.5 -24.5 -21.5 -64.5q0 -37 20.5 -61t51.5 -24q64 0 101 95q-17 36 -42.5 57.5t-56.5 21.5t-52.5 -24.5zM539.5 282.5q21.5 24.5 21.5 64.5q0 38 -20.5 61.5t-51.5 23.5q-64 0 -101 -95q17 -36 42.5 -57.5t56.5 -21.5t52.5 24.5z" />
    <glyph glyph-name="integral" unicode="&#x222b;" 
d="M280 557q0 105 51 160.5t151 55.5q51 0 87 -13l-9 -75q-23 13 -68 13q-122 0 -122 -131v-581q0 -105 -50.5 -160.5t-151.5 -55.5q-25 0 -48 3.5t-39 8.5l8 77q25 -14 69 -14q122 0 122 131v581z" />
    <glyph glyph-name="approxequal" unicode="&#x2248;" 
d="M446 372q-33 0 -59.5 11t-70.5 42q-33 25 -52 37t-30.5 16.5t-23.5 4.5q-31 0 -46 -25t-22 -88l-82 20q8 80 47.5 129.5t96.5 49.5q33 0 60 -11t70 -42q34 -24 52.5 -36.5t30.5 -17t23 -4.5q31 0 46 25t22 88l82 -20q-7 -79 -47 -129t-97 -50zM446 122q-33 0 -59.5 11
t-70.5 42q-33 25 -52 37t-30.5 16.5t-23.5 4.5q-31 0 -46 -25t-22 -88l-82 20q8 80 47.5 129.5t96.5 49.5q33 0 60 -11t70 -42q34 -24 52.5 -36.5t30.5 -17t23 -4.5q31 0 46 25t22 88l82 -20q-7 -79 -47 -129t-97 -50z" />
    <glyph glyph-name="notequal" unicode="&#x2260;" 
d="M337 257h226v-78h-255l-51 -140l-77 28l41 112h-134v78h162l64 175h-226v78h255l51 140l77 -28l-41 -112h134v-78h-162z" />
    <glyph glyph-name="lessequal" unicode="&#x2264;" 
d="M87 391v62l476 198v-85l-365 -144l365 -144v-85zM87 112h476v-78h-476v78z" />
    <glyph glyph-name="greaterequal" unicode="&#x2265;" 
d="M563 453v-62l-476 -198v85l365 144l-365 144v85zM87 112h476v-78h-476v78z" />
    <glyph glyph-name="midlinehorizontalellipsis" unicode="&#x22ef;" horiz-adv-x="874" 
d="M80 370q0 30 17.5 50.5t45.5 20.5t45.5 -20.5t17.5 -50.5t-17.5 -50.5t-45.5 -20.5t-45.5 20.5t-17.5 50.5zM374 370q0 30 17.5 50.5t45.5 20.5t45.5 -20.5t17.5 -50.5t-17.5 -50.5t-45.5 -20.5t-45.5 20.5t-17.5 50.5zM668 370q0 30 17.5 50.5t45.5 20.5t45.5 -20.5
t17.5 -50.5t-17.5 -50.5t-45.5 -20.5t-45.5 20.5t-17.5 50.5z" />
    <glyph glyph-name="upArrowHead" unicode="&#x2303;" horiz-adv-x="734" 
d="M654 239l-52 -50l-236 259l-234 -259l-52 50l287 313z" />
    <glyph glyph-name="downArrowHead" unicode="&#x2304;" horiz-adv-x="734" 
d="M80 502l52 50l236 -259l234 259l52 -50l-287 -313z" />
    <glyph glyph-name="lozenge" unicode="&#x25ca;" 
d="M56 378l232 376h77l230 -376l-230 -378h-77zM497 377l-172 280l-169 -280l169 -280z" />
    <glyph glyph-name="heavenTrigram" unicode="&#x2630;" horiz-adv-x="656" 
d="M576 150h-496v67h496v-67zM576 337h-496v67h496v-67zM576 524h-496v67h496v-67z" />
    <glyph glyph-name="checkmark" unicode="&#x2713;" horiz-adv-x="703" 
d="M568 611l55 -44l-342 -437l-201 184l49 54l145 -138z" />
    <glyph glyph-name="ballotX" unicode="&#x2717;" horiz-adv-x="618" 
d="M129 141l-49 49l182 180l-182 180l49 49l180 -182l180 182l49 -49l-182 -180l182 -180l-49 -49l-180 182z" />
    <glyph glyph-name="anglebracketleft" unicode="&#x27e8;" horiz-adv-x="510" 
d="M80 370l303 277l47 -52l-246 -225l246 -225l-47 -52z" />
    <glyph glyph-name="anglebracketright" unicode="&#x27e9;" horiz-adv-x="510" 
d="M430 370l-303 -277l-47 52l246 225l-246 225l47 52z" />
    <glyph glyph-name="clockwiseGappedCircleArrow" unicode="&#x27f3;" horiz-adv-x="743" 
d="M80 371q0 83 38.5 148t105 103t150.5 38q56 0 112.5 -23.5t97.5 -64.5l77 80v-206h-206l82 78q-31 33 -75 53t-88 20q-62 0 -112.5 -30t-80 -81t-29.5 -115t29.5 -115.5t80 -81.5t112.5 -30q50 0 95 22.5t77.5 61.5t43.5 87h73q-13 -66 -56 -119t-104 -84t-129 -31
q-84 0 -150.5 38t-105 103.5t-38.5 148.5z" />
    <glyph glyph-name="blackMediumUpTriangleCentred" unicode="&#x2bc5;" horiz-adv-x="663" 
d="M583 232h-503l251 276z" />
    <glyph glyph-name="blackMediumDownTriangleCentred" unicode="&#x2bc6;" horiz-adv-x="663" 
d="M80 508h503l-251 -276z" />
    <glyph glyph-name="blackMediumLeftTriangleCentred" unicode="&#x2bc7;" horiz-adv-x="435" 
d="M355 118l-275 253l275 252v-505z" />
    <glyph glyph-name="blackMediumRightTriangleCentred" unicode="&#x2bc8;" horiz-adv-x="435" 
d="M80 118v505l275 -252z" />
    <glyph glyph-name="uniFB00" unicode="&#xfb00;" horiz-adv-x="750" 
d="M130 464h-90v68h90v30q0 99 52 155t143 56q43 0 82 -12l-9 -80q-11 8 -26.5 12t-35.5 4q-55 0 -85.5 -33.5t-30.5 -97.5v-34h250v30q0 99 52 155t143 56q43 0 82 -12l-9 -80q-11 8 -26.5 12t-35.5 4q-55 0 -85.5 -33.5t-30.5 -97.5v-34h150v-68h-150v-464h-90v464h-250
v-464h-90v464z" />
    <glyph glyph-name="uniFB01" unicode="&#xfb01;" horiz-adv-x="640" 
d="M130 464h-90v68h90v30q0 99 49.5 155t140.5 56q38 0 72 -9l-9 -80q-21 13 -57 13q-54 0 -80 -33.5t-26 -97.5v-34h150v-68h-150v-464h-90v464zM470 464h-120v68h210v-532h-90v464zM456 688q0 27 17 45.5t42 18.5t42 -18.5t17 -45.5t-17 -45.5t-42 -18.5t-42 18.5
t-17 45.5z" />
    <glyph glyph-name="uniFB02" unicode="&#xfb02;" horiz-adv-x="713" 
d="M130 464h-90v68h90v30q0 99 49.5 155t140.5 56q38 0 72 -9l-9 -80q-21 13 -57 13q-54 0 -80 -33.5t-26 -97.5v-34h150v-68h-150v-464h-90v464zM470 760h90v-615q0 -43 16 -61t51 -18q41 0 66 23l-9 -84q-12 -6 -33.5 -10.5t-47.5 -4.5q-68 0 -100.5 36t-32.5 109v625z
" />
    <glyph glyph-name="uniFB03" unicode="&#xfb03;" horiz-adv-x="980" 
d="M130 464h-90v68h90v30q0 99 52 155t143 56q43 0 82 -12l-9 -80q-11 8 -26.5 12t-35.5 4q-55 0 -85.5 -33.5t-30.5 -97.5v-34h250v30q0 99 49.5 155t140.5 56q38 0 72 -9l-9 -80q-21 13 -57 13q-54 0 -80 -33.5t-26 -97.5v-34h150v-68h-150v-464h-90v464h-250v-464h-90
v464zM810 464h-120v68h210v-532h-90v464zM796 688q0 27 17 45.5t42 18.5t42 -18.5t17 -45.5t-17 -45.5t-42 -18.5t-42 18.5t-17 45.5z" />
    <glyph glyph-name="uniFB04" unicode="&#xfb04;" horiz-adv-x="1053" 
d="M130 464h-90v68h90v30q0 99 52 155t143 56q43 0 82 -12l-9 -80q-11 8 -26.5 12t-35.5 4q-55 0 -85.5 -33.5t-30.5 -97.5v-34h250v30q0 99 49.5 155t140.5 56q38 0 72 -9l-9 -80q-21 13 -57 13q-54 0 -80 -33.5t-26 -97.5v-34h150v-68h-150v-464h-90v464h-250v-464h-90
v464zM810 760h90v-615q0 -43 16 -61t51 -18q41 0 66 23l-9 -84q-12 -6 -33.5 -10.5t-47.5 -4.5q-68 0 -100.5 36t-32.5 109v625z" />
    <glyph glyph-name="ellipsis.vert" unicode="&#xfe19;" horiz-adv-x="366" orientation="v" 
d="M183 575q-28 0 -45.5 20.5t-17.5 50.5t17.5 50.5t45.5 20.5t45.5 -20.5t17.5 -50.5t-17.5 -50.5t-45.5 -20.5zM183 24q-28 0 -45.5 20.5t-17.5 50.5t17.5 50.5t45.5 20.5t45.5 -20.5t17.5 -50.5t-17.5 -50.5t-45.5 -20.5zM183 300q-28 0 -45.5 20.5t-17.5 50.5t17.5 50.5
t45.5 20.5t45.5 -20.5t17.5 -50.5t-17.5 -50.5t-45.5 -20.5z" />
    <glyph glyph-name="uniFEFF" unicode="&#xfeff;" horiz-adv-x="0" 
 />
    <glyph glyph-name="dotlessexclam" horiz-adv-x="270" 
d="M74 733q8 10 24.5 18.5t36.5 8.5t36.5 -8.5t24.5 -18.5l-27 -530h-68z" />
    <glyph glyph-name="dotlessquestion" horiz-adv-x="461" 
d="M27 696q35 26 82 42t104 16q62 0 110 -23.5t75.5 -67.5t27.5 -104q0 -50 -25.5 -97t-87.5 -106q-49 -46 -68.5 -80.5t-22.5 -72.5h-68q-2 34 3.5 62t25.5 58.5t59 70.5q46 46 67 83.5t21 76.5q0 61 -35 91t-92 30q-49 0 -90.5 -21.5t-77.5 -62.5z" />
    <glyph glyph-name="zero.pnum" horiz-adv-x="710" 
d="M88 370q0 186 67 285t200 99t200 -99t67 -285q0 -184 -68 -283.5t-199 -99.5t-199 99.5t-68 283.5zM527 370q0 152 -41.5 228.5t-130.5 76.5q-88 0 -130 -76.5t-42 -228.5q0 -151 42 -227.5t130 -76.5t130 76.5t42 227.5z" />
    <glyph glyph-name="one.pnum" horiz-adv-x="431" 
d="M210 639l-169 -98l-7 88l195 112h72v-741h-91v639z" />
    <glyph glyph-name="two.pnum" horiz-adv-x="603" 
d="M366 313q-63 -47 -103 -84.5t-62 -73t-30 -74.5h380l-9 -81h-485q2 59 16 105.5t42 88t73.5 84t109.5 92.5q74 58 105 99.5t31 84.5q0 53 -41.5 85.5t-109.5 32.5q-55 0 -106 -22t-94 -63l-9 100q42 29 99 48t121 19q72 0 125 -25t82 -70.5t29 -106.5q0 -64 -37.5 -119
t-126.5 -120z" />
    <glyph glyph-name="three.pnum" horiz-adv-x="592" 
d="M375 662h-313l8 79h427l-8 -70l-196 -220q111 -1 169 -60t58 -152q0 -73 -35 -130t-98 -89.5t-149 -32.5q-54 0 -105.5 12.5t-94.5 37.5l9 97q42 -33 90.5 -49t93.5 -16q89 0 141 46t52 122q0 74 -44.5 110t-119.5 36q-23 0 -43.5 -3t-36.5 -8v63z" />
    <glyph glyph-name="four.pnum" horiz-adv-x="636" 
d="M413 741h91v-487h96l-6 -78h-90v-176h-90v176h-379v61zM145 254h269v360z" />
    <glyph glyph-name="five.pnum" horiz-adv-x="601" 
d="M133 741h375l-9 -79h-285l-21 -186q39 14 90 14q76 0 131 -30t85 -84t30 -127q0 -79 -35.5 -138t-98.5 -91.5t-146 -32.5q-115 0 -200 50l10 97q85 -65 186 -65q84 0 135 47t51 129q0 78 -46.5 123t-138.5 45q-40 0 -79.5 -8.5t-74.5 -22.5z" />
    <glyph glyph-name="six.pnum" horiz-adv-x="673" 
d="M566 724l-24 -89q-34 21 -66.5 29t-63.5 8q-76 0 -123.5 -38t-72 -100.5t-31.5 -135.5q30 44 77.5 68.5t107.5 24.5q67 0 119 -30.5t82 -87t30 -133.5q0 -74 -30.5 -131t-85 -89.5t-127.5 -32.5q-86 0 -146.5 42.5t-92.5 120t-32 180.5q0 144 41.5 238t116 140t171.5 46
q47 0 85.5 -8.5t64.5 -21.5zM505 235q0 82 -41 129.5t-111 47.5q-64 0 -111 -40t-58 -103q8 -91 52.5 -146t120.5 -55q68 0 108 45.5t40 121.5z" />
    <glyph glyph-name="seven.pnum" horiz-adv-x="571" 
d="M439 660h-412l9 81h518l-8 -75q-85 -126 -144.5 -235.5t-100 -214t-67.5 -216.5h-105q29 107 70 213t99.5 216.5t140.5 230.5z" />
    <glyph glyph-name="eight.pnum" horiz-adv-x="667" 
d="M332 754q66 0 118 -23.5t82 -64.5t30 -94q0 -109 -138 -175q170 -67 170 -194q0 -61 -34.5 -110t-94 -77.5t-134.5 -28.5t-133 26.5t-91.5 73t-33.5 105.5q0 136 161 200q-64 29 -97.5 73.5t-33.5 100.5q0 54 30 96.5t82 67t117 24.5zM331 64q46 0 82.5 18t58 48.5
t21.5 67.5q0 53 -40 90t-135 71q-146 -56 -146 -165q0 -37 20.5 -66.5t56.5 -46.5t82 -17zM199 567q0 -46 34 -79t113 -62q121 52 121 138q0 50 -38 82.5t-97 32.5q-58 0 -95.5 -31.5t-37.5 -80.5z" />
    <glyph glyph-name="nine.pnum" horiz-adv-x="673" 
d="M102 37l9 97q38 -33 81 -49t83 -16q71 0 115.5 39t68 103.5t29.5 139.5q-30 -43 -78 -67t-107 -24q-66 0 -118.5 29t-82.5 83t-30 128t31 131.5t87 90t131 32.5q84 0 143 -42.5t90.5 -119.5t31.5 -181q0 -143 -40.5 -237.5t-109.5 -140.5t-154 -46q-48 0 -95 12.5
t-85 37.5zM168 505q0 -77 41 -121.5t111 -44.5q60 0 107.5 36.5t62.5 94.5q-8 91 -51.5 147t-116.5 56q-71 0 -112.5 -46t-41.5 -122z" />
    <glyph glyph-name="zero.dnom" horiz-adv-x="436" 
d="M58 192q0 98 40 148.5t120 50.5t120 -50.5t40 -148.5q0 -97 -41 -148t-119 -51q-79 0 -119.5 52t-40.5 147zM135 192q0 -141 83 -141t83 141t-83 141t-83 -141z" />
    <glyph glyph-name="one.dnom" horiz-adv-x="380" 
d="M234 62h91v-62h-264v62h101v243l-90 -42l-5 60l117 59h50v-320z" />
    <glyph glyph-name="two.dnom" horiz-adv-x="395" 
d="M185 187q73 45 73 90q0 26 -21.5 41t-56.5 15q-60 0 -113 -42l-4 65q27 17 60.5 26t67.5 9q66 0 104 -31.5t38 -81.5q0 -35 -22.5 -64.5t-72.5 -61.5q-44 -27 -65.5 -47.5t-31.5 -46.5h203l-6 -58h-285q0 59 32.5 102.5t99.5 84.5z" />
    <glyph glyph-name="three.dnom" horiz-adv-x="381" 
d="M231 325h-178l5 57h258l-5 -49l-106 -101q58 -4 90.5 -33.5t32.5 -76.5q0 -58 -47 -93.5t-122 -35.5q-31 0 -62 6.5t-57 19.5l6 61q23 -13 51 -21t56 -8q44 0 71 20t27 53q0 32 -24.5 48.5t-62.5 16.5q-14 0 -24.5 -2t-18.5 -4v34z" />
    <glyph glyph-name="four.dnom" horiz-adv-x="420" 
d="M254 382h75v-245h69l-5 -56h-64v-81h-72v81h-237v44zM103 137h154v170z" />
    <glyph glyph-name="five.dnom" horiz-adv-x="385" 
d="M94 382h224l-7 -58h-157l-10 -77q19 4 41 4q67 0 106.5 -34t39.5 -90q0 -61 -47 -97.5t-122 -36.5q-31 0 -60.5 6.5t-57.5 19.5l6 61q23 -13 49 -21t54 -8q44 0 72.5 19.5t28.5 56.5q0 34 -26 54t-77 20q-40 0 -81 -12z" />
    <glyph glyph-name="six.dnom" horiz-adv-x="420" 
d="M343 373l-10 -60q-21 11 -40.5 15.5t-34.5 4.5q-61 0 -88.5 -34.5t-33.5 -90.5q16 23 43 35.5t59 12.5q58 0 95 -34.5t37 -92.5q0 -60 -41.5 -98t-109.5 -38q-75 0 -118 47.5t-43 133.5q0 111 54 164t142 53q24 0 47 -4.5t42 -13.5zM159 77.5q21 -26.5 59 -26.5
q33 0 54 20.5t21 53.5q0 35 -21 55.5t-55 20.5q-29 0 -52 -15.5t-30 -39.5q3 -42 24 -68.5z" />
    <glyph glyph-name="seven.dnom" horiz-adv-x="368" 
d="M267 324h-227l6 58h298l-6 -56q-36 -54 -62.5 -96t-45 -78.5t-31.5 -72.5t-22 -79h-80q14 55 35.5 104t54.5 102t80 118z" />
    <glyph glyph-name="eight.dnom" horiz-adv-x="430" 
d="M214 391q62 0 102 -27.5t40 -68.5q0 -29 -20 -52.5t-64 -40.5q49 -16 75 -38.5t26 -59.5q0 -49 -45 -80t-115 -31q-69 0 -112.5 30.5t-43.5 77.5q0 37 26 61t72 39q-42 14 -62 37.5t-20 53.5q0 41 40 70t101 29zM214 51q35 0 58.5 15.5t23.5 43.5q0 23 -19.5 39t-65.5 26
q-36 -10 -56.5 -25.5t-20.5 -41.5t23 -41.5t57 -15.5zM220 227q66 17 66 62q0 20 -19.5 34t-51.5 14q-31 0 -51.5 -14t-20.5 -35q0 -43 77 -61z" />
    <glyph glyph-name="nine.dnom" horiz-adv-x="420" 
d="M72 12l7 64q20 -13 42 -19t42 -6q59 0 87 35t34 93q-16 -23 -43.5 -35t-59.5 -12q-57 0 -94 35t-37 90q0 59 43 96.5t110 37.5q74 0 116.5 -50.5t42.5 -136.5q0 -106 -54 -158.5t-142 -52.5q-55 0 -94 19zM285 242q-3 40 -23.5 65.5t-57.5 25.5q-34 0 -55.5 -20
t-21.5 -53q0 -31 21.5 -52t55.5 -21q28 0 51 15t30 40z" />
    <glyph glyph-name="zero.numr" horiz-adv-x="436" 
d="M58 551q0 98 40 148.5t120 50.5t120 -50.5t40 -148.5q0 -97 -41 -148t-119 -51q-79 0 -119.5 52t-40.5 147zM135 551q0 -141 83 -141t83 141t-83 141t-83 -141z" />
    <glyph glyph-name="one.numr" horiz-adv-x="380" 
d="M234 421h91v-62h-264v62h101v243l-90 -42l-5 60l117 59h50v-320z" />
    <glyph glyph-name="two.numr" horiz-adv-x="395" 
d="M185 546q73 45 73 90q0 26 -21.5 41t-56.5 15q-60 0 -113 -42l-4 65q27 17 60.5 26t67.5 9q66 0 104 -31.5t38 -81.5q0 -35 -22.5 -64.5t-72.5 -61.5q-44 -27 -65.5 -47.5t-31.5 -46.5h203l-6 -58h-285q0 59 32.5 102.5t99.5 84.5z" />
    <glyph glyph-name="three.numr" horiz-adv-x="381" 
d="M231 684h-178l5 57h258l-5 -49l-106 -101q58 -4 90.5 -33.5t32.5 -76.5q0 -58 -47 -93.5t-122 -35.5q-31 0 -62 6.5t-57 19.5l6 61q23 -13 51 -21t56 -8q44 0 71 20t27 53q0 32 -24.5 48.5t-62.5 16.5q-14 0 -24.5 -2t-18.5 -4v34z" />
    <glyph glyph-name="four.numr" horiz-adv-x="420" 
d="M254 741h75v-245h69l-5 -56h-64v-81h-72v81h-237v44zM103 496h154v170z" />
    <glyph glyph-name="five.numr" horiz-adv-x="385" 
d="M94 741h224l-7 -58h-157l-10 -77q19 4 41 4q67 0 106.5 -34t39.5 -90q0 -61 -47 -97.5t-122 -36.5q-31 0 -60.5 6.5t-57.5 19.5l6 61q23 -13 49 -21t54 -8q44 0 72.5 19.5t28.5 56.5q0 34 -26 54t-77 20q-40 0 -81 -12z" />
    <glyph glyph-name="six.numr" horiz-adv-x="420" 
d="M343 732l-10 -60q-21 11 -40.5 15.5t-34.5 4.5q-61 0 -88.5 -34.5t-33.5 -90.5q16 23 43 35.5t59 12.5q58 0 95 -34.5t37 -92.5q0 -60 -41.5 -98t-109.5 -38q-75 0 -118 47.5t-43 133.5q0 111 54 164t142 53q24 0 47 -4.5t42 -13.5zM159 436.5q21 -26.5 59 -26.5
q33 0 54 20.5t21 53.5q0 35 -21 55.5t-55 20.5q-29 0 -52 -15.5t-30 -39.5q3 -42 24 -68.5z" />
    <glyph glyph-name="seven.numr" horiz-adv-x="368" 
d="M267 683h-227l6 58h298l-6 -56q-36 -54 -62.5 -96t-45 -78.5t-31.5 -72.5t-22 -79h-80q14 55 35.5 104t54.5 102t80 118z" />
    <glyph glyph-name="eight.numr" horiz-adv-x="430" 
d="M214 750q62 0 102 -27.5t40 -68.5q0 -29 -20 -52.5t-64 -40.5q49 -16 75 -38.5t26 -59.5q0 -49 -45 -80t-115 -31q-69 0 -112.5 30.5t-43.5 77.5q0 37 26 61t72 39q-42 14 -62 37.5t-20 53.5q0 41 40 70t101 29zM214 410q35 0 58.5 15.5t23.5 43.5q0 23 -19.5 39
t-65.5 26q-36 -10 -56.5 -25.5t-20.5 -41.5t23 -41.5t57 -15.5zM220 586q66 17 66 62q0 20 -19.5 34t-51.5 14q-31 0 -51.5 -14t-20.5 -35q0 -43 77 -61z" />
    <glyph glyph-name="nine.numr" horiz-adv-x="420" 
d="M72 371l7 64q20 -13 42 -19t42 -6q59 0 87 35t34 93q-16 -23 -43.5 -35t-59.5 -12q-57 0 -94 35t-37 90q0 59 43 96.5t110 37.5q74 0 116.5 -50.5t42.5 -136.5q0 -106 -54 -158.5t-142 -52.5q-55 0 -94 19zM285 601q-3 40 -23.5 65.5t-57.5 25.5q-34 0 -55.5 -20
t-21.5 -53q0 -31 21.5 -52t55.5 -21q28 0 51 15t30 40z" />
    <glyph glyph-name="zero.percent" horiz-adv-x="394" 
d="M25 180q0 52 20 96t58.5 70.5t94.5 26.5q55 0 93 -26.5t58 -70.5t20 -96t-20 -96t-58 -70.5t-93 -26.5q-56 0 -94.5 26.5t-58.5 70.5t-20 96zM289 180q0 56 -23 92.5t-68 36.5q-46 0 -69.5 -36.5t-23.5 -92.5q0 -55 23.5 -92t69.5 -37q45 0 68 37t23 92z" />
    <glyph glyph-name="two_fraction_seven" horiz-adv-x="833" 
d="M185 546q73 45 73 90q0 26 -21.5 41t-56.5 15q-60 0 -113 -42l-4 65q27 17 60.5 26t67.5 9q66 0 104 -31.5t38 -81.5q0 -35 -22.5 -64.5t-72.5 -61.5q-44 -27 -65.5 -47.5t-31.5 -46.5h203l-6 -58h-285q0 59 32.5 102.5t99.5 84.5zM629 741h88l-498 -741h-88zM732 324
h-227l6 58h298l-6 -56q-36 -54 -62.5 -96t-45 -78.5t-31.5 -72.5t-22 -79h-80q14 55 35.5 104t54.5 102t80 118z" />
    <glyph glyph-name="three_fraction_seven" horiz-adv-x="819" 
d="M231 684h-178l5 57h258l-5 -49l-106 -101q58 -4 90.5 -33.5t32.5 -76.5q0 -58 -47 -93.5t-122 -35.5q-31 0 -62 6.5t-57 19.5l6 61q23 -13 51 -21t56 -8q44 0 71 20t27 53q0 32 -24.5 48.5t-62.5 16.5q-14 0 -24.5 -2t-18.5 -4v34zM593 741h88l-498 -741h-88zM718 324
h-227l6 58h298l-6 -56q-36 -54 -62.5 -96t-45 -78.5t-31.5 -72.5t-22 -79h-80q14 55 35.5 104t54.5 102t80 118z" />
    <glyph glyph-name="four_fraction_seven" horiz-adv-x="858" 
d="M254 741h75v-245h69l-5 -56h-64v-81h-72v81h-237v44zM103 496h154v170zM650 741h88l-498 -741h-88zM757 324h-227l6 58h298l-6 -56q-36 -54 -62.5 -96t-45 -78.5t-31.5 -72.5t-22 -79h-80q14 55 35.5 104t54.5 102t80 118z" />
    <glyph glyph-name="five_fraction_seven" horiz-adv-x="823" 
d="M94 741h224l-7 -58h-157l-10 -77q19 4 41 4q67 0 106.5 -34t39.5 -90q0 -61 -47 -97.5t-122 -36.5q-31 0 -60.5 6.5t-57.5 19.5l6 61q23 -13 49 -21t54 -8q44 0 72.5 19.5t28.5 56.5q0 34 -26 54t-77 20q-40 0 -81 -12zM597 741h88l-498 -741h-88zM722 324h-227l6 58h298
l-6 -56q-36 -54 -62.5 -96t-45 -78.5t-31.5 -72.5t-22 -79h-80q14 55 35.5 104t54.5 102t80 118z" />
    <glyph glyph-name="six_fraction_seven" horiz-adv-x="858" 
d="M343 732l-10 -60q-21 11 -40.5 15.5t-34.5 4.5q-61 0 -88.5 -34.5t-33.5 -90.5q16 23 43 35.5t59 12.5q58 0 95 -34.5t37 -92.5q0 -60 -41.5 -98t-109.5 -38q-75 0 -118 47.5t-43 133.5q0 111 54 164t142 53q24 0 47 -4.5t42 -13.5zM159 436.5q21 -26.5 59 -26.5
q33 0 54 20.5t21 53.5q0 35 -21 55.5t-55 20.5q-29 0 -52 -15.5t-30 -39.5q3 -42 24 -68.5zM632 741h88l-498 -741h-88zM757 324h-227l6 58h298l-6 -56q-36 -54 -62.5 -96t-45 -78.5t-31.5 -72.5t-22 -79h-80q14 55 35.5 104t54.5 102t80 118z" />
    <glyph glyph-name="two_fraction_nine" horiz-adv-x="885" 
d="M185 546q73 45 73 90q0 26 -21.5 41t-56.5 15q-60 0 -113 -42l-4 65q27 17 60.5 26t67.5 9q66 0 104 -31.5t38 -81.5q0 -35 -22.5 -64.5t-72.5 -61.5q-44 -27 -65.5 -47.5t-31.5 -46.5h203l-6 -58h-285q0 59 32.5 102.5t99.5 84.5zM652 741h88l-498 -741h-88zM537 12
l7 64q20 -13 42 -19t42 -6q59 0 87 35t34 93q-16 -23 -43.5 -35t-59.5 -12q-57 0 -94 35t-37 90q0 59 43 96.5t110 37.5q74 0 116.5 -50.5t42.5 -136.5q0 -106 -54 -158.5t-142 -52.5q-55 0 -94 19zM750 242q-3 40 -23.5 65.5t-57.5 25.5q-34 0 -55.5 -20t-21.5 -53
q0 -31 21.5 -52t55.5 -21q28 0 51 15t30 40z" />
    <glyph glyph-name="four_fraction_nine" horiz-adv-x="910" 
d="M254 741h75v-245h69l-5 -56h-64v-81h-72v81h-237v44zM103 496h154v170zM670 741h88l-498 -741h-88zM562 12l7 64q20 -13 42 -19t42 -6q59 0 87 35t34 93q-16 -23 -43.5 -35t-59.5 -12q-57 0 -94 35t-37 90q0 59 43 96.5t110 37.5q74 0 116.5 -50.5t42.5 -136.5
q0 -106 -54 -158.5t-142 -52.5q-55 0 -94 19zM775 242q-3 40 -23.5 65.5t-57.5 25.5q-34 0 -55.5 -20t-21.5 -53q0 -31 21.5 -52t55.5 -21q28 0 51 15t30 40z" />
    <glyph glyph-name="five_fraction_nine" horiz-adv-x="875" 
d="M94 741h224l-7 -58h-157l-10 -77q19 4 41 4q67 0 106.5 -34t39.5 -90q0 -61 -47 -97.5t-122 -36.5q-31 0 -60.5 6.5t-57.5 19.5l6 61q23 -13 49 -21t54 -8q44 0 72.5 19.5t28.5 56.5q0 34 -26 54t-77 20q-40 0 -81 -12zM625 741h88l-498 -741h-88zM527 12l7 64
q20 -13 42 -19t42 -6q59 0 87 35t34 93q-16 -23 -43.5 -35t-59.5 -12q-57 0 -94 35t-37 90q0 59 43 96.5t110 37.5q74 0 116.5 -50.5t42.5 -136.5q0 -106 -54 -158.5t-142 -52.5q-55 0 -94 19zM740 242q-3 40 -23.5 65.5t-57.5 25.5q-34 0 -55.5 -20t-21.5 -53
q0 -31 21.5 -52t55.5 -21q28 0 51 15t30 40z" />
    <glyph glyph-name="seven_fraction_nine" horiz-adv-x="828" 
d="M267 683h-227l6 58h298l-6 -56q-36 -54 -62.5 -96t-45 -78.5t-31.5 -72.5t-22 -79h-80q14 55 35.5 104t54.5 102t80 118zM578 741h88l-498 -741h-88zM480 12l7 64q20 -13 42 -19t42 -6q59 0 87 35t34 93q-16 -23 -43.5 -35t-59.5 -12q-57 0 -94 35t-37 90q0 59 43 96.5
t110 37.5q74 0 116.5 -50.5t42.5 -136.5q0 -106 -54 -158.5t-142 -52.5q-55 0 -94 19zM693 242q-3 40 -23.5 65.5t-57.5 25.5q-34 0 -55.5 -20t-21.5 -53q0 -31 21.5 -52t55.5 -21q28 0 51 15t30 40z" />
    <glyph glyph-name="eight_fraction_nine" horiz-adv-x="920" 
d="M214 750q62 0 102 -27.5t40 -68.5q0 -29 -20 -52.5t-64 -40.5q49 -16 75 -38.5t26 -59.5q0 -49 -45 -80t-115 -31q-69 0 -112.5 30.5t-43.5 77.5q0 37 26 61t72 39q-42 14 -62 37.5t-20 53.5q0 41 40 70t101 29zM214 410q35 0 58.5 15.5t23.5 43.5q0 23 -19.5 39
t-65.5 26q-36 -10 -56.5 -25.5t-20.5 -41.5t23 -41.5t57 -15.5zM220 586q66 17 66 62q0 20 -19.5 34t-51.5 14q-31 0 -51.5 -14t-20.5 -35q0 -43 77 -61zM670 741h88l-498 -741h-88zM572 12l7 64q20 -13 42 -19t42 -6q59 0 87 35t34 93q-16 -23 -43.5 -35t-59.5 -12
q-57 0 -94 35t-37 90q0 59 43 96.5t110 37.5q74 0 116.5 -50.5t42.5 -136.5q0 -106 -54 -158.5t-142 -52.5q-55 0 -94 19zM785 242q-3 40 -23.5 65.5t-57.5 25.5q-34 0 -55.5 -20t-21.5 -53q0 -31 21.5 -52t55.5 -21q28 0 51 15t30 40z" />
    <glyph glyph-name="hyphen.case" horiz-adv-x="308" 
d="M24 410h260v-80h-260v80z" />
    <glyph glyph-name="endash.case" horiz-adv-x="500" 
d="M0 411h500v-76h-500v76z" />
    <glyph glyph-name="emdash.case" horiz-adv-x="1000" 
d="M0 411h1000v-76h-1000v76z" />
    <glyph glyph-name="parenleft.case" horiz-adv-x="327" 
d="M254 11.5q30 -77.5 59 -129.5h-83q-30 52 -62.5 127.5t-54.5 168t-22 193.5q0 102 22 193.5t54.5 167t62.5 127.5h83q-29 -51 -59 -128.5t-50 -170t-20 -189.5q0 -96 20 -189t50 -170.5z" />
    <glyph glyph-name="parenright.case" horiz-adv-x="327" 
d="M143 371q0 97 -20 189.5t-50 170t-59 128.5h83q31 -52 63 -127.5t54 -167t22 -193.5q0 -101 -22 -193.5t-54 -168t-63 -127.5h-83q29 52 59 129.5t50 170.5t20 189z" />
    <glyph glyph-name="slash.case" horiz-adv-x="444" 
d="M351 859h85l-343 -977h-85z" />
    <glyph glyph-name="backslash.case" horiz-adv-x="444" 
d="M8 859h85l343 -977h-85z" />
    <glyph glyph-name="bracketleft.case" horiz-adv-x="327" 
d="M112 859h189v-70h-99v-837h99v-70h-189v977z" />
    <glyph glyph-name="bracketright.case" horiz-adv-x="327" 
d="M215 -118h-189v70h99v837h-99v70h189v-977z" />
    <glyph glyph-name="braceleft.case" horiz-adv-x="327" 
d="M202 501q0 -49 -18 -80.5t-59 -49.5q41 -19 59 -50.5t18 -80.5v-211q0 -43 24 -60t52 -17h23v-70h-28q-63 0 -98 22t-49 59t-14 81v202q0 47 -19 66t-70 25v67q51 6 70 25t19 66v202q0 45 14 81.5t49 58.5t98 22h28v-70h-23q-28 0 -52 -17t-24 -60v-211z" />
    <glyph glyph-name="braceright.case" horiz-adv-x="327" 
d="M125 240q0 49 18 80.5t59 50.5q-41 18 -59 49.5t-18 80.5v211q0 43 -23.5 60t-52.5 17h-23v70h28q64 0 98.5 -22t48.5 -58.5t14 -81.5v-202q0 -47 19 -66t70 -25v-67q-51 -6 -70 -25t-19 -66v-202q0 -44 -14 -81t-48.5 -59t-98.5 -22h-28v70h23q29 0 52.5 17t23.5 60v211
z" />
    <glyph glyph-name="bullet.case" horiz-adv-x="385" 
d="M192 250q-51 0 -85.5 34.5t-34.5 85.5q0 52 34.5 86.5t85.5 34.5q52 0 86.5 -34.5t34.5 -86.5q0 -51 -34.5 -85.5t-86.5 -34.5z" />
    <glyph glyph-name="guilsinglleft.case" horiz-adv-x="360" 
d="M208 592h92l-151 -221l151 -219h-92l-158 219z" />
    <glyph glyph-name="guilsinglright.case" horiz-adv-x="360" 
d="M60 592h92l158 -221l-158 -219h-92l151 219z" />
    <glyph glyph-name="guillemotleft.case" horiz-adv-x="560" 
d="M408 592h92l-151 -221l151 -219h-92l-158 219zM208 592h92l-151 -221l151 -219h-92l-158 219z" />
    <glyph glyph-name="guillemotright.case" horiz-adv-x="560" 
d="M260 592h92l158 -221l-158 -219h-92l151 219zM60 592h92l158 -221l-158 -219h-92l151 219z" />
    <glyph glyph-name="at.case" horiz-adv-x="997" 
d="M623 3l10 -87q-40 -16 -85.5 -24t-91.5 -8q-120 0 -207 46t-134.5 130t-47.5 197q0 103 37.5 192.5t104 156.5t156 104.5t192.5 37.5q111 0 195.5 -44.5t132 -125t47.5 -187.5q0 -84 -29 -153t-78 -109.5t-111 -40.5q-52 0 -86 26.5t-40 78.5q-23 -52 -63 -78.5
t-90 -26.5q-68 0 -110 47.5t-42 130.5q0 54 18.5 103.5t50 89t72 62t83.5 22.5q38 0 69 -18t48 -51l12 49h74l-10 -40q-23 -91 -34.5 -144t-11.5 -91q0 -40 17 -64.5t45 -24.5q35 0 63.5 29t45.5 80t17 115q0 93 -35.5 159t-100 101t-152.5 35q-84 0 -156.5 -32t-126.5 -89
t-84 -132.5t-30 -162.5q0 -94 35.5 -163t100.5 -107t154 -38q108 0 176 49zM449 155q47 0 83.5 44t53.5 118l19 81q-7 31 -33 54t-61 23q-37 0 -70.5 -29t-54 -76t-20.5 -103q0 -54 21.5 -83t61.5 -29z" />
    <glyph glyph-name="periodcentered.case" horiz-adv-x="270" 
d="M72 370q0 30 17.5 50.5t45.5 20.5t45.5 -20.5t17.5 -50.5t-17.5 -50.5t-45.5 -20.5t-45.5 20.5t-17.5 50.5z" />
    <glyph glyph-name="periodcentered.loclCAT" horiz-adv-x="164" 
d="M-18 351q0 30 17.5 50.5t45.5 20.5t45.5 -20.5t17.5 -50.5t-17.5 -50.5t-45.5 -20.5t-45.5 20.5t-17.5 50.5z" />
    <glyph glyph-name="periodcentered.loclCAT.cap" horiz-adv-x="0" 
d="M-186 421q0 30 17.5 50.5t45.5 20.5t45.5 -20.5t17.5 -50.5t-17.5 -50.5t-45.5 -20.5t-45.5 20.5t-17.5 50.5z" />
    <glyph glyph-name="IJacute" horiz-adv-x="726" 
d="M100 741h96v-741h-96v741zM636 193q0 -95 -50 -150.5t-148 -55.5q-35 0 -65.5 7t-56.5 19l9 88q48 -29 105 -29q52 0 81.5 34t29.5 110v525h95v-548zM650 1000q26 -6 46.5 -24.5t31.5 -39.5l-152 -137l-45 38zM211 1000q26 -6 46.5 -24.5t31.5 -39.5l-152 -137l-45 38z
" />
    <glyph glyph-name="f.short" horiz-adv-x="395" 
d="M130 464h-90v68h90v30q0 99 49.5 155t140.5 56q38 0 72 -9l-9 -80q-21 13 -57 13q-54 0 -80 -33.5t-26 -97.5v-34h150v-68h-150v-464h-90v464z" />
    <glyph glyph-name="f_f.short" horiz-adv-x="735" 
d="M130 464h-90v68h90v30q0 99 52 155t143 56q43 0 82 -12l-9 -80q-11 8 -26.5 12t-35.5 4q-55 0 -85.5 -33.5t-30.5 -97.5v-34h250v30q0 99 49.5 155t140.5 56q38 0 72 -9l-9 -80q-21 13 -57 13q-54 0 -80 -33.5t-26 -97.5v-34h150v-68h-150v-464h-90v464h-250v-464h-90
v464z" />
    <glyph glyph-name="dotlessi.long" horiz-adv-x="250" 
d="M80 464h-120v68h210v-532h-90v464z" />
    <glyph glyph-name="i.long" horiz-adv-x="250" 
d="M80 464h-120v68h210v-532h-90v464zM66 688q0 27 17 45.5t42 18.5t42 -18.5t17 -45.5t-17 -45.5t-42 -18.5t-42 18.5t-17 45.5z" />
    <glyph glyph-name="dotlessij" horiz-adv-x="500" 
d="M80 532h90v-532h-90v532zM330 532h90v-583q0 -179 -155 -179q-40 0 -70 13l8 77q10 -6 23.5 -10t31.5 -4q72 0 72 99v587z" />
    <glyph glyph-name="ijacute" horiz-adv-x="500" 
d="M80 532h90v-532h-90v532zM330 532h90v-583q0 -179 -155 -179q-40 0 -70 13l8 77q10 -6 23.5 -10t31.5 -4q72 0 72 99v587zM173 810q28 -6 49 -23t31 -37l-145 -149l-44 33zM423 810q28 -6 49 -23t31 -37l-145 -149l-44 33z" />
    <glyph glyph-name="uni0327.cap" horiz-adv-x="0" 
d="M-29 10h66l-19 -71q49 -3 77.5 -25.5t28.5 -62.5q0 -47 -37.5 -73t-105.5 -26q-22 0 -49 6t-41 14l9 69q29 -26 81 -26q62 0 62 37q0 35 -63 35q-23 0 -43 -5z" />
    <glyph glyph-name="uni0326.cap" horiz-adv-x="0" 
d="M-38 -217h-65q22 30 36.5 69t22.5 86h88q-10 -43 -31.5 -83.5t-50.5 -71.5z" />
    <glyph glyph-name="uni0328.cap" horiz-adv-x="0" 
d="M23 14l65 -14q-95 -71 -95 -122q0 -33 37 -33q23 0 47 18l8 -70q-16 -8 -36 -13t-36 -5q-49 0 -75.5 23t-26.5 66q0 37 30 77.5t82 72.5z" />
    <glyph glyph-name="uni0328.round" horiz-adv-x="0" 
d="M20 14l84 8q-59 -46 -87 -81.5t-28 -67.5q0 -31 36 -31q28 0 50 18l8 -68q-13 -7 -34.5 -12t-40.5 -5q-46 0 -71.5 21.5t-25.5 61.5q0 38 29 80t80 76z" />
    <glyph glyph-name="uni0328.round.cap" horiz-adv-x="0" 
d="M18 14l95 15q-66 -52 -95.5 -87t-29.5 -64q0 -33 37 -33q23 0 47 18l8 -70q-14 -8 -34.5 -13t-37.5 -5q-49 0 -75.5 23t-26.5 66q0 35 30 75.5t82 74.5z" />
    <glyph glyph-name="acutecomb.cap" horiz-adv-x="0" 
d="M63 1000q26 -6 46.5 -24.5t31.5 -39.5l-152 -137l-45 38z" />
    <glyph glyph-name="uni030B.cap" horiz-adv-x="0" 
d="M-11 1000q23 -7 42.5 -23.5t29.5 -36.5l-141 -141l-41 35zM163 1000q23 -7 42.5 -23.5t29.5 -36.5l-141 -141l-41 35z" />
    <glyph glyph-name="gravecomb.cap" horiz-adv-x="0" 
d="M-141 936q11 21 31.5 39.5t46.5 24.5l119 -163l-45 -38z" />
    <glyph glyph-name="uni0302.cap" horiz-adv-x="0" 
d="M-46 985h92l116 -148l-50 -37l-112 113l-112 -113l-50 37z" />
    <glyph glyph-name="tildecomb.cap" horiz-adv-x="0" 
d="M110 963l64 -15q0 -59 -27 -92.5t-75 -33.5q-19 0 -39.5 8t-49.5 30q-22 16 -32 21t-22 5q-38 0 -38 -68l-64 15q0 59 27 92.5t75 33.5q20 0 40.5 -8t48.5 -30q22 -16 32 -21t22 -5q38 0 38 68z" />
    <glyph glyph-name="uni030C.cap" horiz-adv-x="0" 
d="M-162 970l50 37l112 -113l112 113l50 -37l-116 -148h-92z" />
    <glyph glyph-name="uni0315.short" horiz-adv-x="0" 
d="M-39 760q11 4 21.5 6t23.5 2q12 0 23 -2t22 -6l-48 -165h-50z" />
    <glyph glyph-name="uni0304.cap" horiz-adv-x="0" 
d="M-147 912h294v-72h-294v72z" />
    <glyph glyph-name="uni0308.cap" horiz-adv-x="0" 
d="M-159 876q0 27 17 45.5t42 18.5t42 -18.5t17 -45.5t-17 -45.5t-42 -18.5t-42 18.5t-17 45.5zM42 876q0 27 17 45.5t42 18.5t42 -18.5t17 -45.5t-17 -45.5t-42 -18.5t-42 18.5t-17 45.5z" />
    <glyph glyph-name="uni0306.cap" horiz-adv-x="0" 
d="M0 867q82 0 82 93h71q5 -71 -36 -113t-117 -42t-117 42t-36 113h71q0 -93 82 -93z" />
    <glyph glyph-name="uni0307.cap" horiz-adv-x="0" 
d="M-61 876q0 28 17.5 46t43.5 18t43.5 -18t17.5 -46t-17.5 -46t-43.5 -18t-43.5 18.5t-17.5 45.5z" />
    <glyph glyph-name="dotbelowcomb.cap" horiz-adv-x="0" 
d="M-61 -126q0 28 17.5 46t43.5 18t43.5 -18t17.5 -46t-17.5 -46t-43.5 -18t-43.5 18.5t-17.5 45.5z" />
    <glyph glyph-name="uni030A.cap" horiz-adv-x="0" 
d="M0 778q-49 0 -80.5 29.5t-31.5 73.5q0 45 31.5 74.5t80.5 29.5t80.5 -29.5t31.5 -74.5q0 -44 -31.5 -73.5t-80.5 -29.5zM0 934q-23 0 -37.5 -15t-14.5 -38t14.5 -37.5t37.5 -14.5t37.5 14.5t14.5 37.5t-14.5 38t-37.5 15z" />
    <glyph glyph-name="highdef" horiz-adv-x="0" 
d="M-25 -268l25 50l25 -50h-50zM0 996l-25 50h50z" />
    </font>
</defs>
</svg>
