<?xml version="1.0" standalone="no"?>
<!DOCTYPE svg PUBLIC "-//W3C//DTD SVG 1.1//EN" "http://www.w3.org/Graphics/SVG/1.1/DTD/svg11.dtd" >
<svg xmlns="http://www.w3.org/2000/svg" xmlns:xlink="http://www.w3.org/1999/xlink" version="1.1">
<metadata>
Created by FontForge 20201107 at Fri May 14 16:23:01 2021
 By 
Copyright 2020 Dalton Maag Ltd. Modification of this file requires prior written permission from Dalton Maag Ltd.
</metadata>
<defs>
<font id="DarkmodeTrial-DarkmodeOffMedium" horiz-adv-x="650" >
  <font-face 
    font-family="Darkmode Trial DarkmodeOff Medium"
    font-weight="500"
    font-stretch="normal"
    units-per-em="1000"
    panose-1="2 11 6 3 3 5 4 2 2 4"
    ascent="800"
    descent="-200"
    x-height="535"
    cap-height="741"
    bbox="-265 -268 1265 1046"
    underline-thickness="78"
    underline-position="-169"
    unicode-range="U+000D-FEFF"
  />
<missing-glyph horiz-adv-x="500" 
d="M50 760h400v-760h-400v760zM400 50v660h-300v-660h300z" />
    <glyph glyph-name="f_i" unicode="fi" horiz-adv-x="675" 
d="M127 447h-90v88h90v13q0 107 53.5 166t153.5 59q20 0 40 -2.5t39 -7.5l-11 -100q-20 14 -57 14q-98 0 -98 -120v-22h142v-88h-142v-447h-120v447zM484 447h-115v88h235v-535h-120v447zM470 688q0 32 21.5 53t52.5 21q32 0 53 -21t21 -53q0 -31 -21 -52.5t-53 -21.5
q-31 0 -52.5 21.5t-21.5 52.5z" />
    <glyph glyph-name="f_l" unicode="fl" horiz-adv-x="743" 
d="M127 447h-90v88h90v13q0 107 53.5 166t153.5 59q20 0 40 -2.5t39 -7.5l-11 -100q-20 14 -57 14q-98 0 -98 -120v-22h142v-88h-142v-447h-120v447zM481 760h120v-599q0 -41 15 -58.5t48 -17.5q38 0 62 22l-9 -103q-14 -6 -37 -10.5t-49 -4.5q-150 0 -150 155v616z" />
    <glyph glyph-name="f_f_i" unicode="ffi" horiz-adv-x="1032" 
d="M127 447h-90v88h90v13q0 107 56 166t156 59q47 0 87 -12l-12 -100q-22 16 -60 16q-51 0 -79 -30.5t-28 -89.5v-22h237v13q0 107 54 166t154 59q20 0 40 -2.5t39 -7.5l-12 -100q-20 14 -56 14q-99 0 -99 -120v-22h143v-88h-143v-447h-120v447h-237v-447h-120v447zM842 447
h-115v88h235v-535h-120v447zM828 688q0 32 21.5 53t52.5 21q32 0 53 -21t21 -53q0 -31 -21 -52.5t-53 -21.5q-31 0 -52.5 21.5t-21.5 52.5z" />
    <glyph glyph-name="f_f_l" unicode="ffl" horiz-adv-x="1101" 
d="M127 447h-90v88h90v13q0 107 56 166t156 59q47 0 87 -12l-12 -100q-22 16 -60 16q-51 0 -79 -30.5t-28 -89.5v-22h237v13q0 107 54 166t154 59q20 0 40 -2.5t39 -7.5l-12 -100q-20 14 -56 14q-99 0 -99 -120v-22h143v-88h-143v-447h-120v447h-237v-447h-120v447zM839 760
h120v-599q0 -41 15 -58.5t48 -17.5q38 0 62 22l-9 -103q-14 -6 -37 -10.5t-49 -4.5q-150 0 -150 155v616z" />
    <glyph glyph-name="f_f" unicode="ff" horiz-adv-x="783" 
d="M127 447h-90v88h90v13q0 107 56 166t156 59q47 0 87 -12l-12 -100q-22 16 -60 16q-51 0 -79 -30.5t-28 -89.5v-22h237v13q0 107 56 166t156 59q46 0 88 -12l-12 -100q-22 16 -61 16q-50 0 -78.5 -30.5t-28.5 -89.5v-22h143v-88h-143v-447h-120v447h-237v-447h-120v447z
" />
    <glyph glyph-name="f_t" unicode="ft" horiz-adv-x="787" 
d="M127 447h-90v88h90v13q0 107 56 166t156 59q47 0 87 -12l-12 -100q-22 16 -60 16q-51 0 -79 -30.5t-28 -89.5v-22h237v105l120 55v-160h143v-88h-143v-267q0 -49 17.5 -73t58.5 -24q20 0 40.5 6.5t36.5 18.5l-10 -103q-22 -9 -48 -13.5t-51 -4.5q-164 0 -164 173v287
h-237v-447h-120v447z" />
    <glyph glyph-name=".notdef" horiz-adv-x="500" 
d="M50 760h400v-760h-400v760zM400 50v660h-300v-660h300z" />
    <glyph glyph-name="uni0000" horiz-adv-x="0" 
 />
    <glyph glyph-name="uni0000" horiz-adv-x="0" 
 />
    <glyph glyph-name="uni000D" unicode="&#xd;" horiz-adv-x="234" 
 />
    <glyph glyph-name="space" unicode=" " horiz-adv-x="234" 
 />
    <glyph glyph-name="exclam" unicode="!" horiz-adv-x="282" 
d="M63 68q0 35 22 58t56 23t56 -23t22 -58q0 -34 -22 -57.5t-56 -23.5t-56 23.5t-22 57.5zM66 732q12 11 32.5 19.5t42.5 8.5t42 -8.5t33 -19.5l-30 -515h-90z" />
    <glyph glyph-name="quotedbl" unicode="&#x22;" horiz-adv-x="458" 
d="M71 736q14 11 31.5 17.5t36.5 6.5q17 0 35.5 -6.5t32.5 -17.5l-33 -267h-70zM252 736q14 11 31.5 17.5t36.5 6.5q17 0 35.5 -6.5t32.5 -17.5l-33 -267h-70z" />
    <glyph glyph-name="numbersign" unicode="#" 
d="M128 185h-87v100h101l25 171h-97v100h111l26 185h101l-26 -185h139l26 185h102l-26 -185h86v-100h-100l-25 -171h96v-100h-110l-26 -185h-101l26 185h-140l-26 -185h-101zM407 456h-139l-25 -171h140z" />
    <glyph glyph-name="dollar" unicode="$" 
d="M290 336q-103 37 -150 82.5t-47 110.5q0 58 30.5 102t86 68.5t128.5 26.5l17 132h72l-17 -136q76 -10 140 -42l-31 -99q-52 41 -120 52l-27 -208q101 -36 151.5 -84t50.5 -117q0 -92 -67.5 -148.5t-185.5 -60.5l-17 -132h-71l17 135q-46 6 -90.5 20t-78.5 36l11 109
q36 -29 81 -48t88 -25zM358 312l-26 -204q61 5 94 31.5t33 72.5q0 33 -22 55.5t-79 44.5zM226.5 492q19.5 -21 77.5 -43l23 186q-56 -6 -88 -30t-32 -64q0 -28 19.5 -49z" />
    <glyph glyph-name="percent" unicode="%" horiz-adv-x="886" 
d="M23 560q0 54 21 98t61 70t97 26q56 0 95.5 -26t60.5 -70t21 -98t-21 -98t-60.5 -70.5t-95.5 -26.5q-57 0 -97 26.5t-61 70.5t-21 98zM279 560q0 51 -19.5 82.5t-57.5 31.5q-40 0 -59.5 -31.5t-19.5 -82.5t19.5 -83t59.5 -32q38 0 57.5 32t19.5 83zM640 741h110l-503 -741
h-110zM507 182q0 54 21 98t61 70t97 26q56 0 95.5 -26t60.5 -70t21 -98t-21 -98t-60.5 -70.5t-95.5 -26.5q-57 0 -97 26.5t-61 70.5t-21 98zM763 182q0 51 -19.5 82.5t-57.5 31.5q-40 0 -59.5 -31.5t-19.5 -82.5t19.5 -83t59.5 -32q38 0 57.5 32t19.5 83z" />
    <glyph glyph-name="ampersand" unicode="&#x26;" horiz-adv-x="794" 
d="M248.5 730.5q42.5 23.5 95.5 23.5t94 -22.5t65 -61t24 -87.5t-31.5 -94.5t-116.5 -90.5q39 -41 80.5 -84t86.5 -88q19 36 33 83t23 105l110 -19q-13 -70 -36 -131t-55 -111q38 -37 79 -75t85 -78h-157q-37 33 -77 72q-47 -41 -104.5 -63t-123.5 -22q-76 0 -135 26.5
t-92.5 74t-33.5 108.5q0 63 39 117t129 99q-37 46 -55 85.5t-18 80.5q0 50 24.5 89.5t67 63zM205.5 280q-20.5 -36 -20.5 -73q0 -54 40.5 -88t105.5 -34q42 0 79.5 13.5t70.5 42.5q-51 52 -100.5 105.5t-94.5 103.5q-60 -34 -80.5 -70zM399.5 643q-22.5 22 -55.5 22t-56 -23
t-23 -61q0 -31 14 -59.5t45 -63.5q52 29 75 59.5t23 65.5q0 38 -22.5 60z" />
    <glyph glyph-name="quotesingle" unicode="'" horiz-adv-x="278" 
d="M71 736q14 11 31.5 17.5t36.5 6.5q17 0 35.5 -6.5t32.5 -17.5l-33 -267h-70z" />
    <glyph glyph-name="parenleft" unicode="(" horiz-adv-x="340" 
d="M269 -87.5q30 -77.5 59 -129.5h-113q-30 52 -62.5 127.5t-54.5 168t-22 193.5q0 102 22 193.5t54.5 167t62.5 127.5h113q-29 -51 -59 -128.5t-50 -170t-20 -189.5q0 -96 20 -189t50 -170.5z" />
    <glyph glyph-name="parenright" unicode=")" horiz-adv-x="340" 
d="M140 272q0 97 -20 189.5t-49.5 170t-59.5 128.5h113q31 -52 63 -127.5t54 -167t22 -193.5q0 -101 -22 -193.5t-54 -168t-63 -127.5h-113q30 52 59.5 129.5t49.5 170.5t20 189z" />
    <glyph glyph-name="asterisk" unicode="*" horiz-adv-x="522" 
d="M211 744q22 16 53 16t53 -16l-15 -127l110 52q22 -19 31 -46t2 -54l-122 -25l91 -98q-10 -27 -34 -43.5t-52 -17.5l-64 112l-64 -112q-27 1 -50.5 17.5t-34.5 43.5l90 98l-121 25q-7 27 1.5 54t30.5 46l110 -52z" />
    <glyph glyph-name="plus" unicode="+" 
d="M271 601h109v-204h191v-103h-191v-204h-109v204h-191v103h191v204z" />
    <glyph glyph-name="comma" unicode="," horiz-adv-x="278" 
d="M127 -172h-70q50 83 65 162q-25 6 -43 27t-18 51q0 35 22 58t56 23q35 0 56.5 -25.5t21.5 -69.5q-1 -54 -25 -116t-65 -110z" />
    <glyph glyph-name="hyphen" unicode="-" horiz-adv-x="322" 
d="M22 332h278v-106h-278v106z" />
    <glyph glyph-name="period" unicode="." horiz-adv-x="278" 
d="M61 68q0 35 22 58t56 23t56 -23t22 -58q0 -34 -22 -57.5t-56 -23.5t-56 23.5t-22 57.5z" />
    <glyph glyph-name="slash" unicode="/" horiz-adv-x="467" 
d="M349 760h112l-343 -977h-112z" />
    <glyph glyph-name="zero" unicode="0" 
d="M530 86.5q-70 -99.5 -205 -99.5t-205 99.5t-70 283.5q0 187 69 285.5t206 98.5t206 -98.5t69 -285.5q0 -184 -70 -283.5zM325 86q77 0 113.5 70.5t36.5 213.5t-36.5 214t-113.5 71t-113.5 -71t-36.5 -214q0 -284 150 -284z" />
    <glyph glyph-name="one" unicode="1" 
d="M404 103h164v-103h-460v103h175v505l-164 -90l-10 110l204 113h91v-638z" />
    <glyph glyph-name="two" unicode="2" 
d="M90 687q44 30 102 48.5t122 18.5q76 0 131 -26t85 -73t30 -111t-36.5 -118.5t-124.5 -120.5q-82 -61 -121.5 -107t-52.5 -97h355l-11 -101h-496q1 59 14 106.5t40.5 89.5t71.5 84.5t107 92.5q71 56 99.5 94.5t28.5 78.5q0 47 -36.5 76.5t-99.5 29.5q-108 0 -199 -85z" />
    <glyph glyph-name="three" unicode="3" 
d="M380 642h-303l9 99h443l-9 -86l-186 -205q106 -5 161 -64t55 -148q0 -73 -36 -129.5t-101.5 -89t-154.5 -32.5q-55 0 -107 12.5t-96 37.5l10 116q42 -32 90 -48t94 -16q81 0 128 41.5t47 108.5q0 66 -40.5 99t-111.5 33q-22 0 -41.5 -3t-35.5 -8v70z" />
    <glyph glyph-name="four" unicode="4" 
d="M399 741h121v-477h94l-9 -98h-85v-166h-117v166h-369v81zM165 264h238v325z" />
    <glyph glyph-name="five" unicode="5" 
d="M151 741h391l-12 -99h-276l-19 -161q34 9 73 9q79 0 136 -30t88 -83.5t31 -126.5q0 -79 -36.5 -138t-101.5 -92t-150 -33q-119 0 -207 50l11 116q41 -31 88 -47.5t95 -16.5q78 0 125.5 42t47.5 116q0 71 -44 111t-130 40q-41 0 -79.5 -7.5t-72.5 -21.5z" />
    <glyph glyph-name="six" unicode="6" 
d="M558 722l-24 -108q-34 21 -67 29.5t-65 8.5q-68 0 -111.5 -33t-67 -89t-31.5 -124q29 41 74.5 63t100.5 22q67 0 119 -30t82 -85.5t30 -131.5q0 -75 -32 -133t-89.5 -91t-133.5 -33q-88 0 -150.5 42t-95.5 120t-33 184q0 141 42 234.5t118.5 140t177.5 46.5q47 0 87 -9
t69 -23zM472 238q0 72 -36 114.5t-98 42.5q-54 0 -95.5 -33.5t-52.5 -87.5q6 -84 44.5 -135t106.5 -51q60 0 95.5 41t35.5 109z" />
    <glyph glyph-name="seven" unicode="7" 
d="M454 640h-390l11 101h524l-10 -95q-81 -123 -137.5 -229t-94.5 -207t-62 -210h-136q27 104 65.5 206.5t94.5 209.5t135 224z" />
    <glyph glyph-name="eight" unicode="8" 
d="M324 754q69 0 123.5 -24t85.5 -65.5t31 -94.5q0 -52 -34 -96.5t-98 -76.5q164 -67 164 -193q0 -62 -35.5 -111t-97.5 -77.5t-140 -28.5t-138.5 27t-95 73.5t-34.5 106.5q0 65 39.5 116t115.5 82q-60 28 -92.5 72t-32.5 99t31 98t85 68t123 25zM395.5 100q32.5 16 51.5 43
t19 61q0 47 -35.5 80.5t-119.5 64.5q-62 -25 -95 -63t-33 -86q0 -51 40 -83.5t100 -32.5q40 0 72.5 16zM338 435q105 47 105 125q0 44 -33 72.5t-86 28.5q-51 0 -84 -28t-33 -71q0 -42 32 -72t99 -55z" />
    <glyph glyph-name="nine" unicode="9" 
d="M84 36l11 117q38 -32 80 -48t83 -16q64 0 105.5 34t64.5 91.5t30 127.5q-29 -40 -74.5 -62t-100.5 -22q-66 0 -118.5 29t-82.5 83t-30 128q0 75 32.5 132.5t91 90.5t136.5 33q87 0 148 -43t93.5 -121t32.5 -184q0 -140 -41.5 -233.5t-114 -139.5t-165.5 -46
q-50 0 -96.5 12t-84.5 37zM178 504q0 -70 36.5 -110t97.5 -40q51 0 92.5 30.5t55.5 80.5q-5 84 -43 136t-104 52q-61 0 -98 -40.5t-37 -108.5z" />
    <glyph glyph-name="colon" unicode=":" horiz-adv-x="278" 
d="M61 68q0 35 22 58t56 23t56 -23t22 -58q0 -34 -22 -57.5t-56 -23.5t-56 23.5t-22 57.5zM61 457q0 35 22 58t56 23t56 -23t22 -58q0 -34 -22 -57.5t-56 -23.5t-56 23.5t-22 57.5z" />
    <glyph glyph-name="semicolon" unicode=";" horiz-adv-x="278" 
d="M127 -172h-70q50 83 65 162q-25 6 -43 27t-18 51q0 35 22 58t56 23q35 0 56.5 -25.5t21.5 -69.5q-1 -54 -25 -116t-65 -110zM61 457q0 35 22 58t56 23t56 -23t22 -58q0 -34 -22 -57.5t-56 -23.5t-56 23.5t-22 57.5z" />
    <glyph glyph-name="less" unicode="&#x3c;" 
d="M79 302v87l491 204v-111l-345 -136l345 -137v-111z" />
    <glyph glyph-name="equal" unicode="=" 
d="M571 162h-491v103h491v-103zM571 420h-491v103h491v-103z" />
    <glyph glyph-name="greater" unicode="&#x3e;" 
d="M571 389v-88l-491 -203v111l345 136l-345 136v111z" />
    <glyph glyph-name="question" unicode="?" horiz-adv-x="471" 
d="M115 68q0 35 22 58t56 23t56 -23t22 -58q0 -34 -22 -57.5t-56 -23.5t-56 23.5t-22 57.5zM22 696q37 26 87 42t108 16q66 0 116.5 -23.5t79 -67.5t28.5 -104q0 -52 -25.5 -98.5t-87.5 -103.5q-48 -43 -67 -74.5t-23 -65.5h-90q-2 32 3.5 58.5t24.5 56t56 68.5q43 44 63 79
t20 70q0 53 -31.5 79.5t-83.5 26.5q-47 0 -88.5 -21t-79.5 -60z" />
    <glyph glyph-name="at" unicode="@" horiz-adv-x="1004" 
d="M626 -81l12 -102q-40 -16 -87 -24t-94 -8q-122 0 -211 46.5t-137.5 131t-48.5 198.5q0 103 38 192.5t106.5 156.5t159.5 105t197 38q114 0 200.5 -45t135 -125.5t48.5 -188.5q0 -84 -30 -153.5t-81.5 -110.5t-116.5 -41q-52 0 -87.5 24.5t-44.5 73.5q-24 -49 -62.5 -73.5
t-86.5 -24.5q-71 0 -113.5 48.5t-42.5 131.5q0 53 18.5 102.5t50 88.5t71 61.5t82.5 22.5q37 0 67.5 -17.5t47.5 -49.5l11 47h93l-16 -60q-20 -81 -30.5 -129t-10.5 -81q0 -37 15.5 -58.5t41.5 -21.5q32 0 58.5 28t42 76t15.5 108q0 89 -34.5 152t-97 96.5t-147.5 33.5
q-82 0 -153 -31t-124 -86.5t-82.5 -128.5t-29.5 -157q0 -90 34 -156t97.5 -102.5t149.5 -36.5q108 0 176 49zM456 70q41 0 73.5 40t48.5 110l18 75q-7 26 -29.5 45.5t-52.5 19.5q-34 0 -63.5 -26.5t-48 -69.5t-18.5 -95q0 -48 19 -73.5t53 -25.5z" />
    <glyph glyph-name="A" unicode="A" horiz-adv-x="758" 
d="M307 741h143q71 -185 139 -370.5t132 -370.5h-131q-32 99 -66 200h-296q-17 -50 -33.5 -100t-32.5 -100h-126q65 185 133 370.5t138 370.5zM376 627q-29 -81 -57.5 -163t-56.5 -164h228q-28 82 -56.5 164t-57.5 163z" />
    <glyph glyph-name="B" unicode="B" horiz-adv-x="646" 
d="M90 741h215q78 0 137 -21t92.5 -62.5t33.5 -103.5q0 -59 -36 -100t-86 -58q76 -15 119 -63.5t43 -120.5q0 -70 -36.5 -117t-101 -71t-149.5 -24h-231v741zM214 97h106q75 0 116.5 31t41.5 91q0 58 -40.5 88t-116.5 30h-107v-240zM306 433q65 0 100.5 28t35.5 81
q0 50 -37.5 76t-102.5 26h-88v-211h92z" />
    <glyph glyph-name="C" unicode="C" horiz-adv-x="652" 
d="M218.5 707.5q76.5 46.5 182.5 46.5q62 0 116.5 -14.5t97.5 -40.5l-31 -109q-43 35 -85.5 49.5t-86.5 14.5q-106 0 -163 -75.5t-57 -206.5q0 -135 58 -210t166 -75q53 0 101.5 17t81.5 48l15 -117q-37 -22 -94.5 -35t-118.5 -13q-108 0 -184.5 46t-117 131.5t-40.5 204.5
t41.5 205.5t118 133z" />
    <glyph glyph-name="D" unicode="D" horiz-adv-x="733" 
d="M90 741h193q131 0 219.5 -47.5t133 -131t44.5 -191.5t-44.5 -191.5t-133 -131.5t-219.5 -48h-193v741zM216 641v-541h77q125 0 189.5 73t64.5 197q0 125 -64.5 198t-189.5 73h-77z" />
    <glyph glyph-name="E" unicode="E" horiz-adv-x="569" 
d="M90 741h439l-11 -100h-302v-202h244v-100h-244v-239h324v-100h-450v741z" />
    <glyph glyph-name="F" unicode="F" horiz-adv-x="556" 
d="M90 741h438l-11 -100h-301v-202h244v-100h-244v-339h-126v741z" />
    <glyph glyph-name="G" unicode="G" horiz-adv-x="712" 
d="M648 53q-37 -29 -101 -47.5t-137 -18.5q-110 0 -189 45.5t-120.5 131.5t-41.5 206q0 119 42.5 205t122.5 132.5t190 46.5q64 0 121 -14.5t103 -40.5l-32 -109q-46 34 -91.5 49t-93.5 15q-111 0 -170 -76t-59 -207q0 -137 59.5 -210.5t170.5 -73.5q59 0 105 22v199h-156
v100h277v-355z" />
    <glyph glyph-name="H" unicode="H" horiz-adv-x="741" 
d="M90 741h126v-298h309v298h126v-741h-126v341h-309v-341h-126v741z" />
    <glyph glyph-name="I" unicode="I" horiz-adv-x="306" 
d="M90 741h126v-741h-126v741z" />
    <glyph glyph-name="J" unicode="J" horiz-adv-x="437" 
d="M356 198q0 -97 -53.5 -154t-157.5 -57q-37 0 -68.5 7t-58.5 19l11 108q47 -29 101 -29q47 0 74 30.5t27 98.5v520h125v-543z" />
    <glyph glyph-name="K" unicode="K" horiz-adv-x="687" 
d="M90 741h126v-321q73 80 142.5 160t137.5 161h149q-75 -86 -152 -172t-157 -172q87 -99 171 -198.5t165 -198.5h-161q-71 88 -145 178t-150 180v-358h-126v741z" />
    <glyph glyph-name="L" unicode="L" horiz-adv-x="538" 
d="M90 741h126v-640h304v-101h-430v741z" />
    <glyph glyph-name="M" unicode="M" horiz-adv-x="940" 
d="M100 741h114l258 -520l258 520h109l18 -741h-117l-11 514l-219 -443h-82l-219 443l-11 -514h-115z" />
    <glyph glyph-name="N" unicode="N" horiz-adv-x="745" 
d="M90 741h132l319 -513l-1 57v456h115v-741h-104l-346 559v-48v-511h-115v741z" />
    <glyph glyph-name="O" unicode="O" horiz-adv-x="777" 
d="M59 379q0 110 37.5 194.5t111 132.5t181.5 48q109 0 182 -48t110.5 -132.5t37.5 -194.5q0 -115 -36.5 -203.5t-109.5 -138.5t-184 -50q-110 0 -183.5 50t-110 138.5t-36.5 203.5zM586 379q0 128 -51 202t-146 74t-146 -74t-51 -202q0 -134 51.5 -213.5t145.5 -79.5
q95 0 146 79.5t51 213.5z" />
    <glyph glyph-name="P" unicode="P" horiz-adv-x="614" 
d="M90 741h193q89 0 155 -24.5t103 -74t37 -124.5t-37 -125t-103 -74.5t-155 -24.5h-67v-294h-126v741zM405 423q43 32 43 95q0 62 -43 94t-120 32h-69v-253h69q77 0 120 32z" />
    <glyph glyph-name="Q" unicode="Q" horiz-adv-x="777" 
d="M503 4q30 -33 78.5 -55.5t118.5 -29.5l-67 -93q-85 9 -144 54t-90 107h-10q-110 0 -183.5 50t-110 138.5t-36.5 203.5q0 110 37.5 194.5t111 132.5t181.5 48q109 0 182 -48t110.5 -132.5t37.5 -194.5q0 -140 -54 -240t-162 -135zM586 379q0 128 -51 202t-146 74t-146 -74
t-51 -202q0 -134 51.5 -213.5t145.5 -79.5q95 0 146 79.5t51 213.5z" />
    <glyph glyph-name="R" unicode="R" horiz-adv-x="670" 
d="M90 741h195q85 0 151 -22.5t104 -68t38 -114.5q0 -71 -38.5 -117.5t-106.5 -67.5q58 -30 109.5 -113.5t110.5 -237.5h-139q-39 95 -69.5 154.5t-59.5 91.5t-61.5 44t-76.5 12h-31v-302h-126v741zM404 429.5q45 32.5 45 93.5t-45 91t-115 30h-73v-247h73q70 0 115 32.5z
" />
    <glyph glyph-name="S" unicode="S" horiz-adv-x="600" 
d="M277 -13q-63 0 -123 14.5t-109 41.5l12 118q100 -73 216 -73q73 0 113 29t40 82q0 29 -13.5 49.5t-48.5 39t-99 41.5q-76 28 -120 60t-62.5 70t-18.5 82q0 65 32 113t90 74t136 26q114 0 206 -49l-32 -107q-34 27 -76.5 42t-91.5 15q-63 0 -100.5 -26t-37.5 -74
q0 -38 34 -63t119 -57q85 -30 130 -64t62.5 -72.5t17.5 -84.5q0 -105 -74 -166t-202 -61z" />
    <glyph glyph-name="T" unicode="T" horiz-adv-x="598" 
d="M236 640h-217v101h560v-101h-217v-640h-126v640z" />
    <glyph glyph-name="U" unicode="U" horiz-adv-x="712" 
d="M508 741h123v-483q0 -127 -72.5 -199t-201.5 -72q-130 0 -203 72t-73 199v483h126v-467q0 -186 149 -186q76 0 114 43.5t38 126.5v483z" />
    <glyph glyph-name="V" unicode="V" horiz-adv-x="726" 
d="M572 741h128q-43 -119 -90.5 -244.5t-96 -251.5t-96.5 -245h-108q-47 119 -96 245t-96.5 251.5t-90.5 244.5h135q47 -138 100 -285.5t105 -289.5q53 142 106 290t100 285z" />
    <glyph glyph-name="W" unicode="W" horiz-adv-x="1040" 
d="M520 547l-158 -547h-105q-58 185 -114 370.5t-109 370.5h130q72 -272 149 -543l151 523h115l152 -525q38 137 77 273t75 272h123q-105 -370 -222 -741h-106z" />
    <glyph glyph-name="X" unicode="X" horiz-adv-x="702" 
d="M280 390l-233 351h147l162 -262l166 262h139l-236 -355l255 -386h-147l-183 297l-189 -297h-139z" />
    <glyph glyph-name="Y" unicode="Y" horiz-adv-x="680" 
d="M405 297v-297h-126v298l-254 443h139l182 -338l177 338h132z" />
    <glyph glyph-name="Z" unicode="Z" horiz-adv-x="603" 
d="M406 640h-350l5 101h488v-93l-360 -547h367v-101h-510v93z" />
    <glyph glyph-name="bracketleft" unicode="[" horiz-adv-x="340" 
d="M96 760h219v-90h-102v-797h102v-90h-219v977z" />
    <glyph glyph-name="backslash" unicode="\" horiz-adv-x="467" 
d="M6 760h112l343 -977h-112z" />
    <glyph glyph-name="bracketright" unicode="]" horiz-adv-x="340" 
d="M244 -217h-219v90h102v797h-102v90h219v-977z" />
    <glyph glyph-name="asciicircum" unicode="^" 
d="M272 741h107l192 -404h-118l-129 283l-129 -283h-116z" />
    <glyph glyph-name="underscore" unicode="_" horiz-adv-x="500" 
d="M0 -78h500v-103h-500v103z" />
    <glyph glyph-name="grave" unicode="`" horiz-adv-x="560" 
d="M180 746q14 26 38.5 47t54.5 30l118 -180l-53 -44z" />
    <glyph glyph-name="a" unicode="a" horiz-adv-x="551" 
d="M486 94q0 -23 3 -50.5t7 -43.5h-112q-4 11 -7 29t-5 36q-27 -39 -68.5 -58.5t-90.5 -19.5q-71 0 -117 43.5t-46 115.5q0 80 66 129t195 62l55 6q-1 51 -32 81t-90 30q-37 0 -77.5 -13t-75.5 -42l-10 104q37 21 85.5 33t97.5 12q108 0 165 -57t57 -161v-236zM192 97.5
q22 -21.5 59 -21.5q34 0 65 17.5t50 49.5v124l-44 -5q-79 -9 -115.5 -36.5t-36.5 -71.5q0 -35 22 -56.5z" />
    <glyph glyph-name="b" unicode="b" horiz-adv-x="612" 
d="M71 760h120v-290q24 36 64 57t90 21q100 0 158.5 -75t58.5 -206q0 -86 -26.5 -149t-75 -97t-114.5 -34q-52 0 -93 22.5t-65 61.5v-71h-117v760zM312 453q-40 0 -72.5 -21.5t-48.5 -58.5v-210q16 -38 48.5 -59.5t72.5 -21.5q59 0 92.5 49.5t33.5 135.5q0 87 -33.5 136.5
t-92.5 49.5z" />
    <glyph glyph-name="c" unicode="c" horiz-adv-x="499" 
d="M50 266q0 85 32.5 148t91 98.5t136.5 35.5q44 0 85 -11t69 -29l-31 -97q-49 41 -110 41q-68 0 -108.5 -49t-40.5 -135t41 -135.5t114 -49.5q32 0 65.5 11.5t54.5 33.5l12 -108q-26 -14 -64.5 -23.5t-84.5 -9.5q-124 0 -193 75.5t-69 203.5z" />
    <glyph glyph-name="d" unicode="d" horiz-adv-x="612" 
d="M542 0h-117v71q-24 -39 -65 -61.5t-93 -22.5q-66 0 -114.5 34t-75.5 97t-27 149q0 87 27 150t76 97t115 34q49 0 89.5 -21t64.5 -57v290h120v-760zM422 165v206q-16 38 -48.5 60t-73.5 22q-59 0 -92.5 -49.5t-33.5 -136.5q0 -86 33.5 -135.5t93.5 -49.5q41 0 73 22.5
t48 60.5z" />
    <glyph glyph-name="e" unicode="e" horiz-adv-x="558" 
d="M493 127l12 -105q-30 -16 -76.5 -25.5t-99.5 -9.5q-85 0 -148 35t-97 99.5t-34 153.5q0 82 29.5 143t84.5 95.5t131 34.5q100 0 157 -62.5t57 -179.5q0 -9 -0.5 -27t-1.5 -29h-335q8 -85 54.5 -127t118.5 -42q38 0 79.5 11.5t68.5 34.5zM294 462q-50 0 -82 -35t-40 -99
h226q0 66 -27.5 100t-76.5 34z" />
    <glyph glyph-name="f" unicode="f" horiz-adv-x="426" 
d="M127 447h-90v88h90v13q0 107 56 166t156 59q47 0 87 -12l-12 -100q-22 16 -60 16q-51 0 -79 -30.5t-28 -89.5v-22h142v-88h-142v-447h-120v447z" />
    <glyph glyph-name="g" unicode="g" horiz-adv-x="605" 
d="M542 61q0 -139 -70.5 -215t-210.5 -76q-45 0 -89.5 10t-81.5 30l11 109q35 -29 75.5 -41t79.5 -12q84 0 125 44t41 126v32q-24 -36 -64.5 -57t-89.5 -21q-100 0 -159 74.5t-59 204.5q0 86 27 148.5t75.5 96.5t114.5 34q52 0 93 -22.5t65 -61.5v71h117v-474zM207.5 404
q-33.5 -49 -33.5 -135t33.5 -135t92.5 -49q41 0 73.5 22t48.5 60v203q-16 38 -48 60.5t-73 22.5q-60 0 -93.5 -49z" />
    <glyph glyph-name="h" unicode="h" horiz-adv-x="587" 
d="M71 760h120v-291q27 39 68 59t89 20q79 0 128 -52t49 -145v-351h-120v343q0 50 -25 79.5t-70 29.5q-38 0 -70.5 -22t-48.5 -57v-373h-120v760z" />
    <glyph glyph-name="i" unicode="i" horiz-adv-x="262" 
d="M71 535h120v-535h-120v535zM57 688q0 32 21.5 53t52.5 21q32 0 53 -21t21 -53q0 -31 -21 -52.5t-53 -21.5q-31 0 -52.5 21.5t-21.5 52.5z" />
    <glyph glyph-name="j" unicode="j" horiz-adv-x="262" 
d="M71 535h120v-570q0 -195 -175 -195q-19 0 -38.5 3t-35.5 10l11 96q9 -5 21.5 -9t28.5 -4q68 0 68 95v574zM57 688q0 32 21.5 53t52.5 21q32 0 53 -21t21 -53q0 -31 -21 -52.5t-53 -21.5q-31 0 -52.5 21.5t-21.5 52.5z" />
    <glyph glyph-name="k" unicode="k" horiz-adv-x="572" 
d="M71 760h120v-455q54 57 106.5 114.5t102.5 115.5h142q-114 -124 -234 -248q66 -72 129.5 -143.5t125.5 -143.5h-152q-52 63 -107 128t-113 130v-258h-120v760z" />
    <glyph glyph-name="l" unicode="l" horiz-adv-x="333" 
d="M70 760h120v-599q0 -41 15 -58.5t48 -17.5q38 0 62 22l-9 -103q-14 -6 -37 -10.5t-49 -4.5q-150 0 -150 155v616z" />
    <glyph glyph-name="m" unicode="m" horiz-adv-x="897" 
d="M71 535h117v-71q26 42 66.5 63t89.5 21q53 0 91.5 -25.5t58.5 -72.5q29 49 73.5 73.5t98.5 24.5q75 0 121.5 -52t46.5 -145v-351h-120v343q0 50 -23 79.5t-64 29.5q-39 0 -69 -22t-46 -57v-373h-120v343q0 50 -22.5 79.5t-64.5 29.5q-38 0 -68 -22t-46 -57v-373h-120v535
z" />
    <glyph glyph-name="n" unicode="n" horiz-adv-x="587" 
d="M71 535h117v-71q26 42 68.5 63t91.5 21q79 0 128 -52t49 -145v-351h-120v343q0 50 -25 79.5t-70 29.5q-38 0 -70.5 -22t-48.5 -57v-373h-120v535z" />
    <glyph glyph-name="o" unicode="o" horiz-adv-x="611" 
d="M50 275q0 81 28.5 142.5t85 96t141.5 34.5t141.5 -34.5t85 -96t28.5 -142.5q0 -85 -27.5 -150t-84 -101.5t-143.5 -36.5q-86 0 -142.5 36.5t-84.5 101.5t-28 150zM436 275q0 83 -33 131t-98 48q-64 0 -97.5 -48t-33.5 -131q0 -89 33.5 -141.5t97.5 -52.5q65 0 98 52.5
t33 141.5z" />
    <glyph glyph-name="p" unicode="p" horiz-adv-x="612" 
d="M71 535h117v-71q24 39 65 61.5t93 22.5q99 0 157.5 -75t58.5 -206q0 -130 -58.5 -205t-158.5 -75q-50 0 -90 20.5t-64 57.5v-282h-120v752zM239.5 431.5q-32.5 -21.5 -48.5 -59.5v-210q16 -37 48.5 -58.5t72.5 -21.5q59 0 92.5 49.5t33.5 135.5q0 87 -33.5 136.5
t-92.5 49.5q-40 0 -72.5 -21.5z" />
    <glyph glyph-name="q" unicode="q" horiz-adv-x="612" 
d="M542 -217h-120v282q-24 -37 -64.5 -57.5t-89.5 -20.5q-66 0 -115 34t-76 97t-27 149q0 87 27 150t75.5 97t114.5 34q52 0 93 -22.5t65 -61.5v71h117v-752zM300 82q41 0 73.5 22t48.5 60v206q-16 38 -48 60.5t-73 22.5q-60 0 -93.5 -49.5t-33.5 -136.5q0 -86 33.5 -135.5
t92.5 -49.5z" />
    <glyph glyph-name="r" unicode="r" horiz-adv-x="411" 
d="M71 535h117v-95q26 56 68.5 82t89.5 26q10 0 19.5 -1t17.5 -3l-13 -123q-9 5 -21.5 7t-25.5 2q-44 0 -80 -29t-52 -75v-326h-120v535z" />
    <glyph glyph-name="s" unicode="s" horiz-adv-x="482" 
d="M58 132q34 -28 75 -42t82 -14q49 0 77.5 19t28.5 52q0 17 -10 29t-34.5 24.5t-70.5 28.5q-84 30 -117.5 68t-33.5 90q0 50 26 86t72 55.5t104 19.5q44 0 86.5 -11t70.5 -29l-29 -92q-53 44 -121 44q-42 0 -67.5 -16t-25.5 -47q0 -25 25 -41t89 -39q60 -21 93 -46t46 -54
t13 -62q0 -80 -61 -124t-159 -44q-49 0 -94.5 11t-77.5 29z" />
    <glyph glyph-name="t" unicode="t" horiz-adv-x="419" 
d="M116 447h-90v88h90v105l120 55v-160h143v-88h-143v-267q0 -49 18 -73t59 -24q19 0 39.5 6.5t36.5 18.5l-10 -103q-21 -9 -47 -13.5t-52 -4.5q-164 0 -164 173v287z" />
    <glyph glyph-name="u" unicode="u" horiz-adv-x="586" 
d="M395 535h120v-535h-117v71q-27 -43 -69.5 -63.5t-90.5 -20.5q-78 0 -126.5 51.5t-48.5 145.5v351h120v-343q0 -50 24.5 -79.5t68.5 -29.5q38 0 70.5 22t48.5 57v373z" />
    <glyph glyph-name="v" unicode="v" horiz-adv-x="563" 
d="M16 535h125q35 -97 70.5 -194t72.5 -194q37 97 72.5 194t69.5 194h120q-51 -133 -105 -267t-110 -268h-99q-56 134 -110.5 268t-105.5 267z" />
    <glyph glyph-name="w" unicode="w" horiz-adv-x="791" 
d="M396 373l-116 -373h-84q-46 134 -88.5 268t-83.5 267h118q24 -89 49.5 -178t52.5 -177l106 341h95l106 -346q28 90 54 180t50 180h113q-40 -133 -83 -267t-89 -268h-85z" />
    <glyph glyph-name="x" unicode="x" horiz-adv-x="550" 
d="M209 282l-175 253h133l112 -181l116 181h128l-179 -257l193 -278h-133l-129 204l-135 -204h-127z" />
    <glyph glyph-name="y" unicode="y" horiz-adv-x="558" 
d="M330 -2q-34 -83 -69 -133t-77.5 -72.5t-100.5 -22.5q-30 0 -52.5 5t-41.5 13l10 100q17 -10 35.5 -16t40.5 -6q47 0 79.5 31t58.5 101l8 21q-53 129 -104.5 258t-100.5 258h125q34 -97 69 -193t72 -193q37 97 71.5 193.5t67.5 192.5h120q-50 -133 -102.5 -266.5
t-108.5 -270.5z" />
    <glyph glyph-name="z" unicode="z" horiz-adv-x="483" 
d="M298 445h-252v90h390v-83l-260 -362h270v-90h-410v83z" />
    <glyph glyph-name="braceleft" unicode="{" horiz-adv-x="349" 
d="M106 138q0 47 -19 66t-70 25v85q51 6 70 25t19 66v193q0 44 14.5 80.5t50.5 59t101 22.5h54v-90h-30q-26 0 -48.5 -17t-22.5 -60v-191q0 -49 -17.5 -80.5t-56.5 -49.5q39 -18 56.5 -50t17.5 -81v-191q0 -43 22.5 -60t48.5 -17h30v-90h-54q-65 0 -101 22.5t-50.5 59.5
t-14.5 80v193z" />
    <glyph glyph-name="bar" unicode="|" horiz-adv-x="268" 
d="M77 760h114v-977h-114v977z" />
    <glyph glyph-name="braceright" unicode="}" horiz-adv-x="349" 
d="M242 -55q0 -43 -14.5 -80t-50.5 -59.5t-101 -22.5h-53v90h30q26 0 48.5 17t22.5 60v191q0 49 17.5 80.5t56.5 50.5q-39 18 -56.5 49.5t-17.5 80.5v191q0 43 -22.5 60t-48.5 17h-30v90h53q65 0 101 -22.5t50.5 -59t14.5 -80.5v-192q0 -47 19 -66t70 -25v-86
q-51 -6 -70 -25t-19 -66v-193z" />
    <glyph glyph-name="asciitilde" unicode="~" 
d="M447 235q-36 0 -65 11.5t-74 43.5q-30 22 -47 33t-27 15t-21 4q-28 0 -41.5 -23.5t-20.5 -83.5l-104 25q8 89 51 143t106 54q36 0 64.5 -12t73.5 -44q30 -22 47 -33t27.5 -15t20.5 -4q28 0 41.5 23.5t20.5 84.5l104 -26q-8 -88 -51 -142t-105 -54z" />
    <glyph glyph-name="uni00A0" unicode="&#xa0;" horiz-adv-x="234" 
 />
    <glyph glyph-name="exclamdown" unicode="&#xa1;" horiz-adv-x="258" 
d="M84 305h90l30 -516q-12 -10 -32 -18.5t-43 -8.5q-22 0 -42 8.5t-33 18.5zM207 454q0 -34 -22 -57.5t-56 -23.5t-56 23.5t-22 57.5t22 57.5t56 23.5t56 -23.5t22 -57.5z" />
    <glyph glyph-name="cent" unicode="&#xa2;" 
d="M383 186q44 0 81.5 13.5t58.5 32.5l12 -108q-26 -14 -70 -23t-93 -10l-14 -124h-71l15 130q-93 19 -144 90t-51 179q0 85 32 148t90 98t136 39l14 123h71l-15 -127q31 -5 58 -14t47 -22l-31 -96q-36 29 -84 38zM228 371q0 -63 22.5 -107t63.5 -63l40 352
q-59 -12 -92.5 -58.5t-33.5 -123.5z" />
    <glyph glyph-name="sterling" unicode="&#xa3;" 
d="M389 754q50 0 97.5 -12.5t79.5 -33.5l-34 -105q-60 51 -134 51q-58 0 -91 -31.5t-33 -86.5q0 -29 6 -56t13 -56h210l-28 -95h-161q2 -14 3 -29.5t1 -32.5q0 -44 -12.5 -87t-44.5 -79h318v-101h-506v101h56q27 14 42.5 40.5t22.5 57t7 56.5q0 20 -2 38.5t-5 35.5h-123v95
h99q-7 27 -12.5 55.5t-5.5 61.5q0 96 63 154.5t174 58.5z" />
    <glyph glyph-name="currency" unicode="&#xa4;" 
d="M455 147q-28 -18 -61 -28t-69 -10q-35 0 -68 10t-61 28l-78 -77l-67 67l76 76q-19 29 -31 64.5t-12 72.5q0 38 12 73.5t31 64.5l-76 75l67 68l78 -77q57 37 129 37q73 0 130 -37l78 77l66 -68l-75 -75q20 -29 31 -64.5t11 -73.5q0 -37 -11 -72.5t-31 -64.5l75 -76
l-66 -67zM397.5 220q32.5 20 51.5 54t19 76t-19 76.5t-51.5 54.5t-72.5 20q-39 0 -71.5 -20t-52 -54.5t-19.5 -76.5t19.5 -76t52 -54t71.5 -20q40 0 72.5 20z" />
    <glyph glyph-name="yen" unicode="&#xa5;" 
d="M331 401l164 340h133l-170 -319h121v-88h-167l-22 -41v-41h189v-88h-189v-164h-126v164h-192v88h192v43l-21 39h-171v88h123l-172 319h139z" />
    <glyph glyph-name="brokenbar" unicode="&#xa6;" horiz-adv-x="268" 
d="M77 175h114v-392h-114v392zM77 760h114v-392h-114v392z" />
    <glyph glyph-name="section" unicode="&#xa7;" horiz-adv-x="629" 
d="M51 -50l11 108q41 -40 104 -64t127 -24q55 0 97 18q3 33 -12 64.5t-46 57.5l-145 114q-65 52 -103 112t-38 140q0 83 38 145.5t104.5 97.5t151.5 35q55 0 111 -16.5t105 -48.5l-26 -97q-50 38 -102 55.5t-99 17.5q-50 0 -90 -17q-8 -71 58 -123l145 -115
q65 -51 103 -111.5t38 -140.5q0 -82 -39 -145t-107 -98t-156 -35q-65 0 -128.5 19.5t-101.5 50.5zM169 379.5q31 -47.5 83 -88.5l119 -93q35 -28 61 -64.5t34 -81.5q25 41 25 96q0 61 -31 107t-84 88l-118 93q-37 29 -62.5 65t-32.5 84q-25 -41 -25 -96q0 -62 31 -109.5z
" />
    <glyph glyph-name="dieresis" unicode="&#xa8;" horiz-adv-x="560" 
d="M110 687q0 30 20 50t48 20q29 0 48.5 -20t19.5 -50q0 -29 -19.5 -49t-48.5 -20q-28 0 -48 20t-20 49zM313 687q0 30 20 50t48 20q29 0 48.5 -20t19.5 -50q0 -29 -19.5 -49t-48.5 -20q-28 0 -48 20t-20 49z" />
    <glyph glyph-name="copyright" unicode="&#xa9;" horiz-adv-x="805" 
d="M750 220.5q-28 -70.5 -78.5 -123t-119 -81.5t-149.5 -29t-150 29t-119.5 81.5t-78.5 123t-28 153.5t28 153.5t78.5 123t119.5 81.5t150 29t149.5 -29t119 -81.5t78.5 -123t28 -153.5t-28 -153.5zM693 374q0 89 -37.5 158.5t-103 109t-149.5 39.5t-149.5 -39.5t-103 -109
t-37.5 -158.5q0 -88 37.5 -157.5t103 -109t149.5 -39.5t149.5 39.5t103 109t37.5 157.5zM527 543l-20 -77q-39 33 -87 33q-46 0 -74 -34t-28 -89t29 -87.5t78 -32.5q28 0 53 9.5t42 25.5l9 -83q-20 -11 -51.5 -17.5t-62.5 -6.5q-88 0 -137.5 52t-49.5 140q0 90 51 142.5
t136 52.5q65 0 112 -28z" />
    <glyph glyph-name="ordfeminine" unicode="&#xaa;" horiz-adv-x="435" 
d="M369 433q0 -17 2 -36.5t5 -30.5h-90q-5 15 -8 42q-21 -26 -50.5 -39t-62.5 -13q-53 0 -87 31t-34 82q0 56 48 91t144 45l37 4q-2 73 -85 73q-28 0 -57.5 -10t-55.5 -30l-7 80q27 15 63 23.5t72 8.5q80 0 123 -40.5t43 -114.5v-166zM140 477q0 -23 14 -37t39 -14
q20 0 42 10t38 30v83l-25 -2q-57 -6 -82.5 -23.5t-25.5 -46.5z" />
    <glyph glyph-name="guillemotleft" unicode="&#xab;" horiz-adv-x="597" 
d="M201 493h122l-151 -221l151 -219h-122l-158 219zM424 493h122l-151 -221l151 -219h-122l-158 219z" />
    <glyph glyph-name="logicalnot" unicode="&#xac;" 
d="M462 400h-382v103h491v-304h-109v201z" />
    <glyph glyph-name="uni00AD" unicode="&#xad;" horiz-adv-x="322" 
d="M22 332h278v-106h-278v106z" />
    <glyph glyph-name="registered" unicode="&#xae;" horiz-adv-x="805" 
d="M552 16q-69 -29 -150 -29t-149.5 29t-119 81.5t-78.5 123t-28 153.5t28 153.5t78.5 123t119 81.5t149.5 29t150 -29t119.5 -81.5t78.5 -123t28 -153.5t-28 -153.5t-78.5 -123t-119.5 -81.5zM552 641q-65 40 -150 40q-84 0 -149.5 -40t-103 -109t-37.5 -158
q0 -88 37.5 -157.5t103 -109.5t149.5 -40q85 0 150 40t102.5 109.5t37.5 157.5q0 89 -37.5 158t-102.5 109zM258 561h120q70 0 115.5 -26t45.5 -80q0 -36 -22.5 -59t-60.5 -33q33 -15 61 -55t55 -114h-96q-23 55 -41 85.5t-39.5 43t-52.5 13.5v-142h-85v367zM432 410
q21 14 21 38q0 26 -21 39t-52 13h-37v-104h37q31 0 52 14z" />
    <glyph glyph-name="macron" unicode="&#xaf;" horiz-adv-x="560" 
d="M134 730h292v-86h-292v86z" />
    <glyph glyph-name="degree" unicode="&#xb0;" horiz-adv-x="420" 
d="M211 415q-49 0 -89 22.5t-63 61t-23 86.5t23 86t63 60.5t89 22.5t88.5 -22.5t62.5 -60.5t23 -86t-23 -86.5t-62.5 -61t-88.5 -22.5zM270.5 647q-23.5 25 -59.5 25t-60 -25t-24 -62t24 -62.5t60 -25.5t59.5 25.5t23.5 62.5t-23.5 62z" />
    <glyph glyph-name="plusminus" unicode="&#xb1;" 
d="M271 668h109v-204h191v-103h-191v-204h-109v204h-191v103h191v204zM80 99h491v-103h-491v103z" />
    <glyph glyph-name="uni00B2" unicode="&#xb2;" horiz-adv-x="414" 
d="M187 658q36 23 51.5 43t15.5 39q0 23 -19 36.5t-51 13.5q-62 0 -117 -46l-5 81q31 18 66 27t71 9q69 0 109 -32.5t40 -85.5q0 -39 -23 -68.5t-69 -58.5q-35 -22 -55.5 -40t-31.5 -40h192l-8 -72h-299q0 59 32.5 105t100.5 89z" />
    <glyph glyph-name="uni00B3" unicode="&#xb3;" horiz-adv-x="402" 
d="M230 781h-175l6 71h275l-6 -58l-107 -95q59 -4 91.5 -34t32.5 -77q0 -58 -49.5 -95t-130.5 -37q-32 0 -64.5 7t-60.5 20l7 75q52 -29 112 -29q41 0 66 17t25 46q0 28 -23 42t-59 14q-13 0 -24.5 -2t-19.5 -4v41z" />
    <glyph glyph-name="acute" unicode="&#xb4;" horiz-adv-x="560" 
d="M288 823q30 -9 54.5 -30t38.5 -47l-158 -147l-53 44z" />
    <glyph glyph-name="uni00B5" unicode="&#xb5;" horiz-adv-x="586" 
d="M63 535h120v-343q0 -50 24.5 -79.5t68.5 -29.5q38 0 70.5 22t48.5 57v373h120v-535h-117v71q-26 -42 -66 -62t-82 -20q-40 0 -68 16v-222h-119v752z" />
    <glyph glyph-name="paragraph" unicode="&#xb6;" horiz-adv-x="692" 
d="M616 -108h-102v754h-103v-754h-102v402q-81 2 -142 27t-95 74.5t-34 122.5q0 111 78.5 167t216.5 56h283v-849zM309 644q-164 0 -164 -126q0 -123 164 -127v253z" />
    <glyph glyph-name="periodcentered" unicode="&#xb7;" horiz-adv-x="278" 
d="M61 267q0 35 22 58t56 23t56 -23t22 -58q0 -34 -22 -57.5t-56 -23.5t-56 23.5t-22 57.5z" />
    <glyph glyph-name="cedilla" unicode="&#xb8;" horiz-adv-x="560" 
d="M240 13h77l-19 -71q54 -4 80.5 -29t26.5 -63q0 -49 -39 -76t-111 -27q-25 0 -53 6.5t-42 13.5l9 73q34 -24 81 -24q61 0 61 36q0 35 -63 35q-21 0 -44 -5z" />
    <glyph glyph-name="uni00B9" unicode="&#xb9;" horiz-adv-x="413" 
d="M264 540h89v-76h-280v76h101v219l-93 -43l-7 75l126 61h64v-312z" />
    <glyph glyph-name="ordmasculine" unicode="&#xba;" horiz-adv-x="442" 
d="M38 561q0 86 46 139.5t137 53.5q92 0 137.5 -53.5t45.5 -139.5q0 -91 -44.5 -148t-138.5 -57q-93 0 -138 57t-45 148zM305 561q0 51 -21 83t-63 32t-63.5 -32t-21.5 -83q0 -58 21.5 -92.5t63.5 -34.5t63 34.5t21 92.5z" />
    <glyph glyph-name="guillemotright" unicode="&#xbb;" horiz-adv-x="597" 
d="M50 493h123l158 -221l-158 -219h-123l151 219zM273 493h123l158 -221l-158 -219h-123l151 219z" />
    <glyph glyph-name="onequarter" unicode="&#xbc;" horiz-adv-x="896" 
d="M264 430h89v-76h-280v76h101v219l-93 -43l-7 75l126 61h64v-312zM668 741h110l-503 -741h-110zM703 388h96v-240h68l-7 -69h-61v-79h-89v79h-236v58zM570 148h140v154z" />
    <glyph glyph-name="onehalf" unicode="&#xbd;" horiz-adv-x="909" 
d="M264 430h89v-76h-280v76h101v219l-93 -43l-7 75l126 61h64v-312zM656 741h110l-503 -741h-110zM682 194q36 23 51.5 43t15.5 39q0 23 -19 36.5t-51 13.5q-62 0 -117 -46l-5 81q31 18 66 27t71 9q69 0 109 -32.5t40 -85.5q0 -39 -23 -68.5t-69 -58.5q-35 -22 -55.5 -40
t-31.5 -40h192l-8 -72h-299q0 59 32.5 105t100.5 89z" />
    <glyph glyph-name="threequarters" unicode="&#xbe;" horiz-adv-x="885" 
d="M230 671h-175l6 71h275l-6 -58l-107 -95q59 -4 91.5 -34t32.5 -77q0 -58 -49.5 -95t-130.5 -37q-32 0 -64.5 7t-60.5 20l7 75q52 -29 112 -29q41 0 66 17t25 46q0 28 -23 42t-59 14q-13 0 -24.5 -2t-19.5 -4v41zM641 741h110l-503 -741h-110zM693 388h96v-240h68l-7 -69
h-61v-79h-89v79h-236v58zM560 148h140v154z" />
    <glyph glyph-name="questiondown" unicode="&#xbf;" horiz-adv-x="471" 
d="M450 -174q-37 -26 -86.5 -42t-108.5 -16q-66 0 -116.5 24t-79 67.5t-28.5 103.5q0 51 25.5 98t87.5 104q47 44 66.5 75t23.5 65h90q3 -32 -3.5 -59t-25.5 -56t-56 -68q-43 -44 -62.5 -79t-19.5 -70q0 -53 31.5 -79.5t83.5 -26.5q47 0 89 21t79 60zM200 454q0 34 22 57.5
t56 23.5t56 -23.5t22 -57.5t-22 -57.5t-56 -23.5t-56 23.5t-22 57.5z" />
    <glyph glyph-name="Agrave" unicode="&#xc0;" horiz-adv-x="758" 
d="M307 741h143q71 -185 139 -370.5t132 -370.5h-131q-32 99 -66 200h-296q-17 -50 -33.5 -100t-32.5 -100h-126q65 185 133 370.5t138 370.5zM376 627q-29 -81 -57.5 -163t-56.5 -164h228q-28 82 -56.5 164t-57.5 163zM226 926q14 28 36 51.5t50 33.5l134 -163l-51 -50z
" />
    <glyph glyph-name="Aacute" unicode="&#xc1;" horiz-adv-x="758" 
d="M307 741h143q71 -185 139 -370.5t132 -370.5h-131q-32 99 -66 200h-296q-17 -50 -33.5 -100t-32.5 -100h-126q65 185 133 370.5t138 370.5zM376 627q-29 -81 -57.5 -163t-56.5 -164h228q-28 82 -56.5 164t-57.5 163zM444 1011q28 -10 50.5 -33.5t35.5 -51.5l-169 -128
l-50 50z" />
    <glyph glyph-name="Acircumflex" unicode="&#xc2;" horiz-adv-x="758" 
d="M307 741h143q71 -185 139 -370.5t132 -370.5h-131q-32 99 -66 200h-296q-17 -50 -33.5 -100t-32.5 -100h-126q65 185 133 370.5t138 370.5zM376 627q-29 -81 -57.5 -163t-56.5 -164h228q-28 82 -56.5 164t-57.5 163zM330 989h96l121 -145l-57 -48l-112 105l-111 -105
l-58 48z" />
    <glyph glyph-name="Atilde" unicode="&#xc3;" horiz-adv-x="758" 
d="M307 741h143q71 -185 139 -370.5t132 -370.5h-131q-32 99 -66 200h-296q-17 -50 -33.5 -100t-32.5 -100h-126q65 185 133 370.5t138 370.5zM376 627q-29 -81 -57.5 -163t-56.5 -164h228q-28 82 -56.5 164t-57.5 163zM304 972q20 0 40.5 -8t47.5 -28q22 -15 32 -20t21 -5
q35 0 35 63l82 -14q0 -65 -28 -102t-81 -37q-20 0 -40.5 7.5t-47.5 27.5q-22 16 -32 20.5t-21 4.5q-35 0 -35 -63l-82 14q0 65 28.5 102.5t80.5 37.5z" />
    <glyph glyph-name="Adieresis" unicode="&#xc4;" horiz-adv-x="758" 
d="M307 741h143q71 -185 139 -370.5t132 -370.5h-131q-32 99 -66 200h-296q-17 -50 -33.5 -100t-32.5 -100h-126q65 185 133 370.5t138 370.5zM376 627q-29 -81 -57.5 -163t-56.5 -164h228q-28 82 -56.5 164t-57.5 163zM200 879q0 31 20 51.5t50 20.5q29 0 49 -20.5
t20 -51.5q0 -30 -20 -50.5t-49 -20.5q-30 0 -50 20.5t-20 50.5zM418 879q0 31 20 51.5t50 20.5q29 0 49 -20.5t20 -51.5q0 -30 -20 -50.5t-49 -20.5q-30 0 -50 20.5t-20 50.5z" />
    <glyph glyph-name="Aring" unicode="&#xc5;" horiz-adv-x="758" 
d="M307 741h143q71 -185 139 -370.5t132 -370.5h-131q-32 99 -66 200h-296q-17 -50 -33.5 -100t-32.5 -100h-126q65 185 133 370.5t138 370.5zM376 627q-29 -81 -57.5 -163t-56.5 -164h228q-28 82 -56.5 164t-57.5 163zM378 778q-52 0 -86 31.5t-34 79.5t34 79.5t86 31.5
t86 -31.5t34 -79.5t-34 -79.5t-86 -31.5zM378 939q-22 0 -36 -13.5t-14 -36.5q0 -22 14 -36t36 -14q23 0 36.5 14t13.5 36q0 23 -13.5 36.5t-36.5 13.5z" />
    <glyph glyph-name="AE" unicode="&#xc6;" horiz-adv-x="1000" 
d="M462 741h497l-11 -100h-301v-202h244v-100h-244v-239h324v-100h-450v200h-242l-111 -200h-132zM521 635l-186 -335h186v335z" />
    <glyph glyph-name="Ccedilla" unicode="&#xc7;" horiz-adv-x="652" 
d="M218.5 707.5q76.5 46.5 182.5 46.5q62 0 116.5 -14.5t97.5 -40.5l-31 -109q-43 35 -85.5 49.5t-86.5 14.5q-106 0 -163 -75.5t-57 -206.5q0 -135 58 -210t166 -75q53 0 101.5 17t81.5 48l15 -117q-37 -22 -94.5 -35t-118.5 -13q-108 0 -184.5 46t-117 131.5t-40.5 204.5
t41.5 205.5t118 133zM343 13h79l-18 -71q51 -3 79.5 -27t28.5 -65q0 -49 -40.5 -76t-111.5 -27q-26 0 -54 6.5t-42 13.5l10 75q15 -12 36.5 -18t43.5 -6q60 0 60 34q0 33 -63 33q-10 0 -22 -1t-22 -3z" />
    <glyph glyph-name="Egrave" unicode="&#xc8;" horiz-adv-x="569" 
d="M90 741h439l-11 -100h-302v-202h244v-100h-244v-239h324v-100h-450v741zM159 926q14 28 36 51.5t50 33.5l134 -163l-51 -50z" />
    <glyph glyph-name="Eacute" unicode="&#xc9;" horiz-adv-x="569" 
d="M90 741h439l-11 -100h-302v-202h244v-100h-244v-239h324v-100h-450v741zM377 1011q28 -10 50.5 -33.5t35.5 -51.5l-169 -128l-50 50z" />
    <glyph glyph-name="Ecircumflex" unicode="&#xca;" horiz-adv-x="569" 
d="M90 741h439l-11 -100h-302v-202h244v-100h-244v-239h324v-100h-450v741zM263 989h96l121 -145l-57 -48l-112 105l-111 -105l-58 48z" />
    <glyph glyph-name="Edieresis" unicode="&#xcb;" horiz-adv-x="569" 
d="M90 741h439l-11 -100h-302v-202h244v-100h-244v-239h324v-100h-450v741zM133 879q0 31 20 51.5t50 20.5q29 0 49 -20.5t20 -51.5q0 -30 -20 -50.5t-49 -20.5q-30 0 -50 20.5t-20 50.5zM351 879q0 31 20 51.5t50 20.5q29 0 49 -20.5t20 -51.5q0 -30 -20 -50.5t-49 -20.5
q-30 0 -50 20.5t-20 50.5z" />
    <glyph glyph-name="Igrave" unicode="&#xcc;" horiz-adv-x="306" 
d="M90 741h126v-741h-126v741zM1 926q14 28 36 51.5t50 33.5l134 -163l-51 -50z" />
    <glyph glyph-name="Iacute" unicode="&#xcd;" horiz-adv-x="306" 
d="M90 741h126v-741h-126v741zM219 1011q28 -10 50.5 -33.5t35.5 -51.5l-169 -128l-50 50z" />
    <glyph glyph-name="Icircumflex" unicode="&#xce;" horiz-adv-x="306" 
d="M90 741h126v-741h-126v741zM105 989h96l121 -145l-57 -48l-112 105l-111 -105l-58 48z" />
    <glyph glyph-name="Idieresis" unicode="&#xcf;" horiz-adv-x="306" 
d="M90 741h126v-741h-126v741zM-25 879q0 31 20 51.5t50 20.5q29 0 49 -20.5t20 -51.5q0 -30 -20 -50.5t-49 -20.5q-30 0 -50 20.5t-20 50.5zM193 879q0 31 20 51.5t50 20.5q29 0 49 -20.5t20 -51.5q0 -30 -20 -50.5t-49 -20.5q-30 0 -50 20.5t-20 50.5z" />
    <glyph glyph-name="Eth" unicode="&#xd0;" horiz-adv-x="738" 
d="M90 330h-83v92h83v319h193q131 0 219.5 -47.5t133 -131t44.5 -191.5t-44.5 -191.5t-133 -131.5t-219.5 -48h-193v330zM216 100h77q125 0 189.5 73t64.5 197q0 125 -64.5 198t-189.5 73h-77v-219h142v-92h-142v-230z" />
    <glyph glyph-name="Ntilde" unicode="&#xd1;" horiz-adv-x="745" 
d="M90 741h132l319 -513l-1 57v456h115v-741h-104l-346 559v-48v-511h-115v741zM298 972q20 0 40.5 -8t47.5 -28q22 -15 32 -20t21 -5q35 0 35 63l82 -14q0 -65 -28 -102t-81 -37q-20 0 -40.5 7.5t-47.5 27.5q-22 16 -32 20.5t-21 4.5q-35 0 -35 -63l-82 14q0 65 28.5 102.5
t80.5 37.5z" />
    <glyph glyph-name="Ograve" unicode="&#xd2;" horiz-adv-x="777" 
d="M59 379q0 110 37.5 194.5t111 132.5t181.5 48q109 0 182 -48t110.5 -132.5t37.5 -194.5q0 -115 -36.5 -203.5t-109.5 -138.5t-184 -50q-110 0 -183.5 50t-110 138.5t-36.5 203.5zM586 379q0 128 -51 202t-146 74t-146 -74t-51 -202q0 -134 51.5 -213.5t145.5 -79.5
q95 0 146 79.5t51 213.5zM237 926q14 28 36 51.5t50 33.5l134 -163l-51 -50z" />
    <glyph glyph-name="Oacute" unicode="&#xd3;" horiz-adv-x="777" 
d="M59 379q0 110 37.5 194.5t111 132.5t181.5 48q109 0 182 -48t110.5 -132.5t37.5 -194.5q0 -115 -36.5 -203.5t-109.5 -138.5t-184 -50q-110 0 -183.5 50t-110 138.5t-36.5 203.5zM586 379q0 128 -51 202t-146 74t-146 -74t-51 -202q0 -134 51.5 -213.5t145.5 -79.5
q95 0 146 79.5t51 213.5zM455 1011q28 -10 50.5 -33.5t35.5 -51.5l-169 -128l-50 50z" />
    <glyph glyph-name="Ocircumflex" unicode="&#xd4;" horiz-adv-x="777" 
d="M59 379q0 110 37.5 194.5t111 132.5t181.5 48q109 0 182 -48t110.5 -132.5t37.5 -194.5q0 -115 -36.5 -203.5t-109.5 -138.5t-184 -50q-110 0 -183.5 50t-110 138.5t-36.5 203.5zM586 379q0 128 -51 202t-146 74t-146 -74t-51 -202q0 -134 51.5 -213.5t145.5 -79.5
q95 0 146 79.5t51 213.5zM341 989h96l121 -145l-57 -48l-112 105l-111 -105l-58 48z" />
    <glyph glyph-name="Otilde" unicode="&#xd5;" horiz-adv-x="777" 
d="M59 379q0 110 37.5 194.5t111 132.5t181.5 48q109 0 182 -48t110.5 -132.5t37.5 -194.5q0 -115 -36.5 -203.5t-109.5 -138.5t-184 -50q-110 0 -183.5 50t-110 138.5t-36.5 203.5zM586 379q0 128 -51 202t-146 74t-146 -74t-51 -202q0 -134 51.5 -213.5t145.5 -79.5
q95 0 146 79.5t51 213.5zM315 972q20 0 40.5 -8t47.5 -28q22 -15 32 -20t21 -5q35 0 35 63l82 -14q0 -65 -28 -102t-81 -37q-20 0 -40.5 7.5t-47.5 27.5q-22 16 -32 20.5t-21 4.5q-35 0 -35 -63l-82 14q0 65 28.5 102.5t80.5 37.5z" />
    <glyph glyph-name="Odieresis" unicode="&#xd6;" horiz-adv-x="777" 
d="M59 379q0 110 37.5 194.5t111 132.5t181.5 48q109 0 182 -48t110.5 -132.5t37.5 -194.5q0 -115 -36.5 -203.5t-109.5 -138.5t-184 -50q-110 0 -183.5 50t-110 138.5t-36.5 203.5zM586 379q0 128 -51 202t-146 74t-146 -74t-51 -202q0 -134 51.5 -213.5t145.5 -79.5
q95 0 146 79.5t51 213.5zM211 879q0 31 20 51.5t50 20.5q29 0 49 -20.5t20 -51.5q0 -30 -20 -50.5t-49 -20.5q-30 0 -50 20.5t-20 50.5zM429 879q0 31 20 51.5t50 20.5q29 0 49 -20.5t20 -51.5q0 -30 -20 -50.5t-49 -20.5q-30 0 -50 20.5t-20 50.5z" />
    <glyph glyph-name="multiply" unicode="&#xd7;" 
d="M326 272l-159 -162l-76 76l161 159l-161 159l76 76l159 -161l159 161l75 -76l-160 -159l160 -159l-75 -76z" />
    <glyph glyph-name="Oslash" unicode="&#xd8;" horiz-adv-x="777" 
d="M147 89q-44 52 -66 126t-22 164q0 110 37.5 194.5t111 132.5t181.5 48q53 0 98 -12t81 -34l50 74l61 -39l-55 -82q47 -50 71 -122t24 -160q0 -115 -36.5 -203.5t-109.5 -138.5t-184 -50q-57 0 -103.5 13.5t-84.5 39.5l-50 -76l-61 39zM389 86q95 0 146 79.5t51 213.5
q0 108 -36 178l-281 -423q48 -48 120 -48zM225 199l277 418q-46 38 -113 38q-95 0 -146 -74t-51 -202q0 -108 33 -180z" />
    <glyph glyph-name="Ugrave" unicode="&#xd9;" horiz-adv-x="712" 
d="M508 741h123v-483q0 -127 -72.5 -199t-201.5 -72q-130 0 -203 72t-73 199v483h126v-467q0 -186 149 -186q76 0 114 43.5t38 126.5v483zM204 926q14 28 36 51.5t50 33.5l134 -163l-51 -50z" />
    <glyph glyph-name="Uacute" unicode="&#xda;" horiz-adv-x="712" 
d="M508 741h123v-483q0 -127 -72.5 -199t-201.5 -72q-130 0 -203 72t-73 199v483h126v-467q0 -186 149 -186q76 0 114 43.5t38 126.5v483zM422 1011q28 -10 50.5 -33.5t35.5 -51.5l-169 -128l-50 50z" />
    <glyph glyph-name="Ucircumflex" unicode="&#xdb;" horiz-adv-x="712" 
d="M508 741h123v-483q0 -127 -72.5 -199t-201.5 -72q-130 0 -203 72t-73 199v483h126v-467q0 -186 149 -186q76 0 114 43.5t38 126.5v483zM308 989h96l121 -145l-57 -48l-112 105l-111 -105l-58 48z" />
    <glyph glyph-name="Udieresis" unicode="&#xdc;" horiz-adv-x="712" 
d="M508 741h123v-483q0 -127 -72.5 -199t-201.5 -72q-130 0 -203 72t-73 199v483h126v-467q0 -186 149 -186q76 0 114 43.5t38 126.5v483zM178 879q0 31 20 51.5t50 20.5q29 0 49 -20.5t20 -51.5q0 -30 -20 -50.5t-49 -20.5q-30 0 -50 20.5t-20 50.5zM396 879q0 31 20 51.5
t50 20.5q29 0 49 -20.5t20 -51.5q0 -30 -20 -50.5t-49 -20.5q-30 0 -50 20.5t-20 50.5z" />
    <glyph glyph-name="Yacute" unicode="&#xdd;" horiz-adv-x="680" 
d="M405 297v-297h-126v298l-254 443h139l182 -338l177 338h132zM408 1011q28 -10 50.5 -33.5t35.5 -51.5l-169 -128l-50 50z" />
    <glyph glyph-name="Thorn" unicode="&#xde;" horiz-adv-x="614" 
d="M90 741h126v-135h67q89 0 155 -25t103 -74.5t37 -124.5t-37 -124.5t-103 -74t-155 -24.5h-67v-159h-126v741zM448 382q0 62 -43 94.5t-120 32.5h-69v-253h69q77 0 120 31.5t43 94.5z" />
    <glyph glyph-name="germandbls" unicode="&#xdf;" horiz-adv-x="656" 
d="M190 0h-119v519q0 132 65 193t171 61q71 0 120 -27.5t74.5 -72.5t25.5 -100v-26q-63 -28 -92 -56t-29 -63q0 -21 15.5 -41.5t54.5 -47.5q55 -37 84.5 -66.5t41 -57.5t11.5 -60q0 -79 -57 -123.5t-149 -44.5q-46 0 -88.5 11t-71.5 29l12 107q32 -28 70 -41.5t76 -13.5
q44 0 70 18.5t26 51.5q0 15 -8 29.5t-29 34t-62 46.5q-61 41 -83.5 77t-22.5 76q0 44 25 82t91 81q-2 47 -31.5 75.5t-73.5 28.5q-49 0 -83 -35.5t-34 -121.5v-522z" />
    <glyph glyph-name="agrave" unicode="&#xe0;" horiz-adv-x="551" 
d="M486 94q0 -23 3 -50.5t7 -43.5h-112q-4 11 -7 29t-5 36q-27 -39 -68.5 -58.5t-90.5 -19.5q-71 0 -117 43.5t-46 115.5q0 80 66 129t195 62l55 6q-1 51 -32 81t-90 30q-37 0 -77.5 -13t-75.5 -42l-10 104q37 21 85.5 33t97.5 12q108 0 165 -57t57 -161v-236zM192 97.5
q22 -21.5 59 -21.5q34 0 65 17.5t50 49.5v124l-44 -5q-79 -9 -115.5 -36.5t-36.5 -71.5q0 -35 22 -56.5zM132 746q14 26 38.5 47t54.5 30l118 -180l-53 -44z" />
    <glyph glyph-name="aacute" unicode="&#xe1;" horiz-adv-x="551" 
d="M486 94q0 -23 3 -50.5t7 -43.5h-112q-4 11 -7 29t-5 36q-27 -39 -68.5 -58.5t-90.5 -19.5q-71 0 -117 43.5t-46 115.5q0 80 66 129t195 62l55 6q-1 51 -32 81t-90 30q-37 0 -77.5 -13t-75.5 -42l-10 104q37 21 85.5 33t97.5 12q108 0 165 -57t57 -161v-236zM192 97.5
q22 -21.5 59 -21.5q34 0 65 17.5t50 49.5v124l-44 -5q-79 -9 -115.5 -36.5t-36.5 -71.5q0 -35 22 -56.5zM320 823q30 -9 54.5 -30t38.5 -47l-158 -147l-53 44z" />
    <glyph glyph-name="acircumflex" unicode="&#xe2;" horiz-adv-x="551" 
d="M486 94q0 -23 3 -50.5t7 -43.5h-112q-4 11 -7 29t-5 36q-27 -39 -68.5 -58.5t-90.5 -19.5q-71 0 -117 43.5t-46 115.5q0 80 66 129t195 62l55 6q-1 51 -32 81t-90 30q-37 0 -77.5 -13t-75.5 -42l-10 104q37 21 85.5 33t97.5 12q108 0 165 -57t57 -161v-236zM192 97.5
q22 -21.5 59 -21.5q34 0 65 17.5t50 49.5v124l-44 -5q-79 -9 -115.5 -36.5t-36.5 -71.5q0 -35 22 -56.5zM227 804h90l128 -159l-55 -45l-118 116l-117 -116l-55 45z" />
    <glyph glyph-name="atilde" unicode="&#xe3;" horiz-adv-x="551" 
d="M486 94q0 -23 3 -50.5t7 -43.5h-112q-4 11 -7 29t-5 36q-27 -39 -68.5 -58.5t-90.5 -19.5q-71 0 -117 43.5t-46 115.5q0 80 66 129t195 62l55 6q-1 51 -32 81t-90 30q-37 0 -77.5 -13t-75.5 -42l-10 104q37 21 85.5 33t97.5 12q108 0 165 -57t57 -161v-236zM192 97.5
q22 -21.5 59 -21.5q34 0 65 17.5t50 49.5v124l-44 -5q-79 -9 -115.5 -36.5t-36.5 -71.5q0 -35 22 -56.5zM346 614q-20 0 -40 8t-47 29q-21 17 -31 22t-20 5q-18 0 -27.5 -17.5t-9.5 -48.5l-79 14q0 64 28 101.5t79 37.5q20 0 40 -7.5t47 -29.5q21 -16 31 -21t20 -5
q37 0 37 66l79 -14q0 -64 -28 -102t-79 -38z" />
    <glyph glyph-name="adieresis" unicode="&#xe4;" horiz-adv-x="551" 
d="M486 94q0 -23 3 -50.5t7 -43.5h-112q-4 11 -7 29t-5 36q-27 -39 -68.5 -58.5t-90.5 -19.5q-71 0 -117 43.5t-46 115.5q0 80 66 129t195 62l55 6q-1 51 -32 81t-90 30q-37 0 -77.5 -13t-75.5 -42l-10 104q37 21 85.5 33t97.5 12q108 0 165 -57t57 -161v-236zM192 97.5
q22 -21.5 59 -21.5q34 0 65 17.5t50 49.5v124l-44 -5q-79 -9 -115.5 -36.5t-36.5 -71.5q0 -35 22 -56.5zM103 687q0 30 20 50t48 20q29 0 48.5 -20t19.5 -50q0 -29 -19.5 -49t-48.5 -20q-28 0 -48 20t-20 49zM306 687q0 30 20 50t48 20q29 0 48.5 -20t19.5 -50
q0 -29 -19.5 -49t-48.5 -20q-28 0 -48 20t-20 49z" />
    <glyph glyph-name="aring" unicode="&#xe5;" horiz-adv-x="551" 
d="M486 94q0 -23 3 -50.5t7 -43.5h-112q-4 11 -7 29t-5 36q-27 -39 -68.5 -58.5t-90.5 -19.5q-71 0 -117 43.5t-46 115.5q0 80 66 129t195 62l55 6q-1 51 -32 81t-90 30q-37 0 -77.5 -13t-75.5 -42l-10 104q37 21 85.5 33t97.5 12q108 0 165 -57t57 -161v-236zM192 97.5
q22 -21.5 59 -21.5q34 0 65 17.5t50 49.5v124l-44 -5q-79 -9 -115.5 -36.5t-36.5 -71.5q0 -35 22 -56.5zM272 604q-51 0 -85 31t-34 79q0 49 34 80t85 31t85 -31t34 -80q0 -48 -34 -79t-85 -31zM272 765q-22 0 -36 -14t-14 -37q0 -22 14 -36t36 -14q23 0 36.5 14t13.5 36
q0 23 -13.5 37t-36.5 14z" />
    <glyph glyph-name="ae" unicode="&#xe6;" horiz-adv-x="874" 
d="M50 143q0 80 66.5 129t194.5 54l58 3v10q0 53 -31.5 84t-91.5 31q-39 0 -79.5 -13t-75.5 -42l-10 104q36 21 83.5 33t96.5 12q119 0 170 -85q30 41 76.5 63t105.5 22q98 0 155 -62.5t57 -179.5q0 -9 -0.5 -27t-1.5 -29h-335q8 -85 54.5 -127t118.5 -42q38 0 79.5 11.5
t68.5 34.5l12 -105q-30 -16 -76.5 -25.5t-99.5 -9.5q-74 0 -131.5 27.5t-92.5 77.5q-41 -56 -91.5 -80.5t-103.5 -24.5q-83 0 -129.5 44t-46.5 112zM328.5 99.5q36.5 23.5 57.5 63.5q-14 42 -16 91l-50 -2q-76 -4 -113 -30.5t-37 -69.5q0 -34 23 -55t60 -21q39 0 75.5 23.5z
M686.5 428q-27.5 34 -76.5 34q-50 0 -82 -35t-40 -99h226q0 66 -27.5 100z" />
    <glyph glyph-name="ccedilla" unicode="&#xe7;" horiz-adv-x="499" 
d="M50 266q0 85 32.5 148t91 98.5t136.5 35.5q44 0 85 -11t69 -29l-31 -97q-49 41 -110 41q-68 0 -108.5 -49t-40.5 -135t41 -135.5t114 -49.5q32 0 65.5 11.5t54.5 33.5l12 -108q-26 -14 -64.5 -23.5t-84.5 -9.5q-124 0 -193 75.5t-69 203.5zM262 13h77l-19 -71
q54 -4 80.5 -29t26.5 -63q0 -49 -39 -76t-111 -27q-25 0 -53 6.5t-42 13.5l9 73q34 -24 81 -24q61 0 61 36q0 35 -63 35q-21 0 -44 -5z" />
    <glyph glyph-name="egrave" unicode="&#xe8;" horiz-adv-x="558" 
d="M493 127l12 -105q-30 -16 -76.5 -25.5t-99.5 -9.5q-85 0 -148 35t-97 99.5t-34 153.5q0 82 29.5 143t84.5 95.5t131 34.5q100 0 157 -62.5t57 -179.5q0 -9 -0.5 -27t-1.5 -29h-335q8 -85 54.5 -127t118.5 -42q38 0 79.5 11.5t68.5 34.5zM294 462q-50 0 -82 -35t-40 -99
h226q0 66 -27.5 100t-76.5 34zM150 746q14 26 38.5 47t54.5 30l118 -180l-53 -44z" />
    <glyph glyph-name="eacute" unicode="&#xe9;" horiz-adv-x="558" 
d="M493 127l12 -105q-30 -16 -76.5 -25.5t-99.5 -9.5q-85 0 -148 35t-97 99.5t-34 153.5q0 82 29.5 143t84.5 95.5t131 34.5q100 0 157 -62.5t57 -179.5q0 -9 -0.5 -27t-1.5 -29h-335q8 -85 54.5 -127t118.5 -42q38 0 79.5 11.5t68.5 34.5zM294 462q-50 0 -82 -35t-40 -99
h226q0 66 -27.5 100t-76.5 34zM338 823q30 -9 54.5 -30t38.5 -47l-158 -147l-53 44z" />
    <glyph glyph-name="ecircumflex" unicode="&#xea;" horiz-adv-x="558" 
d="M493 127l12 -105q-30 -16 -76.5 -25.5t-99.5 -9.5q-85 0 -148 35t-97 99.5t-34 153.5q0 82 29.5 143t84.5 95.5t131 34.5q100 0 157 -62.5t57 -179.5q0 -9 -0.5 -27t-1.5 -29h-335q8 -85 54.5 -127t118.5 -42q38 0 79.5 11.5t68.5 34.5zM294 462q-50 0 -82 -35t-40 -99
h226q0 66 -27.5 100t-76.5 34zM245 804h90l128 -159l-55 -45l-118 116l-117 -116l-55 45z" />
    <glyph glyph-name="edieresis" unicode="&#xeb;" horiz-adv-x="558" 
d="M493 127l12 -105q-30 -16 -76.5 -25.5t-99.5 -9.5q-85 0 -148 35t-97 99.5t-34 153.5q0 82 29.5 143t84.5 95.5t131 34.5q100 0 157 -62.5t57 -179.5q0 -9 -0.5 -27t-1.5 -29h-335q8 -85 54.5 -127t118.5 -42q38 0 79.5 11.5t68.5 34.5zM294 462q-50 0 -82 -35t-40 -99
h226q0 66 -27.5 100t-76.5 34zM121 687q0 30 20 50t48 20q29 0 48.5 -20t19.5 -50q0 -29 -19.5 -49t-48.5 -20q-28 0 -48 20t-20 49zM324 687q0 30 20 50t48 20q29 0 48.5 -20t19.5 -50q0 -29 -19.5 -49t-48.5 -20q-28 0 -48 20t-20 49z" />
    <glyph glyph-name="igrave" unicode="&#xec;" horiz-adv-x="262" 
d="M71 535h120v-535h-120v535zM-9 746q14 26 38.5 47t54.5 30l118 -180l-53 -44z" />
    <glyph glyph-name="iacute" unicode="&#xed;" horiz-adv-x="262" 
d="M71 535h120v-535h-120v535zM179 823q30 -9 54.5 -30t38.5 -47l-158 -147l-53 44z" />
    <glyph glyph-name="icircumflex" unicode="&#xee;" horiz-adv-x="262" 
d="M71 535h120v-535h-120v535zM86 804h90l128 -159l-55 -45l-118 116l-117 -116l-55 45z" />
    <glyph glyph-name="idieresis" unicode="&#xef;" horiz-adv-x="262" 
d="M71 535h120v-535h-120v535zM-38 687q0 30 20 50t48 20q29 0 48.5 -20t19.5 -50q0 -29 -19.5 -49t-48.5 -20q-28 0 -48 20t-20 49zM165 687q0 30 20 50t48 20q29 0 48.5 -20t19.5 -50q0 -29 -19.5 -49t-48.5 -20q-28 0 -48 20t-20 49z" />
    <glyph glyph-name="eth" unicode="&#xf0;" horiz-adv-x="614" 
d="M297 -13q-76 0 -131.5 31.5t-85.5 89.5t-30 137q0 76 28.5 133t79 89t114.5 32q48 0 88.5 -17t71.5 -53q-34 111 -109 181l-116 -84l-38 57l98 71q-53 35 -125 60l91 64q63 -24 118 -63l98 71l39 -57l-83 -60q69 -68 110 -163.5t41 -210.5q0 -150 -67 -229t-192 -79z
M300 406q-57 0 -92 -43.5t-35 -119.5t36 -119t92 -43q68 0 102.5 49.5t34.5 155.5q0 20 -1 42q-30 41 -64.5 59.5t-72.5 18.5z" />
    <glyph glyph-name="ntilde" unicode="&#xf1;" horiz-adv-x="587" 
d="M71 535h117v-71q26 42 68.5 63t91.5 21q79 0 128 -52t49 -145v-351h-120v343q0 50 -25 79.5t-70 29.5q-38 0 -70.5 -22t-48.5 -57v-373h-120v535zM380 614q-20 0 -40 8t-47 29q-21 17 -31 22t-20 5q-18 0 -27.5 -17.5t-9.5 -48.5l-79 14q0 64 28 101.5t79 37.5
q20 0 40 -7.5t47 -29.5q21 -16 31 -21t20 -5q37 0 37 66l79 -14q0 -64 -28 -102t-79 -38z" />
    <glyph glyph-name="ograve" unicode="&#xf2;" horiz-adv-x="611" 
d="M50 275q0 81 28.5 142.5t85 96t141.5 34.5t141.5 -34.5t85 -96t28.5 -142.5q0 -85 -27.5 -150t-84 -101.5t-143.5 -36.5q-86 0 -142.5 36.5t-84.5 101.5t-28 150zM436 275q0 83 -33 131t-98 48q-64 0 -97.5 -48t-33.5 -131q0 -89 33.5 -141.5t97.5 -52.5q65 0 98 52.5
t33 141.5zM165 746q14 26 38.5 47t54.5 30l118 -180l-53 -44z" />
    <glyph glyph-name="oacute" unicode="&#xf3;" horiz-adv-x="611" 
d="M50 275q0 81 28.5 142.5t85 96t141.5 34.5t141.5 -34.5t85 -96t28.5 -142.5q0 -85 -27.5 -150t-84 -101.5t-143.5 -36.5q-86 0 -142.5 36.5t-84.5 101.5t-28 150zM436 275q0 83 -33 131t-98 48q-64 0 -97.5 -48t-33.5 -131q0 -89 33.5 -141.5t97.5 -52.5q65 0 98 52.5
t33 141.5zM353 823q30 -9 54.5 -30t38.5 -47l-158 -147l-53 44z" />
    <glyph glyph-name="ocircumflex" unicode="&#xf4;" horiz-adv-x="611" 
d="M50 275q0 81 28.5 142.5t85 96t141.5 34.5t141.5 -34.5t85 -96t28.5 -142.5q0 -85 -27.5 -150t-84 -101.5t-143.5 -36.5q-86 0 -142.5 36.5t-84.5 101.5t-28 150zM436 275q0 83 -33 131t-98 48q-64 0 -97.5 -48t-33.5 -131q0 -89 33.5 -141.5t97.5 -52.5q65 0 98 52.5
t33 141.5zM260 804h90l128 -159l-55 -45l-118 116l-117 -116l-55 45z" />
    <glyph glyph-name="otilde" unicode="&#xf5;" horiz-adv-x="611" 
d="M50 275q0 81 28.5 142.5t85 96t141.5 34.5t141.5 -34.5t85 -96t28.5 -142.5q0 -85 -27.5 -150t-84 -101.5t-143.5 -36.5q-86 0 -142.5 36.5t-84.5 101.5t-28 150zM436 275q0 83 -33 131t-98 48q-64 0 -97.5 -48t-33.5 -131q0 -89 33.5 -141.5t97.5 -52.5q65 0 98 52.5
t33 141.5zM379 614q-20 0 -40 8t-47 29q-21 17 -31 22t-20 5q-18 0 -27.5 -17.5t-9.5 -48.5l-79 14q0 64 28 101.5t79 37.5q20 0 40 -7.5t47 -29.5q21 -16 31 -21t20 -5q37 0 37 66l79 -14q0 -64 -28 -102t-79 -38z" />
    <glyph glyph-name="odieresis" unicode="&#xf6;" horiz-adv-x="611" 
d="M50 275q0 81 28.5 142.5t85 96t141.5 34.5t141.5 -34.5t85 -96t28.5 -142.5q0 -85 -27.5 -150t-84 -101.5t-143.5 -36.5q-86 0 -142.5 36.5t-84.5 101.5t-28 150zM436 275q0 83 -33 131t-98 48q-64 0 -97.5 -48t-33.5 -131q0 -89 33.5 -141.5t97.5 -52.5q65 0 98 52.5
t33 141.5zM136 687q0 30 20 50t48 20q29 0 48.5 -20t19.5 -50q0 -29 -19.5 -49t-48.5 -20q-28 0 -48 20t-20 49zM339 687q0 30 20 50t48 20q29 0 48.5 -20t19.5 -50q0 -29 -19.5 -49t-48.5 -20q-28 0 -48 20t-20 49z" />
    <glyph glyph-name="divide" unicode="&#xf7;" 
d="M571 294h-491v103h491v-103zM266.5 194.5q23.5 23.5 58.5 23.5t58.5 -23.5t23.5 -58.5q0 -34 -23.5 -57.5t-58.5 -23.5t-58.5 23.5t-23.5 57.5q0 35 23.5 58.5zM266.5 611q23.5 23 58.5 23t58.5 -23t23.5 -58q0 -34 -23.5 -57.5t-58.5 -23.5t-58.5 23.5t-23.5 57.5
q0 35 23.5 58z" />
    <glyph glyph-name="oslash" unicode="&#xf8;" horiz-adv-x="611" 
d="M67 153.5q-17 54.5 -17 121.5q0 81 28.5 142.5t85 96t141.5 34.5q77 0 133 -30l45 66l57 -37l-48 -70q34 -37 51 -88.5t17 -113.5q0 -85 -27.5 -150t-84 -101.5t-143.5 -36.5q-77 0 -133 31l-46 -66l-55 39l48 69q-35 39 -52 93.5zM233 102q30 -24 72 -24q66 0 99.5 53
t33.5 144q0 61 -17 103zM173 275q0 -68 18 -114l187 274q-30 22 -73 22q-65 0 -98.5 -48.5t-33.5 -133.5z" />
    <glyph glyph-name="ugrave" unicode="&#xf9;" horiz-adv-x="586" 
d="M395 535h120v-535h-117v71q-27 -43 -69.5 -63.5t-90.5 -20.5q-78 0 -126.5 51.5t-48.5 145.5v351h120v-343q0 -50 24.5 -79.5t68.5 -29.5q38 0 70.5 22t48.5 57v373zM149 746q14 26 38.5 47t54.5 30l118 -180l-53 -44z" />
    <glyph glyph-name="uacute" unicode="&#xfa;" horiz-adv-x="586" 
d="M395 535h120v-535h-117v71q-27 -43 -69.5 -63.5t-90.5 -20.5q-78 0 -126.5 51.5t-48.5 145.5v351h120v-343q0 -50 24.5 -79.5t68.5 -29.5q38 0 70.5 22t48.5 57v373zM337 823q30 -9 54.5 -30t38.5 -47l-158 -147l-53 44z" />
    <glyph glyph-name="ucircumflex" unicode="&#xfb;" horiz-adv-x="586" 
d="M395 535h120v-535h-117v71q-27 -43 -69.5 -63.5t-90.5 -20.5q-78 0 -126.5 51.5t-48.5 145.5v351h120v-343q0 -50 24.5 -79.5t68.5 -29.5q38 0 70.5 22t48.5 57v373zM244 804h90l128 -159l-55 -45l-118 116l-117 -116l-55 45z" />
    <glyph glyph-name="udieresis" unicode="&#xfc;" horiz-adv-x="586" 
d="M395 535h120v-535h-117v71q-27 -43 -69.5 -63.5t-90.5 -20.5q-78 0 -126.5 51.5t-48.5 145.5v351h120v-343q0 -50 24.5 -79.5t68.5 -29.5q38 0 70.5 22t48.5 57v373zM120 687q0 30 20 50t48 20q29 0 48.5 -20t19.5 -50q0 -29 -19.5 -49t-48.5 -20q-28 0 -48 20t-20 49z
M323 687q0 30 20 50t48 20q29 0 48.5 -20t19.5 -50q0 -29 -19.5 -49t-48.5 -20q-28 0 -48 20t-20 49z" />
    <glyph glyph-name="yacute" unicode="&#xfd;" horiz-adv-x="558" 
d="M330 -2q-34 -83 -69 -133t-77.5 -72.5t-100.5 -22.5q-30 0 -52.5 5t-41.5 13l10 100q17 -10 35.5 -16t40.5 -6q47 0 79.5 31t58.5 101l8 21q-53 129 -104.5 258t-100.5 258h125q34 -97 69 -193t72 -193q37 97 71.5 193.5t67.5 192.5h120q-50 -133 -102.5 -266.5
t-108.5 -270.5zM327 823q30 -9 54.5 -30t38.5 -47l-158 -147l-53 44z" />
    <glyph glyph-name="thorn" unicode="&#xfe;" horiz-adv-x="612" 
d="M71 760h120v-291q24 37 64 58t91 21q99 0 157.5 -75t58.5 -206q0 -130 -58.5 -205t-158.5 -75q-50 0 -90 20.5t-64 57.5v-282h-120v977zM312 453q-40 0 -72.5 -21.5t-48.5 -59.5v-210q16 -37 48.5 -58.5t72.5 -21.5q59 0 92.5 49.5t33.5 135.5q0 87 -33.5 136.5
t-92.5 49.5z" />
    <glyph glyph-name="ydieresis" unicode="&#xff;" horiz-adv-x="558" 
d="M330 -2q-34 -83 -69 -133t-77.5 -72.5t-100.5 -22.5q-30 0 -52.5 5t-41.5 13l10 100q17 -10 35.5 -16t40.5 -6q47 0 79.5 31t58.5 101l8 21q-53 129 -104.5 258t-100.5 258h125q34 -97 69 -193t72 -193q37 97 71.5 193.5t67.5 192.5h120q-50 -133 -102.5 -266.5
t-108.5 -270.5zM110 687q0 30 20 50t48 20q29 0 48.5 -20t19.5 -50q0 -29 -19.5 -49t-48.5 -20q-28 0 -48 20t-20 49zM313 687q0 30 20 50t48 20q29 0 48.5 -20t19.5 -50q0 -29 -19.5 -49t-48.5 -20q-28 0 -48 20t-20 49z" />
    <glyph glyph-name="Amacron" unicode="&#x100;" horiz-adv-x="758" 
d="M307 741h143q71 -185 139 -370.5t132 -370.5h-131q-32 99 -66 200h-296q-17 -50 -33.5 -100t-32.5 -100h-126q65 185 133 370.5t138 370.5zM376 627q-29 -81 -57.5 -163t-56.5 -164h228q-28 82 -56.5 164t-57.5 163zM222 923h312v-89h-312v89z" />
    <glyph glyph-name="amacron" unicode="&#x101;" horiz-adv-x="551" 
d="M486 94q0 -23 3 -50.5t7 -43.5h-112q-4 11 -7 29t-5 36q-27 -39 -68.5 -58.5t-90.5 -19.5q-71 0 -117 43.5t-46 115.5q0 80 66 129t195 62l55 6q-1 51 -32 81t-90 30q-37 0 -77.5 -13t-75.5 -42l-10 104q37 21 85.5 33t97.5 12q108 0 165 -57t57 -161v-236zM192 97.5
q22 -21.5 59 -21.5q34 0 65 17.5t50 49.5v124l-44 -5q-79 -9 -115.5 -36.5t-36.5 -71.5q0 -35 22 -56.5zM126 730h292v-86h-292v86z" />
    <glyph glyph-name="Abreve" unicode="&#x102;" horiz-adv-x="758" 
d="M307 741h143q71 -185 139 -370.5t132 -370.5h-131q-32 99 -66 200h-296q-17 -50 -33.5 -100t-32.5 -100h-126q65 185 133 370.5t138 370.5zM376 627q-29 -81 -57.5 -163t-56.5 -164h228q-28 82 -56.5 164t-57.5 163zM378 802q-82 0 -126 44t-40 119h90q0 -85 76 -85
q77 0 77 85h90q4 -75 -40.5 -119t-126.5 -44z" />
    <glyph glyph-name="abreve" unicode="&#x103;" horiz-adv-x="551" 
d="M486 94q0 -23 3 -50.5t7 -43.5h-112q-4 11 -7 29t-5 36q-27 -39 -68.5 -58.5t-90.5 -19.5q-71 0 -117 43.5t-46 115.5q0 80 66 129t195 62l55 6q-1 51 -32 81t-90 30q-37 0 -77.5 -13t-75.5 -42l-10 104q37 21 85.5 33t97.5 12q108 0 165 -57t57 -161v-236zM192 97.5
q22 -21.5 59 -21.5q34 0 65 17.5t50 49.5v124l-44 -5q-79 -9 -115.5 -36.5t-36.5 -71.5q0 -35 22 -56.5zM272 685q82 0 82 86h82q0 -79 -42.5 -121t-121.5 -42q-78 0 -121 42t-43 121h82q0 -86 82 -86z" />
    <glyph glyph-name="Aogonek" unicode="&#x104;" horiz-adv-x="758" 
d="M307 741h143q71 -185 139 -370.5t132 -370.5h-131q-32 99 -66 200h-296q-17 -50 -33.5 -100t-32.5 -100h-126q65 185 133 370.5t138 370.5zM376 627q-29 -81 -57.5 -163t-56.5 -164h228q-28 82 -56.5 164t-57.5 163zM721 -217q-15 -8 -37 -13.5t-40 -5.5q-54 0 -84 26
t-30 72q0 41 34 84t94 77l64 -23q-89 -67 -89 -114q0 -32 35 -32q22 0 44 16z" />
    <glyph glyph-name="aogonek" unicode="&#x105;" horiz-adv-x="551" 
d="M486 94q0 -23 3 -50.5t7 -43.5h-112q-4 11 -7 29t-5 36q-27 -39 -68.5 -58.5t-90.5 -19.5q-71 0 -117 43.5t-46 115.5q0 80 66 129t195 62l55 6q-1 51 -32 81t-90 30q-37 0 -77.5 -13t-75.5 -42l-10 104q37 21 85.5 33t97.5 12q108 0 165 -57t57 -161v-236zM192 97.5
q22 -21.5 59 -21.5q34 0 65 17.5t50 49.5v124l-44 -5q-79 -9 -115.5 -36.5t-36.5 -71.5q0 -35 22 -56.5zM435 23l62 -23q-49 -37 -71 -64.5t-22 -53.5q0 -16 10.5 -23.5t26.5 -7.5q25 0 44 16l10 -85q-14 -7 -36.5 -12.5t-43.5 -5.5q-52 0 -81 25t-29 68q0 44 35 88t95 78z
" />
    <glyph glyph-name="Cacute" unicode="&#x106;" horiz-adv-x="652" 
d="M218.5 707.5q76.5 46.5 182.5 46.5q62 0 116.5 -14.5t97.5 -40.5l-31 -109q-43 35 -85.5 49.5t-86.5 14.5q-106 0 -163 -75.5t-57 -206.5q0 -135 58 -210t166 -75q53 0 101.5 17t81.5 48l15 -117q-37 -22 -94.5 -35t-118.5 -13q-108 0 -184.5 46t-117 131.5t-40.5 204.5
t41.5 205.5t118 133zM455 1011q28 -10 50.5 -33.5t35.5 -51.5l-169 -128l-50 50z" />
    <glyph glyph-name="cacute" unicode="&#x107;" horiz-adv-x="499" 
d="M50 266q0 85 32.5 148t91 98.5t136.5 35.5q44 0 85 -11t69 -29l-31 -97q-49 41 -110 41q-68 0 -108.5 -49t-40.5 -135t41 -135.5t114 -49.5q32 0 65.5 11.5t54.5 33.5l12 -108q-26 -14 -64.5 -23.5t-84.5 -9.5q-124 0 -193 75.5t-69 203.5zM349 823q30 -9 54.5 -30
t38.5 -47l-158 -147l-53 44z" />
    <glyph glyph-name="Cdotaccent" unicode="&#x10a;" horiz-adv-x="652" 
d="M218.5 707.5q76.5 46.5 182.5 46.5q62 0 116.5 -14.5t97.5 -40.5l-31 -109q-43 35 -85.5 49.5t-86.5 14.5q-106 0 -163 -75.5t-57 -206.5q0 -135 58 -210t166 -75q53 0 101.5 17t81.5 48l15 -117q-37 -22 -94.5 -35t-118.5 -13q-108 0 -184.5 46t-117 131.5t-40.5 204.5
t41.5 205.5t118 133zM313 880q0 32 21.5 53t54.5 21t54.5 -21t21.5 -53q0 -33 -21.5 -54t-54.5 -21t-54.5 21.5t-21.5 53.5z" />
    <glyph glyph-name="cdotaccent" unicode="&#x10b;" horiz-adv-x="499" 
d="M50 266q0 85 32.5 148t91 98.5t136.5 35.5q44 0 85 -11t69 -29l-31 -97q-49 41 -110 41q-68 0 -108.5 -49t-40.5 -135t41 -135.5t114 -49.5q32 0 65.5 11.5t54.5 33.5l12 -108q-26 -14 -64.5 -23.5t-84.5 -9.5q-124 0 -193 75.5t-69 203.5zM227 688q0 32 21.5 53t52.5 21
q32 0 53 -21t21 -53q0 -31 -21 -52.5t-53 -21.5q-31 0 -52.5 21.5t-21.5 52.5z" />
    <glyph glyph-name="Ccaron" unicode="&#x10c;" horiz-adv-x="652" 
d="M218.5 707.5q76.5 46.5 182.5 46.5q62 0 116.5 -14.5t97.5 -40.5l-31 -109q-43 35 -85.5 49.5t-86.5 14.5q-106 0 -163 -75.5t-57 -206.5q0 -135 58 -210t166 -75q53 0 101.5 17t81.5 48l15 -117q-37 -22 -94.5 -35t-118.5 -13q-108 0 -184.5 46t-117 131.5t-40.5 204.5
t41.5 205.5t118 133zM220 957l58 48l111 -107l112 107l57 -48l-121 -144h-96z" />
    <glyph glyph-name="ccaron" unicode="&#x10d;" horiz-adv-x="499" 
d="M50 266q0 85 32.5 148t91 98.5t136.5 35.5q44 0 85 -11t69 -29l-31 -97q-49 41 -110 41q-68 0 -108.5 -49t-40.5 -135t41 -135.5t114 -49.5q32 0 65.5 11.5t54.5 33.5l12 -108q-26 -14 -64.5 -23.5t-84.5 -9.5q-124 0 -193 75.5t-69 203.5zM128 772l55 45l117 -117
l118 117l55 -45l-128 -159h-89z" />
    <glyph glyph-name="Dcaron" unicode="&#x10e;" horiz-adv-x="733" 
d="M90 741h193q131 0 219.5 -47.5t133 -131t44.5 -191.5t-44.5 -191.5t-133 -131.5t-219.5 -48h-193v741zM216 641v-541h77q125 0 189.5 73t64.5 197q0 125 -64.5 198t-189.5 73h-77zM187 957l58 48l111 -107l112 107l57 -48l-121 -144h-96z" />
    <glyph glyph-name="dcaron" unicode="&#x10f;" horiz-adv-x="691" 
d="M542 0h-117v71q-24 -39 -65 -61.5t-93 -22.5q-66 0 -114.5 34t-75.5 97t-27 149q0 87 27 150t76 97t115 34q49 0 89.5 -21t64.5 -57v290h120v-760zM422 165v206q-16 38 -48.5 60t-73.5 22q-59 0 -92.5 -49.5t-33.5 -136.5q0 -86 33.5 -135.5t93.5 -49.5q41 0 73 22.5
t48 60.5zM612 760q13 5 26.5 7.5t29.5 2.5q14 0 28 -2.5t28 -7.5l-59 -235h-65z" />
    <glyph glyph-name="Dcroat" unicode="&#x110;" horiz-adv-x="738" 
d="M90 330h-83v92h83v319h193q131 0 219.5 -47.5t133 -131t44.5 -191.5t-44.5 -191.5t-133 -131.5t-219.5 -48h-193v330zM216 100h77q125 0 189.5 73t64.5 197q0 125 -64.5 198t-189.5 73h-77v-219h142v-92h-142v-230z" />
    <glyph glyph-name="dcroat" unicode="&#x111;" horiz-adv-x="612" 
d="M542 0h-117v71q-24 -38 -65 -60.5t-93 -22.5q-66 0 -114.5 33.5t-75.5 94.5t-27 144q0 128 59 200.5t159 72.5q49 0 89.5 -20.5t64.5 -57.5v149h-158v77h158v79h120v-79h75v-77h-75v-604zM373.5 416q-32.5 22 -73.5 22q-59 0 -92.5 -46.5t-33.5 -131.5q0 -81 33.5 -129.5
t93.5 -48.5q41 0 73 22.5t48 61.5v190q-16 38 -48.5 60z" />
    <glyph glyph-name="Emacron" unicode="&#x112;" horiz-adv-x="569" 
d="M90 741h439l-11 -100h-302v-202h244v-100h-244v-239h324v-100h-450v741zM155 923h312v-89h-312v89z" />
    <glyph glyph-name="emacron" unicode="&#x113;" horiz-adv-x="558" 
d="M493 127l12 -105q-30 -16 -76.5 -25.5t-99.5 -9.5q-85 0 -148 35t-97 99.5t-34 153.5q0 82 29.5 143t84.5 95.5t131 34.5q100 0 157 -62.5t57 -179.5q0 -9 -0.5 -27t-1.5 -29h-335q8 -85 54.5 -127t118.5 -42q38 0 79.5 11.5t68.5 34.5zM294 462q-50 0 -82 -35t-40 -99
h226q0 66 -27.5 100t-76.5 34zM144 730h292v-86h-292v86z" />
    <glyph glyph-name="Edotaccent" unicode="&#x116;" horiz-adv-x="569" 
d="M90 741h439l-11 -100h-302v-202h244v-100h-244v-239h324v-100h-450v741zM235 880q0 32 21.5 53t54.5 21t54.5 -21t21.5 -53q0 -33 -21.5 -54t-54.5 -21t-54.5 21.5t-21.5 53.5z" />
    <glyph glyph-name="edotaccent" unicode="&#x117;" horiz-adv-x="558" 
d="M493 127l12 -105q-30 -16 -76.5 -25.5t-99.5 -9.5q-85 0 -148 35t-97 99.5t-34 153.5q0 82 29.5 143t84.5 95.5t131 34.5q100 0 157 -62.5t57 -179.5q0 -9 -0.5 -27t-1.5 -29h-335q8 -85 54.5 -127t118.5 -42q38 0 79.5 11.5t68.5 34.5zM294 462q-50 0 -82 -35t-40 -99
h226q0 66 -27.5 100t-76.5 34zM216 688q0 32 21.5 53t52.5 21q32 0 53 -21t21 -53q0 -31 -21 -52.5t-53 -21.5q-31 0 -52.5 21.5t-21.5 52.5z" />
    <glyph glyph-name="Eogonek" unicode="&#x118;" horiz-adv-x="569" 
d="M90 741h439l-11 -100h-302v-202h244v-100h-244v-239h324v-100h-450v741zM539 -217q-15 -8 -37 -13.5t-40 -5.5q-54 0 -84 26t-30 72q0 41 34 84t94 77l64 -23q-89 -67 -89 -114q0 -32 35 -32q22 0 44 16z" />
    <glyph glyph-name="eogonek" unicode="&#x119;" horiz-adv-x="558" 
d="M493 127l12 -105q-30 -16 -76.5 -25.5t-99.5 -9.5q-85 0 -148 35t-97 99.5t-34 153.5q0 82 29.5 143t84.5 95.5t131 34.5q100 0 157 -62.5t57 -179.5q0 -9 -0.5 -27t-1.5 -29h-335q8 -85 54.5 -127t118.5 -42q38 0 79.5 11.5t68.5 34.5zM294 462q-50 0 -82 -35t-40 -99
h226q0 66 -27.5 100t-76.5 34zM423 23l82 -1q-57 -44 -83 -77t-26 -63q0 -31 35 -31q26 0 46 16l10 -85q-13 -7 -36 -12.5t-44 -5.5q-52 0 -81 24.5t-29 68.5q0 43 33.5 87t92.5 79z" />
    <glyph glyph-name="Ecaron" unicode="&#x11a;" horiz-adv-x="569" 
d="M90 741h439l-11 -100h-302v-202h244v-100h-244v-239h324v-100h-450v741zM142 957l58 48l111 -107l112 107l57 -48l-121 -144h-96z" />
    <glyph glyph-name="ecaron" unicode="&#x11b;" horiz-adv-x="558" 
d="M493 127l12 -105q-30 -16 -76.5 -25.5t-99.5 -9.5q-85 0 -148 35t-97 99.5t-34 153.5q0 82 29.5 143t84.5 95.5t131 34.5q100 0 157 -62.5t57 -179.5q0 -9 -0.5 -27t-1.5 -29h-335q8 -85 54.5 -127t118.5 -42q38 0 79.5 11.5t68.5 34.5zM294 462q-50 0 -82 -35t-40 -99
h226q0 66 -27.5 100t-76.5 34zM117 772l55 45l117 -117l118 117l55 -45l-128 -159h-89z" />
    <glyph glyph-name="Gbreve" unicode="&#x11e;" horiz-adv-x="712" 
d="M648 53q-37 -29 -101 -47.5t-137 -18.5q-110 0 -189 45.5t-120.5 131.5t-41.5 206q0 119 42.5 205t122.5 132.5t190 46.5q64 0 121 -14.5t103 -40.5l-32 -109q-46 34 -91.5 49t-93.5 15q-111 0 -170 -76t-59 -207q0 -137 59.5 -210.5t170.5 -73.5q59 0 105 22v199h-156
v100h277v-355zM393 802q-82 0 -126 44t-40 119h90q0 -85 76 -85q77 0 77 85h90q4 -75 -40.5 -119t-126.5 -44z" />
    <glyph glyph-name="gbreve" unicode="&#x11f;" horiz-adv-x="605" 
d="M542 61q0 -139 -70.5 -215t-210.5 -76q-45 0 -89.5 10t-81.5 30l11 109q35 -29 75.5 -41t79.5 -12q84 0 125 44t41 126v32q-24 -36 -64.5 -57t-89.5 -21q-100 0 -159 74.5t-59 204.5q0 86 27 148.5t75.5 96.5t114.5 34q52 0 93 -22.5t65 -61.5v71h117v-474zM207.5 404
q-33.5 -49 -33.5 -135t33.5 -135t92.5 -49q41 0 73.5 22t48.5 60v203q-16 38 -48 60.5t-73 22.5q-60 0 -93.5 -49zM299 685q82 0 82 86h82q0 -79 -42.5 -121t-121.5 -42q-78 0 -121 42t-43 121h82q0 -86 82 -86z" />
    <glyph glyph-name="Gdotaccent" unicode="&#x120;" horiz-adv-x="712" 
d="M648 53q-37 -29 -101 -47.5t-137 -18.5q-110 0 -189 45.5t-120.5 131.5t-41.5 206q0 119 42.5 205t122.5 132.5t190 46.5q64 0 121 -14.5t103 -40.5l-32 -109q-46 34 -91.5 49t-93.5 15q-111 0 -170 -76t-59 -207q0 -137 59.5 -210.5t170.5 -73.5q59 0 105 22v199h-156
v100h277v-355zM317 880q0 32 21.5 53t54.5 21t54.5 -21t21.5 -53q0 -33 -21.5 -54t-54.5 -21t-54.5 21.5t-21.5 53.5z" />
    <glyph glyph-name="gdotaccent" unicode="&#x121;" horiz-adv-x="605" 
d="M542 61q0 -139 -70.5 -215t-210.5 -76q-45 0 -89.5 10t-81.5 30l11 109q35 -29 75.5 -41t79.5 -12q84 0 125 44t41 126v32q-24 -36 -64.5 -57t-89.5 -21q-100 0 -159 74.5t-59 204.5q0 86 27 148.5t75.5 96.5t114.5 34q52 0 93 -22.5t65 -61.5v71h117v-474zM207.5 404
q-33.5 -49 -33.5 -135t33.5 -135t92.5 -49q41 0 73.5 22t48.5 60v203q-16 38 -48 60.5t-73 22.5q-60 0 -93.5 -49zM225 688q0 32 21.5 53t52.5 21q32 0 53 -21t21 -53q0 -31 -21 -52.5t-53 -21.5q-31 0 -52.5 21.5t-21.5 52.5z" />
    <glyph glyph-name="uni0122" unicode="&#x122;" horiz-adv-x="712" 
d="M648 53q-37 -29 -101 -47.5t-137 -18.5q-110 0 -189 45.5t-120.5 131.5t-41.5 206q0 119 42.5 205t122.5 132.5t190 46.5q64 0 121 -14.5t103 -40.5l-32 -109q-46 34 -91.5 49t-93.5 15q-111 0 -170 -76t-59 -207q0 -137 59.5 -210.5t170.5 -73.5q59 0 105 22v199h-156
v100h277v-355zM326 -62h107q-7 -43 -29.5 -86.5t-53.5 -75.5h-84q46 66 60 162z" />
    <glyph glyph-name="uni0123" unicode="&#x123;" horiz-adv-x="605" 
d="M542 61q0 -139 -70.5 -215t-210.5 -76q-45 0 -89.5 10t-81.5 30l11 109q35 -29 75.5 -41t79.5 -12q84 0 125 44t41 126v32q-24 -36 -64.5 -57t-89.5 -21q-100 0 -159 74.5t-59 204.5q0 86 27 148.5t75.5 96.5t114.5 34q52 0 93 -22.5t65 -61.5v71h117v-474zM207.5 404
q-33.5 -49 -33.5 -135t33.5 -135t92.5 -49q41 0 73.5 22t48.5 60v203q-16 38 -48 60.5t-73 22.5q-60 0 -93.5 -49zM313 786h83q-22 -36 -33 -75.5t-13 -95.5h-110q2 45 21.5 90.5t51.5 80.5z" />
    <glyph glyph-name="Hbar" unicode="&#x126;" horiz-adv-x="741" 
d="M651 0h-126v341h-309v-341h-126v541h-84v87h84v113h126v-113h309v113h126v-113h84v-87h-84v-541zM525 541h-309v-98h309v98z" />
    <glyph glyph-name="hbar" unicode="&#x127;" horiz-adv-x="587" 
d="M71 604h-75v77h75v79h120v-79h157v-77h-157v-150q27 39 68 59t89 20q79 0 128 -51.5t49 -145.5v-336h-120v328q0 50 -25 79.5t-70 29.5q-38 0 -70.5 -22t-48.5 -57v-358h-120v604z" />
    <glyph glyph-name="Itilde" unicode="&#x128;" horiz-adv-x="306" 
d="M90 741h126v-741h-126v741zM79 972q20 0 40.5 -8t47.5 -28q22 -15 32 -20t21 -5q35 0 35 63l82 -14q0 -65 -28 -102t-81 -37q-20 0 -40.5 7.5t-47.5 27.5q-22 16 -32 20.5t-21 4.5q-35 0 -35 -63l-82 14q0 65 28.5 102.5t80.5 37.5z" />
    <glyph glyph-name="itilde" unicode="&#x129;" horiz-adv-x="262" 
d="M71 535h120v-535h-120v535zM205 614q-20 0 -40 8t-47 29q-21 17 -31 22t-20 5q-18 0 -27.5 -17.5t-9.5 -48.5l-79 14q0 64 28 101.5t79 37.5q20 0 40 -7.5t47 -29.5q21 -16 31 -21t20 -5q37 0 37 66l79 -14q0 -64 -28 -102t-79 -38z" />
    <glyph glyph-name="Imacron" unicode="&#x12a;" horiz-adv-x="306" 
d="M90 741h126v-741h-126v741zM-3 923h312v-89h-312v89z" />
    <glyph glyph-name="imacron" unicode="&#x12b;" horiz-adv-x="262" 
d="M71 535h120v-535h-120v535zM-15 730h292v-86h-292v86z" />
    <glyph glyph-name="Iogonek" unicode="&#x12e;" horiz-adv-x="306" 
d="M90 741h126v-741h-126v741zM215 -217q-15 -8 -37 -13.5t-40 -5.5q-54 0 -84 26t-30 72q0 41 34 84t94 77l64 -23q-89 -67 -89 -114q0 -32 35 -32q22 0 44 16z" />
    <glyph glyph-name="iogonek" unicode="&#x12f;" horiz-adv-x="262" 
d="M71 535h120v-535h-120v535zM57 688q0 32 21.5 53t52.5 21q32 0 53 -21t21 -53q0 -31 -21 -52.5t-53 -21.5q-31 0 -52.5 21.5t-21.5 52.5zM129 23l62 -23q-49 -37 -71 -64.5t-22 -53.5q0 -16 10.5 -23.5t26.5 -7.5q25 0 44 16l10 -85q-14 -7 -36.5 -12.5t-43.5 -5.5
q-52 0 -81 25t-29 68q0 44 35 88t95 78z" />
    <glyph glyph-name="Idotaccent" unicode="&#x130;" horiz-adv-x="306" 
d="M90 741h126v-741h-126v741zM77 880q0 32 21.5 53t54.5 21t54.5 -21t21.5 -53q0 -33 -21.5 -54t-54.5 -21t-54.5 21.5t-21.5 53.5z" />
    <glyph glyph-name="dotlessi" unicode="&#x131;" horiz-adv-x="262" 
d="M71 535h120v-535h-120v535z" />
    <glyph glyph-name="IJ" unicode="&#x132;" horiz-adv-x="738" 
d="M90 741h126v-741h-126v741zM657 198q0 -97 -53.5 -154t-157.5 -57q-37 0 -68.5 7t-58.5 19l11 108q47 -29 101 -29q47 0 74 30.5t27 98.5v520h125v-543z" />
    <glyph glyph-name="ij" unicode="&#x133;" horiz-adv-x="523" 
d="M71 535h120v-535h-120v535zM57 688q0 32 21.5 53t52.5 21q32 0 53 -21t21 -53q0 -31 -21 -52.5t-53 -21.5q-31 0 -52.5 21.5t-21.5 52.5zM333 535h120v-570q0 -195 -175 -195q-19 0 -38.5 3t-35.5 10l11 96q9 -5 21.5 -9t28.5 -4q68 0 68 95v574zM319 688q0 32 21.5 53
t52.5 21q32 0 53 -21t21 -53q0 -31 -21 -52.5t-53 -21.5q-31 0 -52.5 21.5t-21.5 52.5z" />
    <glyph glyph-name="uni0136" unicode="&#x136;" horiz-adv-x="687" 
d="M90 741h126v-321q73 80 142.5 160t137.5 161h149q-75 -86 -152 -172t-157 -172q87 -99 171 -198.5t165 -198.5h-161q-71 88 -145 178t-150 180v-358h-126v741zM306 -62h107q-7 -43 -29.5 -86.5t-53.5 -75.5h-84q46 66 60 162z" />
    <glyph glyph-name="uni0137" unicode="&#x137;" horiz-adv-x="572" 
d="M71 760h120v-455q54 57 106.5 114.5t102.5 115.5h142q-114 -124 -234 -248q66 -72 129.5 -143.5t125.5 -143.5h-152q-52 63 -107 128t-113 130v-258h-120v760zM245 -62h104q-7 -43 -29.5 -86.5t-54.5 -75.5h-80q46 66 60 162z" />
    <glyph glyph-name="kgreenlandic" unicode="&#x138;" horiz-adv-x="585" 
d="M71 535h120v-230q54 57 106.5 114.5t102.5 115.5h142q-114 -124 -234 -248q66 -72 129.5 -143.5t125.5 -143.5h-152q-52 63 -107 128t-113 130v-258h-120v535z" />
    <glyph glyph-name="Lacute" unicode="&#x139;" horiz-adv-x="538" 
d="M90 741h126v-640h304v-101h-430v741zM219 1011q28 -10 50.5 -33.5t35.5 -51.5l-169 -128l-50 50z" />
    <glyph glyph-name="lacute" unicode="&#x13a;" horiz-adv-x="333" 
d="M70 760h120v-599q0 -41 15 -58.5t48 -17.5q38 0 62 22l-9 -103q-14 -6 -37 -10.5t-49 -4.5q-150 0 -150 155v616zM196 1011q28 -10 50.5 -33.5t35.5 -51.5l-169 -128l-50 50z" />
    <glyph glyph-name="uni013B" unicode="&#x13b;" horiz-adv-x="538" 
d="M90 741h126v-640h304v-101h-430v741zM252 -62h107q-7 -43 -29.5 -86.5t-53.5 -75.5h-84q46 66 60 162z" />
    <glyph glyph-name="uni013C" unicode="&#x13c;" horiz-adv-x="333" 
d="M70 760h120v-599q0 -41 15 -58.5t48 -17.5q38 0 62 22l-9 -103q-14 -6 -37 -10.5t-49 -4.5q-150 0 -150 155v616zM138 -62h104q-7 -43 -29.5 -86.5t-54.5 -75.5h-80q46 66 60 162z" />
    <glyph glyph-name="Lcaron" unicode="&#x13d;" horiz-adv-x="538" 
d="M90 741h126v-640h304v-101h-430v741zM308 760q13 5 26.5 7.5t29.5 2.5q14 0 28 -2.5t28 -7.5l-59 -235h-65z" />
    <glyph glyph-name="lcaron" unicode="&#x13e;" horiz-adv-x="349" 
d="M70 760h120v-599q0 -41 15 -58.5t48 -17.5q38 0 62 22l-9 -103q-14 -6 -37 -10.5t-49 -4.5q-150 0 -150 155v616zM261 760q13 5 26.5 7.5t29.5 2.5q14 0 28 -2.5t28 -7.5l-59 -235h-65z" />
    <glyph glyph-name="Lslash" unicode="&#x141;" horiz-adv-x="538" 
d="M90 741h126v-277l182 89v-95l-182 -90v-267h304v-101h-430v306l-92 -45v96l92 45v339z" />
    <glyph glyph-name="lslash" unicode="&#x142;" horiz-adv-x="333" 
d="M70 760h120v-269l89 45v-96l-89 -45v-234q0 -41 15 -58.5t48 -17.5q38 0 62 22l-9 -103q-14 -6 -37 -10.5t-49 -4.5q-150 0 -150 155v190l-67 -34v95l67 34v331z" />
    <glyph glyph-name="Nacute" unicode="&#x143;" horiz-adv-x="745" 
d="M90 741h132l319 -513l-1 57v456h115v-741h-104l-346 559v-48v-511h-115v741zM438 1011q28 -10 50.5 -33.5t35.5 -51.5l-169 -128l-50 50z" />
    <glyph glyph-name="nacute" unicode="&#x144;" horiz-adv-x="587" 
d="M71 535h117v-71q26 42 68.5 63t91.5 21q79 0 128 -52t49 -145v-351h-120v343q0 50 -25 79.5t-70 29.5q-38 0 -70.5 -22t-48.5 -57v-373h-120v535zM354 823q30 -9 54.5 -30t38.5 -47l-158 -147l-53 44z" />
    <glyph glyph-name="uni0145" unicode="&#x145;" horiz-adv-x="745" 
d="M90 741h132l319 -513l-1 57v456h115v-741h-104l-346 559v-48v-511h-115v741zM319 -62h107q-7 -43 -29.5 -86.5t-53.5 -75.5h-84q46 66 60 162z" />
    <glyph glyph-name="uni0146" unicode="&#x146;" horiz-adv-x="587" 
d="M71 535h117v-71q26 42 68.5 63t91.5 21q79 0 128 -52t49 -145v-351h-120v343q0 50 -25 79.5t-70 29.5q-38 0 -70.5 -22t-48.5 -57v-373h-120v535zM247 -62h104q-7 -43 -29.5 -86.5t-54.5 -75.5h-80q46 66 60 162z" />
    <glyph glyph-name="Ncaron" unicode="&#x147;" horiz-adv-x="745" 
d="M90 741h132l319 -513l-1 57v456h115v-741h-104l-346 559v-48v-511h-115v741zM203 957l58 48l111 -107l112 107l57 -48l-121 -144h-96z" />
    <glyph glyph-name="ncaron" unicode="&#x148;" horiz-adv-x="587" 
d="M71 535h117v-71q26 42 68.5 63t91.5 21q79 0 128 -52t49 -145v-351h-120v343q0 50 -25 79.5t-70 29.5q-38 0 -70.5 -22t-48.5 -57v-373h-120v535zM133 772l55 45l117 -117l118 117l55 -45l-128 -159h-89z" />
    <glyph glyph-name="Eng" unicode="&#x14a;" horiz-adv-x="742" 
d="M654 -16q0 -97 -53.5 -154t-157.5 -57q-69 0 -124 26l11 108q23 -13 51 -21t53 -8q51 0 80 30t29 99v4l-339 548v-48v-511h-115v741h132l319 -513l-1 57v456h115v-757z" />
    <glyph glyph-name="eng" unicode="&#x14b;" horiz-adv-x="587" 
d="M71 535h117v-71q26 42 68.5 63t91.5 21q79 0 128 -52t49 -145v-386q0 -195 -175 -195q-19 0 -38.5 3t-35.5 10l11 96q9 -5 21 -9t28 -4q69 0 69 95v382q0 50 -25 79.5t-70 29.5q-38 0 -70.5 -22t-48.5 -57v-373h-120v535z" />
    <glyph glyph-name="Omacron" unicode="&#x14c;" horiz-adv-x="777" 
d="M59 379q0 110 37.5 194.5t111 132.5t181.5 48q109 0 182 -48t110.5 -132.5t37.5 -194.5q0 -115 -36.5 -203.5t-109.5 -138.5t-184 -50q-110 0 -183.5 50t-110 138.5t-36.5 203.5zM586 379q0 128 -51 202t-146 74t-146 -74t-51 -202q0 -134 51.5 -213.5t145.5 -79.5
q95 0 146 79.5t51 213.5zM233 923h312v-89h-312v89z" />
    <glyph glyph-name="omacron" unicode="&#x14d;" horiz-adv-x="611" 
d="M50 275q0 81 28.5 142.5t85 96t141.5 34.5t141.5 -34.5t85 -96t28.5 -142.5q0 -85 -27.5 -150t-84 -101.5t-143.5 -36.5q-86 0 -142.5 36.5t-84.5 101.5t-28 150zM436 275q0 83 -33 131t-98 48q-64 0 -97.5 -48t-33.5 -131q0 -89 33.5 -141.5t97.5 -52.5q65 0 98 52.5
t33 141.5zM159 730h292v-86h-292v86z" />
    <glyph glyph-name="Ohungarumlaut" unicode="&#x150;" horiz-adv-x="777" 
d="M59 379q0 110 37.5 194.5t111 132.5t181.5 48q109 0 182 -48t110.5 -132.5t37.5 -194.5q0 -115 -36.5 -203.5t-109.5 -138.5t-184 -50q-110 0 -183.5 50t-110 138.5t-36.5 203.5zM586 379q0 128 -51 202t-146 74t-146 -74t-51 -202q0 -134 51.5 -213.5t145.5 -79.5
q95 0 146 79.5t51 213.5zM354 1004q26 -7 51.5 -23t39.5 -38l-137 -145l-57 38zM544 1004q26 -7 51 -24t38 -39l-140 -142l-56 40z" />
    <glyph glyph-name="ohungarumlaut" unicode="&#x151;" horiz-adv-x="611" 
d="M50 275q0 81 28.5 142.5t85 96t141.5 34.5t141.5 -34.5t85 -96t28.5 -142.5q0 -85 -27.5 -150t-84 -101.5t-143.5 -36.5q-86 0 -142.5 36.5t-84.5 101.5t-28 150zM436 275q0 83 -33 131t-98 48q-64 0 -97.5 -48t-33.5 -131q0 -89 33.5 -141.5t97.5 -52.5q65 0 98 52.5
t33 141.5zM425 814q26 -3 53.5 -16.5t44.5 -32.5l-120 -169l-58 30zM255 814q26 -4 53 -17t44 -32l-120 -169l-57 30z" />
    <glyph glyph-name="OE" unicode="&#x152;" horiz-adv-x="1048" 
d="M696 100h324v-100h-447v84q-36 -46 -88 -71.5t-120 -25.5q-100 0 -168 50t-103 138.5t-35 203.5q0 110 35.5 194.5t104 132.5t166.5 48q67 0 119.5 -25.5t88.5 -70.5v83h435l-12 -100h-300v-202h244v-100h-244v-239zM192 379q0 -134 49 -213.5t140 -79.5q92 0 141 79.5
t49 213.5q0 128 -49 202t-141 74q-91 0 -140 -74t-49 -202z" />
    <glyph glyph-name="oe" unicode="&#x153;" horiz-adv-x="939" 
d="M571.5 522q47.5 26 110.5 26q95 0 151.5 -62.5t56.5 -179.5q0 -9 -0.5 -27t-1.5 -29h-330q8 -85 52.5 -127t115.5 -42q38 0 79.5 11.5t68.5 34.5l12 -105q-30 -16 -74.5 -25.5t-91.5 -9.5q-75 0 -131 28t-91 78q-31 -51 -82 -78.5t-121 -27.5q-80 0 -134.5 36.5
t-82.5 100.5t-28 148q0 82 28 144t82.5 97t133.5 35q69 0 119 -25.5t81 -71.5q30 45 77.5 71zM402 132q34 51 34 141q0 87 -33.5 134t-98.5 47q-64 0 -97 -48t-33 -133q0 -87 33.5 -139.5t97.5 -52.5q63 0 97 51zM558 328h221q0 66 -27.5 100t-76.5 34t-79 -35t-38 -99z" />
    <glyph glyph-name="Racute" unicode="&#x154;" horiz-adv-x="670" 
d="M90 741h195q85 0 151 -22.5t104 -68t38 -114.5q0 -71 -38.5 -117.5t-106.5 -67.5q58 -30 109.5 -113.5t110.5 -237.5h-139q-39 95 -69.5 154.5t-59.5 91.5t-61.5 44t-76.5 12h-31v-302h-126v741zM404 429.5q45 32.5 45 93.5t-45 91t-115 30h-73v-247h73q70 0 115 32.5z
M390 1011q28 -10 50.5 -33.5t35.5 -51.5l-169 -128l-50 50z" />
    <glyph glyph-name="racute" unicode="&#x155;" horiz-adv-x="411" 
d="M71 535h117v-95q26 56 68.5 82t89.5 26q10 0 19.5 -1t17.5 -3l-13 -123q-9 5 -21.5 7t-25.5 2q-44 0 -80 -29t-52 -75v-326h-120v535zM283 823q30 -9 54.5 -30t38.5 -47l-158 -147l-53 44z" />
    <glyph glyph-name="Rcaron" unicode="&#x158;" horiz-adv-x="670" 
d="M90 741h195q85 0 151 -22.5t104 -68t38 -114.5q0 -71 -38.5 -117.5t-106.5 -67.5q58 -30 109.5 -113.5t110.5 -237.5h-139q-39 95 -69.5 154.5t-59.5 91.5t-61.5 44t-76.5 12h-31v-302h-126v741zM404 429.5q45 32.5 45 93.5t-45 91t-115 30h-73v-247h73q70 0 115 32.5z
M155 957l58 48l111 -107l112 107l57 -48l-121 -144h-96z" />
    <glyph glyph-name="rcaron" unicode="&#x159;" horiz-adv-x="411" 
d="M71 535h117v-95q26 56 68.5 82t89.5 26q10 0 19.5 -1t17.5 -3l-13 -123q-9 5 -21.5 7t-25.5 2q-44 0 -80 -29t-52 -75v-326h-120v535zM62 772l55 45l117 -117l118 117l55 -45l-128 -159h-89z" />
    <glyph glyph-name="Sacute" unicode="&#x15a;" horiz-adv-x="600" 
d="M277 -13q-63 0 -123 14.5t-109 41.5l12 118q100 -73 216 -73q73 0 113 29t40 82q0 29 -13.5 49.5t-48.5 39t-99 41.5q-76 28 -120 60t-62.5 70t-18.5 82q0 65 32 113t90 74t136 26q114 0 206 -49l-32 -107q-34 27 -76.5 42t-91.5 15q-63 0 -100.5 -26t-37.5 -74
q0 -38 34 -63t119 -57q85 -30 130 -64t62.5 -72.5t17.5 -84.5q0 -105 -74 -166t-202 -61zM380 1011q28 -10 50.5 -33.5t35.5 -51.5l-169 -128l-50 50z" />
    <glyph glyph-name="sacute" unicode="&#x15b;" horiz-adv-x="482" 
d="M58 132q34 -28 75 -42t82 -14q49 0 77.5 19t28.5 52q0 17 -10 29t-34.5 24.5t-70.5 28.5q-84 30 -117.5 68t-33.5 90q0 50 26 86t72 55.5t104 19.5q44 0 86.5 -11t70.5 -29l-29 -92q-53 44 -121 44q-42 0 -67.5 -16t-25.5 -47q0 -25 25 -41t89 -39q60 -21 93 -46t46 -54
t13 -62q0 -80 -61 -124t-159 -44q-49 0 -94.5 11t-77.5 29zM294 823q30 -9 54.5 -30t38.5 -47l-158 -147l-53 44z" />
    <glyph glyph-name="Scedilla" unicode="&#x15e;" horiz-adv-x="600" 
d="M277 -13q-63 0 -123 14.5t-109 41.5l12 118q100 -73 216 -73q73 0 113 29t40 82q0 29 -13.5 49.5t-48.5 39t-99 41.5q-76 28 -120 60t-62.5 70t-18.5 82q0 65 32 113t90 74t136 26q114 0 206 -49l-32 -107q-34 27 -76.5 42t-91.5 15q-63 0 -100.5 -26t-37.5 -74
q0 -38 34 -63t119 -57q85 -30 130 -64t62.5 -72.5t17.5 -84.5q0 -105 -74 -166t-202 -61zM263 13h79l-18 -71q51 -3 79.5 -27t28.5 -65q0 -49 -40.5 -76t-111.5 -27q-26 0 -54 6.5t-42 13.5l10 75q15 -12 36.5 -18t43.5 -6q60 0 60 34q0 33 -63 33q-10 0 -22 -1t-22 -3z" />
    <glyph glyph-name="scedilla" unicode="&#x15f;" horiz-adv-x="482" 
d="M58 132q34 -28 75 -42t82 -14q49 0 77.5 19t28.5 52q0 17 -10 29t-34.5 24.5t-70.5 28.5q-84 30 -117.5 68t-33.5 90q0 50 26 86t72 55.5t104 19.5q44 0 86.5 -11t70.5 -29l-29 -92q-53 44 -121 44q-42 0 -67.5 -16t-25.5 -47q0 -25 25 -41t89 -39q60 -21 93 -46t46 -54
t13 -62q0 -80 -61 -124t-159 -44q-49 0 -94.5 11t-77.5 29zM210 13h77l-19 -71q54 -4 80.5 -29t26.5 -63q0 -49 -39 -76t-111 -27q-25 0 -53 6.5t-42 13.5l9 73q34 -24 81 -24q61 0 61 36q0 35 -63 35q-21 0 -44 -5z" />
    <glyph glyph-name="Scaron" unicode="&#x160;" horiz-adv-x="600" 
d="M277 -13q-63 0 -123 14.5t-109 41.5l12 118q100 -73 216 -73q73 0 113 29t40 82q0 29 -13.5 49.5t-48.5 39t-99 41.5q-76 28 -120 60t-62.5 70t-18.5 82q0 65 32 113t90 74t136 26q114 0 206 -49l-32 -107q-34 27 -76.5 42t-91.5 15q-63 0 -100.5 -26t-37.5 -74
q0 -38 34 -63t119 -57q85 -30 130 -64t62.5 -72.5t17.5 -84.5q0 -105 -74 -166t-202 -61zM145 957l58 48l111 -107l112 107l57 -48l-121 -144h-96z" />
    <glyph glyph-name="scaron" unicode="&#x161;" horiz-adv-x="482" 
d="M58 132q34 -28 75 -42t82 -14q49 0 77.5 19t28.5 52q0 17 -10 29t-34.5 24.5t-70.5 28.5q-84 30 -117.5 68t-33.5 90q0 50 26 86t72 55.5t104 19.5q44 0 86.5 -11t70.5 -29l-29 -92q-53 44 -121 44q-42 0 -67.5 -16t-25.5 -47q0 -25 25 -41t89 -39q60 -21 93 -46t46 -54
t13 -62q0 -80 -61 -124t-159 -44q-49 0 -94.5 11t-77.5 29zM73 772l55 45l117 -117l118 117l55 -45l-128 -159h-89z" />
    <glyph glyph-name="uni0162" unicode="&#x162;" horiz-adv-x="598" 
d="M236 640h-217v101h560v-101h-217v-640h-126v640zM263 13h79l-18 -71q51 -3 79.5 -27t28.5 -65q0 -49 -40.5 -76t-111.5 -27q-26 0 -54 6.5t-42 13.5l10 75q15 -12 36.5 -18t43.5 -6q60 0 60 34q0 33 -63 33q-10 0 -22 -1t-22 -3z" />
    <glyph glyph-name="uni0163" unicode="&#x163;" horiz-adv-x="419" 
d="M116 447h-90v88h90v105l120 55v-160h143v-88h-143v-267q0 -49 18 -73t59 -24q19 0 39.5 6.5t36.5 18.5l-10 -103q-21 -9 -47 -13.5t-52 -4.5q-164 0 -164 173v287zM222 13h77l-19 -71q54 -4 80.5 -29t26.5 -63q0 -49 -39 -76t-111 -27q-25 0 -53 6.5t-42 13.5l9 73
q34 -24 81 -24q61 0 61 36q0 35 -63 35q-21 0 -44 -5z" />
    <glyph glyph-name="Tcaron" unicode="&#x164;" horiz-adv-x="598" 
d="M236 640h-217v101h560v-101h-217v-640h-126v640zM130 957l58 48l111 -107l112 107l57 -48l-121 -144h-96z" />
    <glyph glyph-name="tcaron" unicode="&#x165;" horiz-adv-x="422" 
d="M116 447h-90v88h90v105l120 55v-160h143v-88h-143v-267q0 -49 18 -73t59 -24q19 0 39.5 6.5t36.5 18.5l-10 -103q-21 -9 -47 -13.5t-52 -4.5q-164 0 -164 173v287zM307 760q13 5 26.5 7.5t29.5 2.5q14 0 28 -2.5t28 -7.5l-58 -166h-62z" />
    <glyph glyph-name="Tbar" unicode="&#x166;" horiz-adv-x="598" 
d="M362 0h-126v318h-172v90h172v232h-217v101h560v-101h-217v-232h175v-90h-175v-318z" />
    <glyph glyph-name="tbar" unicode="&#x167;" horiz-adv-x="419" 
d="M116 160v86h-90v76h90v125h-90v88h90v105l120 55v-160h143v-88h-143v-125h143v-76h-143v-66q0 -49 18 -73t59 -24q19 0 39.5 6.5t36.5 18.5l-10 -103q-21 -9 -47 -13.5t-52 -4.5q-164 0 -164 173z" />
    <glyph glyph-name="Utilde" unicode="&#x168;" horiz-adv-x="712" 
d="M508 741h123v-483q0 -127 -72.5 -199t-201.5 -72q-130 0 -203 72t-73 199v483h126v-467q0 -186 149 -186q76 0 114 43.5t38 126.5v483zM282 972q20 0 40.5 -8t47.5 -28q22 -15 32 -20t21 -5q35 0 35 63l82 -14q0 -65 -28 -102t-81 -37q-20 0 -40.5 7.5t-47.5 27.5
q-22 16 -32 20.5t-21 4.5q-35 0 -35 -63l-82 14q0 65 28.5 102.5t80.5 37.5z" />
    <glyph glyph-name="utilde" unicode="&#x169;" horiz-adv-x="586" 
d="M395 535h120v-535h-117v71q-27 -43 -69.5 -63.5t-90.5 -20.5q-78 0 -126.5 51.5t-48.5 145.5v351h120v-343q0 -50 24.5 -79.5t68.5 -29.5q38 0 70.5 22t48.5 57v373zM363 614q-20 0 -40 8t-47 29q-21 17 -31 22t-20 5q-18 0 -27.5 -17.5t-9.5 -48.5l-79 14q0 64 28 101.5
t79 37.5q20 0 40 -7.5t47 -29.5q21 -16 31 -21t20 -5q37 0 37 66l79 -14q0 -64 -28 -102t-79 -38z" />
    <glyph glyph-name="Umacron" unicode="&#x16a;" horiz-adv-x="712" 
d="M508 741h123v-483q0 -127 -72.5 -199t-201.5 -72q-130 0 -203 72t-73 199v483h126v-467q0 -186 149 -186q76 0 114 43.5t38 126.5v483zM200 923h312v-89h-312v89z" />
    <glyph glyph-name="umacron" unicode="&#x16b;" horiz-adv-x="586" 
d="M395 535h120v-535h-117v71q-27 -43 -69.5 -63.5t-90.5 -20.5q-78 0 -126.5 51.5t-48.5 145.5v351h120v-343q0 -50 24.5 -79.5t68.5 -29.5q38 0 70.5 22t48.5 57v373zM143 730h292v-86h-292v86z" />
    <glyph glyph-name="Uring" unicode="&#x16e;" horiz-adv-x="712" 
d="M508 741h123v-483q0 -127 -72.5 -199t-201.5 -72q-130 0 -203 72t-73 199v483h126v-467q0 -186 149 -186q76 0 114 43.5t38 126.5v483zM356 778q-52 0 -86 31.5t-34 79.5t34 79.5t86 31.5t86 -31.5t34 -79.5t-34 -79.5t-86 -31.5zM356 939q-22 0 -36 -13.5t-14 -36.5
q0 -22 14 -36t36 -14q23 0 36.5 14t13.5 36q0 23 -13.5 36.5t-36.5 13.5z" />
    <glyph glyph-name="uring" unicode="&#x16f;" horiz-adv-x="586" 
d="M395 535h120v-535h-117v71q-27 -43 -69.5 -63.5t-90.5 -20.5q-78 0 -126.5 51.5t-48.5 145.5v351h120v-343q0 -50 24.5 -79.5t68.5 -29.5q38 0 70.5 22t48.5 57v373zM289 604q-51 0 -85 31t-34 79q0 49 34 80t85 31t85 -31t34 -80q0 -48 -34 -79t-85 -31zM289 765
q-22 0 -36 -14t-14 -37q0 -22 14 -36t36 -14q23 0 36.5 14t13.5 36q0 23 -13.5 37t-36.5 14z" />
    <glyph glyph-name="Uhungarumlaut" unicode="&#x170;" horiz-adv-x="712" 
d="M508 741h123v-483q0 -127 -72.5 -199t-201.5 -72q-130 0 -203 72t-73 199v483h126v-467q0 -186 149 -186q76 0 114 43.5t38 126.5v483zM321 1004q26 -7 51.5 -23t39.5 -38l-137 -145l-57 38zM511 1004q26 -7 51 -24t38 -39l-140 -142l-56 40z" />
    <glyph glyph-name="uhungarumlaut" unicode="&#x171;" horiz-adv-x="586" 
d="M395 535h120v-535h-117v71q-27 -43 -69.5 -63.5t-90.5 -20.5q-78 0 -126.5 51.5t-48.5 145.5v351h120v-343q0 -50 24.5 -79.5t68.5 -29.5q38 0 70.5 22t48.5 57v373zM409 814q26 -3 53.5 -16.5t44.5 -32.5l-120 -169l-58 30zM239 814q26 -4 53 -17t44 -32l-120 -169
l-57 30z" />
    <glyph glyph-name="Uogonek" unicode="&#x172;" horiz-adv-x="712" 
d="M508 741h123v-483q0 -127 -72.5 -199t-201.5 -72q-130 0 -203 72t-73 199v483h126v-467q0 -186 149 -186q76 0 114 43.5t38 126.5v483zM490 -217q-14 -8 -36 -13.5t-42 -5.5q-54 0 -84 26t-30 72q0 40 34.5 83.5t94.5 77.5l93 6q-61 -47 -90 -81t-29 -62q0 -32 35 -32
q22 0 44 16z" />
    <glyph glyph-name="uogonek" unicode="&#x173;" horiz-adv-x="586" 
d="M395 535h120v-535h-117v71q-27 -43 -69.5 -63.5t-90.5 -20.5q-78 0 -126.5 51.5t-48.5 145.5v351h120v-343q0 -50 24.5 -79.5t68.5 -29.5q38 0 70.5 22t48.5 57v373zM453 23l62 -23q-49 -37 -71 -64.5t-22 -53.5q0 -16 10.5 -23.5t26.5 -7.5q25 0 44 16l10 -85
q-14 -7 -36.5 -12.5t-43.5 -5.5q-52 0 -81 25t-29 68q0 44 35 88t95 78z" />
    <glyph glyph-name="Wcircumflex" unicode="&#x174;" horiz-adv-x="1040" 
d="M520 547l-158 -547h-105q-58 185 -114 370.5t-109 370.5h130q72 -272 149 -543l151 523h115l152 -525q38 137 77 273t75 272h123q-105 -370 -222 -741h-106zM472 989h96l121 -145l-57 -48l-112 105l-111 -105l-58 48z" />
    <glyph glyph-name="wcircumflex" unicode="&#x175;" horiz-adv-x="791" 
d="M396 373l-116 -373h-84q-46 134 -88.5 268t-83.5 267h118q24 -89 49.5 -178t52.5 -177l106 341h95l106 -346q28 90 54 180t50 180h113q-40 -133 -83 -267t-89 -268h-85zM351 804h90l128 -159l-55 -45l-118 116l-117 -116l-55 45z" />
    <glyph glyph-name="Ycircumflex" unicode="&#x176;" horiz-adv-x="680" 
d="M405 297v-297h-126v298l-254 443h139l182 -338l177 338h132zM294 989h96l121 -145l-57 -48l-112 105l-111 -105l-58 48z" />
    <glyph glyph-name="ycircumflex" unicode="&#x177;" horiz-adv-x="558" 
d="M330 -2q-34 -83 -69 -133t-77.5 -72.5t-100.5 -22.5q-30 0 -52.5 5t-41.5 13l10 100q17 -10 35.5 -16t40.5 -6q47 0 79.5 31t58.5 101l8 21q-53 129 -104.5 258t-100.5 258h125q34 -97 69 -193t72 -193q37 97 71.5 193.5t67.5 192.5h120q-50 -133 -102.5 -266.5
t-108.5 -270.5zM234 804h90l128 -159l-55 -45l-118 116l-117 -116l-55 45z" />
    <glyph glyph-name="Ydieresis" unicode="&#x178;" horiz-adv-x="680" 
d="M405 297v-297h-126v298l-254 443h139l182 -338l177 338h132zM164 879q0 31 20 51.5t50 20.5q29 0 49 -20.5t20 -51.5q0 -30 -20 -50.5t-49 -20.5q-30 0 -50 20.5t-20 50.5zM382 879q0 31 20 51.5t50 20.5q29 0 49 -20.5t20 -51.5q0 -30 -20 -50.5t-49 -20.5
q-30 0 -50 20.5t-20 50.5z" />
    <glyph glyph-name="Zacute" unicode="&#x179;" horiz-adv-x="603" 
d="M406 640h-350l5 101h488v-93l-360 -547h367v-101h-510v93zM371 1011q28 -10 50.5 -33.5t35.5 -51.5l-169 -128l-50 50z" />
    <glyph glyph-name="zacute" unicode="&#x17a;" horiz-adv-x="483" 
d="M298 445h-252v90h390v-83l-260 -362h270v-90h-410v83zM289 823q30 -9 54.5 -30t38.5 -47l-158 -147l-53 44z" />
    <glyph glyph-name="Zdotaccent" unicode="&#x17b;" horiz-adv-x="603" 
d="M406 640h-350l5 101h488v-93l-360 -547h367v-101h-510v93zM229 880q0 32 21.5 53t54.5 21t54.5 -21t21.5 -53q0 -33 -21.5 -54t-54.5 -21t-54.5 21.5t-21.5 53.5z" />
    <glyph glyph-name="zdotaccent" unicode="&#x17c;" horiz-adv-x="483" 
d="M298 445h-252v90h390v-83l-260 -362h270v-90h-410v83zM167 688q0 32 21.5 53t52.5 21q32 0 53 -21t21 -53q0 -31 -21 -52.5t-53 -21.5q-31 0 -52.5 21.5t-21.5 52.5z" />
    <glyph glyph-name="Zcaron" unicode="&#x17d;" horiz-adv-x="603" 
d="M406 640h-350l5 101h488v-93l-360 -547h367v-101h-510v93zM136 957l58 48l111 -107l112 107l57 -48l-121 -144h-96z" />
    <glyph glyph-name="zcaron" unicode="&#x17e;" horiz-adv-x="483" 
d="M298 445h-252v90h390v-83l-260 -362h270v-90h-410v83zM68 772l55 45l117 -117l118 117l55 -45l-128 -159h-89z" />
    <glyph glyph-name="florin" unicode="&#x192;" 
d="M265 447h-90v88h90v9q0 112 55.5 170.5t162.5 58.5q26 0 49 -3.5t42 -9.5l-12 -96q-22 14 -65 14q-112 0 -112 -120v-23h143v-88h-143v-447q0 -112 -55 -171t-162 -59q-54 0 -91 13l11 97q23 -14 65 -14q112 0 112 119v462z" />
    <glyph glyph-name="uni0218" unicode="&#x218;" horiz-adv-x="600" 
d="M277 -13q-63 0 -123 14.5t-109 41.5l12 118q100 -73 216 -73q73 0 113 29t40 82q0 29 -13.5 49.5t-48.5 39t-99 41.5q-76 28 -120 60t-62.5 70t-18.5 82q0 65 32 113t90 74t136 26q114 0 206 -49l-32 -107q-34 27 -76.5 42t-91.5 15q-63 0 -100.5 -26t-37.5 -74
q0 -38 34 -63t119 -57q85 -30 130 -64t62.5 -72.5t17.5 -84.5q0 -105 -74 -166t-202 -61zM246 -62h107q-7 -43 -29.5 -86.5t-53.5 -75.5h-84q46 66 60 162z" />
    <glyph glyph-name="uni0219" unicode="&#x219;" horiz-adv-x="482" 
d="M58 132q34 -28 75 -42t82 -14q49 0 77.5 19t28.5 52q0 17 -10 29t-34.5 24.5t-70.5 28.5q-84 30 -117.5 68t-33.5 90q0 50 26 86t72 55.5t104 19.5q44 0 86.5 -11t70.5 -29l-29 -92q-53 44 -121 44q-42 0 -67.5 -16t-25.5 -47q0 -25 25 -41t89 -39q60 -21 93 -46t46 -54
t13 -62q0 -80 -61 -124t-159 -44q-49 0 -94.5 11t-77.5 29zM186 -62h104q-7 -43 -29.5 -86.5t-54.5 -75.5h-80q46 66 60 162z" />
    <glyph glyph-name="uni021A" unicode="&#x21a;" horiz-adv-x="598" 
d="M236 640h-217v101h560v-101h-217v-640h-126v640zM246 -62h107q-7 -43 -29.5 -86.5t-53.5 -75.5h-84q46 66 60 162z" />
    <glyph glyph-name="uni021B" unicode="&#x21b;" horiz-adv-x="419" 
d="M116 447h-90v88h90v105l120 55v-160h143v-88h-143v-267q0 -49 18 -73t59 -24q19 0 39.5 6.5t36.5 18.5l-10 -103q-21 -9 -47 -13.5t-52 -4.5q-164 0 -164 173v287zM198 -62h104q-7 -43 -29.5 -86.5t-54.5 -75.5h-80q46 66 60 162z" />
    <glyph glyph-name="uni0237" unicode="&#x237;" horiz-adv-x="262" 
d="M71 535h120v-570q0 -195 -175 -195q-19 0 -38.5 3t-35.5 10l11 96q9 -5 21.5 -9t28.5 -4q68 0 68 95v574z" />
    <glyph glyph-name="circumflex" unicode="&#x2c6;" horiz-adv-x="560" 
d="M235 804h90l128 -159l-55 -45l-118 116l-117 -116l-55 45z" />
    <glyph glyph-name="caron" unicode="&#x2c7;" horiz-adv-x="560" 
d="M107 772l55 45l117 -117l118 117l55 -45l-128 -159h-89z" />
    <glyph glyph-name="uni02C9" unicode="&#x2c9;" horiz-adv-x="560" 
d="M134 730h292v-86h-292v86z" />
    <glyph glyph-name="uni02CB" unicode="&#x2cb;" horiz-adv-x="560" 
d="M185 746q14 26 38.5 47t54.5 30l118 -180l-53 -44z" />
    <glyph glyph-name="breve" unicode="&#x2d8;" horiz-adv-x="560" 
d="M280 685q82 0 82 86h82q0 -79 -42.5 -121t-121.5 -42q-78 0 -121 42t-43 121h82q0 -86 82 -86z" />
    <glyph glyph-name="dotaccent" unicode="&#x2d9;" horiz-adv-x="560" 
d="M206 688q0 32 21.5 53t52.5 21q32 0 53 -21t21 -53q0 -31 -21 -52.5t-53 -21.5q-31 0 -52.5 21.5t-21.5 52.5z" />
    <glyph glyph-name="ring" unicode="&#x2da;" horiz-adv-x="560" 
d="M280 604q-51 0 -85 31t-34 79q0 49 34 80t85 31t85 -31t34 -80q0 -48 -34 -79t-85 -31zM280 765q-22 0 -36 -14t-14 -37q0 -22 14 -36t36 -14q23 0 36.5 14t13.5 36q0 23 -13.5 37t-36.5 14z" />
    <glyph glyph-name="ogonek" unicode="&#x2db;" horiz-adv-x="560" 
d="M313 23l62 -23q-49 -37 -71 -64.5t-22 -53.5q0 -16 10.5 -23.5t26.5 -7.5q25 0 44 16l10 -85q-14 -7 -36.5 -12.5t-43.5 -5.5q-52 0 -81 25t-29 68q0 44 35 88t95 78z" />
    <glyph glyph-name="tilde" unicode="&#x2dc;" horiz-adv-x="560" 
d="M353 614q-20 0 -40 8t-47 29q-21 17 -31 22t-20 5q-18 0 -27.5 -17.5t-9.5 -48.5l-79 14q0 64 28 101.5t79 37.5q20 0 40 -7.5t47 -29.5q21 -16 31 -21t20 -5q37 0 37 66l79 -14q0 -64 -28 -102t-79 -38z" />
    <glyph glyph-name="hungarumlaut" unicode="&#x2dd;" horiz-adv-x="560" 
d="M359 814q26 -3 53.5 -16.5t44.5 -32.5l-120 -169l-58 30zM189 814q26 -4 53 -17t44 -32l-120 -169l-57 30z" />
    <glyph glyph-name="gravecomb" unicode="&#x300;" horiz-adv-x="0" 
d="M-140 746q14 26 38.5 47t54.5 30l118 -180l-53 -44z" />
    <glyph glyph-name="acutecomb" unicode="&#x301;" horiz-adv-x="0" 
d="M48 823q30 -9 54.5 -30t38.5 -47l-158 -147l-53 44z" />
    <glyph glyph-name="uni0302" unicode="&#x302;" horiz-adv-x="0" 
d="M-45 804h90l128 -159l-55 -45l-118 116l-117 -116l-55 45z" />
    <glyph glyph-name="tildecomb" unicode="&#x303;" horiz-adv-x="0" 
d="M74 614q-20 0 -40 8t-47 29q-21 17 -31 22t-20 5q-18 0 -27.5 -17.5t-9.5 -48.5l-79 14q0 64 28 101.5t79 37.5q20 0 40 -7.5t47 -29.5q21 -16 31 -21t20 -5q37 0 37 66l79 -14q0 -64 -28 -102t-79 -38z" />
    <glyph glyph-name="uni0304" unicode="&#x304;" horiz-adv-x="0" 
d="M-146 730h292v-86h-292v86z" />
    <glyph glyph-name="uni0306" unicode="&#x306;" horiz-adv-x="0" 
d="M0 685q82 0 82 86h82q0 -79 -42.5 -121t-121.5 -42q-78 0 -121 42t-43 121h82q0 -86 82 -86z" />
    <glyph glyph-name="uni0307" unicode="&#x307;" horiz-adv-x="0" 
d="M-74 688q0 32 21.5 53t52.5 21q32 0 53 -21t21 -53q0 -31 -21 -52.5t-53 -21.5q-31 0 -52.5 21.5t-21.5 52.5z" />
    <glyph glyph-name="uni0308" unicode="&#x308;" horiz-adv-x="0" 
d="M-169 687q0 30 20 50t48 20q29 0 48.5 -20t19.5 -50q0 -29 -19.5 -49t-48.5 -20q-28 0 -48 20t-20 49zM34 687q0 30 20 50t48 20q29 0 48.5 -20t19.5 -50q0 -29 -19.5 -49t-48.5 -20q-28 0 -48 20t-20 49z" />
    <glyph glyph-name="uni030A" unicode="&#x30a;" horiz-adv-x="0" 
d="M0 604q-51 0 -85 31t-34 79q0 49 34 80t85 31t85 -31t34 -80q0 -48 -34 -79t-85 -31zM0 765q-22 0 -36 -14t-14 -37q0 -22 14 -36t36 -14q23 0 36.5 14t13.5 36q0 23 -13.5 37t-36.5 14z" />
    <glyph glyph-name="uni030B" unicode="&#x30b;" horiz-adv-x="0" 
d="M120 814q26 -3 53.5 -16.5t44.5 -32.5l-120 -169l-58 30zM-50 814q26 -4 53 -17t44 -32l-120 -169l-57 30z" />
    <glyph glyph-name="uni030C" unicode="&#x30c;" horiz-adv-x="0" 
d="M-173 772l55 45l117 -117l118 117l55 -45l-128 -159h-89z" />
    <glyph glyph-name="uni0312" unicode="&#x312;" horiz-adv-x="0" 
d="M14 786h83q-22 -36 -33 -75.5t-13 -95.5h-110q2 45 21.5 90.5t51.5 80.5z" />
    <glyph glyph-name="uni0315" unicode="&#x315;" horiz-adv-x="0" 
d="M-50 760q13 5 26.5 7.5t29.5 2.5q14 0 28 -2.5t28 -7.5l-59 -235h-65z" />
    <glyph glyph-name="dotbelowcomb" unicode="&#x323;" horiz-adv-x="0" 
d="M-74 -133q0 32 21.5 53t52.5 21q32 0 53 -21t21 -53q0 -31 -21 -52.5t-53 -21.5q-31 0 -52.5 21.5t-21.5 52.5z" />
    <glyph glyph-name="uni0326" unicode="&#x326;" horiz-adv-x="0" 
d="M-51 -62h104q-7 -43 -29.5 -86.5t-54.5 -75.5h-80q46 66 60 162z" />
    <glyph glyph-name="uni0327" unicode="&#x327;" horiz-adv-x="0" 
d="M-27 13h77l-19 -71q54 -4 80.5 -29t26.5 -63q0 -49 -39 -76t-111 -27q-25 0 -53 6.5t-42 13.5l9 73q34 -24 81 -24q61 0 61 36q0 35 -63 35q-21 0 -44 -5z" />
    <glyph glyph-name="uni0328" unicode="&#x328;" horiz-adv-x="0" 
d="M27 23l62 -23q-49 -37 -71 -64.5t-22 -53.5q0 -16 10.5 -23.5t26.5 -7.5q25 0 44 16l10 -85q-14 -7 -36.5 -12.5t-43.5 -5.5q-52 0 -81 25t-29 68q0 44 35 88t95 78z" />
    <glyph glyph-name="uni1E24" unicode="&#x1e24;" horiz-adv-x="741" 
d="M90 741h126v-298h309v298h126v-741h-126v341h-309v-341h-126v741zM295 -134q0 32 21.5 53.5t54.5 21.5t54.5 -21.5t21.5 -53.5t-21.5 -53.5t-54.5 -21.5t-54.5 21.5t-21.5 53.5z" />
    <glyph glyph-name="uni1E25" unicode="&#x1e25;" horiz-adv-x="587" 
d="M71 760h120v-291q27 39 68 59t89 20q79 0 128 -52t49 -145v-351h-120v343q0 50 -25 79.5t-70 29.5q-38 0 -70.5 -22t-48.5 -57v-373h-120v760zM224 -133q0 32 21.5 53t52.5 21q32 0 53 -21t21 -53q0 -31 -21 -52.5t-53 -21.5q-31 0 -52.5 21.5t-21.5 52.5z" />
    <glyph glyph-name="uni1E36" unicode="&#x1e36;" horiz-adv-x="538" 
d="M90 741h126v-640h304v-101h-430v741zM229 -134q0 32 21.5 53.5t54.5 21.5t54.5 -21.5t21.5 -53.5t-21.5 -53.5t-54.5 -21.5t-54.5 21.5t-21.5 53.5z" />
    <glyph glyph-name="uni1E37" unicode="&#x1e37;" horiz-adv-x="333" 
d="M70 760h120v-599q0 -41 15 -58.5t48 -17.5q38 0 62 22l-9 -103q-14 -6 -37 -10.5t-49 -4.5q-150 0 -150 155v616zM115 -133q0 32 21.5 53t52.5 21q32 0 53 -21t21 -53q0 -31 -21 -52.5t-53 -21.5q-31 0 -52.5 21.5t-21.5 52.5z" />
    <glyph glyph-name="Wgrave" unicode="&#x1e80;" horiz-adv-x="1040" 
d="M520 547l-158 -547h-105q-58 185 -114 370.5t-109 370.5h130q72 -272 149 -543l151 523h115l152 -525q38 137 77 273t75 272h123q-105 -370 -222 -741h-106zM368 926q14 28 36 51.5t50 33.5l134 -163l-51 -50z" />
    <glyph glyph-name="wgrave" unicode="&#x1e81;" horiz-adv-x="791" 
d="M396 373l-116 -373h-84q-46 134 -88.5 268t-83.5 267h118q24 -89 49.5 -178t52.5 -177l106 341h95l106 -346q28 90 54 180t50 180h113q-40 -133 -83 -267t-89 -268h-85zM256 746q14 26 38.5 47t54.5 30l118 -180l-53 -44z" />
    <glyph glyph-name="Wacute" unicode="&#x1e82;" horiz-adv-x="1040" 
d="M520 547l-158 -547h-105q-58 185 -114 370.5t-109 370.5h130q72 -272 149 -543l151 523h115l152 -525q38 137 77 273t75 272h123q-105 -370 -222 -741h-106zM586 1011q28 -10 50.5 -33.5t35.5 -51.5l-169 -128l-50 50z" />
    <glyph glyph-name="wacute" unicode="&#x1e83;" horiz-adv-x="791" 
d="M396 373l-116 -373h-84q-46 134 -88.5 268t-83.5 267h118q24 -89 49.5 -178t52.5 -177l106 341h95l106 -346q28 90 54 180t50 180h113q-40 -133 -83 -267t-89 -268h-85zM444 823q30 -9 54.5 -30t38.5 -47l-158 -147l-53 44z" />
    <glyph glyph-name="Wdieresis" unicode="&#x1e84;" horiz-adv-x="1040" 
d="M520 547l-158 -547h-105q-58 185 -114 370.5t-109 370.5h130q72 -272 149 -543l151 523h115l152 -525q38 137 77 273t75 272h123q-105 -370 -222 -741h-106zM342 879q0 31 20 51.5t50 20.5q29 0 49 -20.5t20 -51.5q0 -30 -20 -50.5t-49 -20.5q-30 0 -50 20.5t-20 50.5z
M560 879q0 31 20 51.5t50 20.5q29 0 49 -20.5t20 -51.5q0 -30 -20 -50.5t-49 -20.5q-30 0 -50 20.5t-20 50.5z" />
    <glyph glyph-name="wdieresis" unicode="&#x1e85;" horiz-adv-x="791" 
d="M396 373l-116 -373h-84q-46 134 -88.5 268t-83.5 267h118q24 -89 49.5 -178t52.5 -177l106 341h95l106 -346q28 90 54 180t50 180h113q-40 -133 -83 -267t-89 -268h-85zM227 687q0 30 20 50t48 20q29 0 48.5 -20t19.5 -50q0 -29 -19.5 -49t-48.5 -20q-28 0 -48 20t-20 49
zM430 687q0 30 20 50t48 20q29 0 48.5 -20t19.5 -50q0 -29 -19.5 -49t-48.5 -20q-28 0 -48 20t-20 49z" />
    <glyph glyph-name="uni1E9E" unicode="&#x1e9e;" horiz-adv-x="757" 
d="M81 480q0 133 82 203.5t227 70.5q74 0 144.5 -17.5t128.5 -49.5v-3l-156 -251q75 -31 119.5 -63t64 -71t19.5 -90q0 -68 -34 -118t-92.5 -77t-133.5 -27q-48 0 -98 12t-91 34l12 118q83 -63 175 -63q63 0 98.5 30t35.5 79q0 36 -18.5 63t-69.5 54.5t-148 61.5v3l155 253
q-30 12 -56 16.5t-59 4.5q-86 0 -132.5 -46.5t-46.5 -141.5v-465h-126v480z" />
    <glyph glyph-name="Ygrave" unicode="&#x1ef2;" horiz-adv-x="680" 
d="M405 297v-297h-126v298l-254 443h139l182 -338l177 338h132zM190 926q14 28 36 51.5t50 33.5l134 -163l-51 -50z" />
    <glyph glyph-name="ygrave" unicode="&#x1ef3;" horiz-adv-x="558" 
d="M330 -2q-34 -83 -69 -133t-77.5 -72.5t-100.5 -22.5q-30 0 -52.5 5t-41.5 13l10 100q17 -10 35.5 -16t40.5 -6q47 0 79.5 31t58.5 101l8 21q-53 129 -104.5 258t-100.5 258h125q34 -97 69 -193t72 -193q37 97 71.5 193.5t67.5 192.5h120q-50 -133 -102.5 -266.5
t-108.5 -270.5zM139 746q14 26 38.5 47t54.5 30l118 -180l-53 -44z" />
    <glyph glyph-name="uni2000" unicode="&#x2000;" horiz-adv-x="500" 
 />
    <glyph glyph-name="uni2001" unicode="&#x2001;" horiz-adv-x="1000" 
 />
    <glyph glyph-name="uni2002" unicode="&#x2002;" horiz-adv-x="500" 
 />
    <glyph glyph-name="uni2003" unicode="&#x2003;" horiz-adv-x="1000" 
 />
    <glyph glyph-name="uni2004" unicode="&#x2004;" horiz-adv-x="333" 
 />
    <glyph glyph-name="uni2005" unicode="&#x2005;" horiz-adv-x="250" 
 />
    <glyph glyph-name="uni2006" unicode="&#x2006;" horiz-adv-x="167" 
 />
    <glyph glyph-name="uni2007" unicode="&#x2007;" 
 />
    <glyph glyph-name="uni2008" unicode="&#x2008;" horiz-adv-x="278" 
 />
    <glyph glyph-name="uni2009" unicode="&#x2009;" horiz-adv-x="200" 
 />
    <glyph glyph-name="uni200A" unicode="&#x200a;" horiz-adv-x="62" 
 />
    <glyph glyph-name="uni200B" unicode="&#x200b;" horiz-adv-x="0" 
 />
    <glyph glyph-name="uni2010" unicode="&#x2010;" horiz-adv-x="322" 
d="M22 332h278v-106h-278v106z" />
    <glyph glyph-name="uni2011" unicode="&#x2011;" horiz-adv-x="322" 
d="M22 332h278v-106h-278v106z" />
    <glyph glyph-name="figuredash" unicode="&#x2012;" 
d="M25 323h600v-97h-600v97z" />
    <glyph glyph-name="endash" unicode="&#x2013;" horiz-adv-x="500" 
d="M0 323h500v-97h-500v97z" />
    <glyph glyph-name="emdash" unicode="&#x2014;" horiz-adv-x="1000" 
d="M0 323h1000v-97h-1000v97z" />
    <glyph glyph-name="uni2015" unicode="&#x2015;" horiz-adv-x="1000" 
d="M0 323h1000v-97h-1000v97z" />
    <glyph glyph-name="quoteleft" unicode="&#x2018;" horiz-adv-x="240" 
d="M134 760h67q-50 -81 -65 -157q26 -6 44 -27t18 -51q0 -34 -22 -57.5t-55 -23.5q-34 0 -55.5 26t-21.5 70q1 53 25.5 113.5t64.5 106.5z" />
    <glyph glyph-name="quoteright" unicode="&#x2019;" horiz-adv-x="240" 
d="M106 444h-67q50 79 65 157q-25 5 -43 26.5t-18 51.5q0 35 21.5 58t54.5 23q35 0 56 -25.5t21 -69.5q-1 -53 -25 -113.5t-65 -107.5z" />
    <glyph glyph-name="quotesinglbase" unicode="&#x201a;" horiz-adv-x="240" 
d="M106 -167h-67q50 79 65 157q-25 5 -43 26.5t-18 51.5q0 35 21.5 58t54.5 23q35 0 56 -25.5t21 -69.5q-1 -53 -25 -113.5t-65 -107.5z" />
    <glyph glyph-name="quotedblleft" unicode="&#x201c;" horiz-adv-x="433" 
d="M134 760h67q-50 -81 -65 -157q26 -6 44 -27t18 -51q0 -34 -22 -57.5t-55 -23.5q-34 0 -55.5 26t-21.5 70q1 53 25.5 113.5t64.5 106.5zM327 760h67q-50 -81 -65 -157q26 -6 44 -27t18 -51q0 -34 -22 -57.5t-55 -23.5q-34 0 -55.5 26t-21.5 70q1 53 25.5 113.5t64.5 106.5
z" />
    <glyph glyph-name="quotedblright" unicode="&#x201d;" horiz-adv-x="433" 
d="M106 444h-67q50 79 65 157q-25 5 -43 26.5t-18 51.5q0 35 21.5 58t54.5 23q35 0 56 -25.5t21 -69.5q-1 -53 -25 -113.5t-65 -107.5zM299 444h-67q50 79 65 157q-25 5 -43 26.5t-18 51.5q0 35 21.5 58t54.5 23q35 0 56 -25.5t21 -69.5q-1 -53 -25 -113.5t-65 -107.5z" />
    <glyph glyph-name="quotedblbase" unicode="&#x201e;" horiz-adv-x="433" 
d="M106 -167h-67q50 79 65 157q-25 5 -43 26.5t-18 51.5q0 35 21.5 58t54.5 23q35 0 56 -25.5t21 -69.5q-1 -53 -25 -113.5t-65 -107.5zM299 -167h-67q50 79 65 157q-25 5 -43 26.5t-18 51.5q0 35 21.5 58t54.5 23q35 0 56 -25.5t21 -69.5q-1 -53 -25 -113.5t-65 -107.5z
" />
    <glyph glyph-name="dagger" unicode="&#x2020;" horiz-adv-x="503" 
d="M196 442h-171v103h171v215h114v-215h168v-103h-168v-550h-114v550z" />
    <glyph glyph-name="daggerdbl" unicode="&#x2021;" horiz-adv-x="503" 
d="M196 442h-171v103h171v215h114v-215h168v-103h-168v-232h168v-102h-168v-216h-114v216h-171v102h171v232z" />
    <glyph glyph-name="bullet" unicode="&#x2022;" horiz-adv-x="385" 
d="M192 141q-55 0 -92.5 37.5t-37.5 92.5q0 56 37.5 93.5t92.5 37.5q56 0 93.5 -37.5t37.5 -93.5q0 -55 -37.5 -92.5t-93.5 -37.5z" />
    <glyph glyph-name="ellipsis" unicode="&#x2026;" horiz-adv-x="1000" 
d="M88 68q0 35 22 58t56 23t56 -23t22 -58q0 -34 -22 -57.5t-56 -23.5t-56 23.5t-22 57.5zM422 68q0 35 22 58t56 23t56 -23t22 -58q0 -34 -22 -57.5t-56 -23.5t-56 23.5t-22 57.5zM756 68q0 35 22 58t56 23t56 -23t22 -58q0 -34 -22 -57.5t-56 -23.5t-56 23.5t-22 57.5z
" />
    <glyph glyph-name="perthousand" unicode="&#x2030;" horiz-adv-x="1287" 
d="M23 560q0 54 21 98t61 70t97 26q56 0 95.5 -26t60.5 -70t21 -98t-21 -98t-60.5 -70.5t-95.5 -26.5q-57 0 -97 26.5t-61 70.5t-21 98zM279 560q0 51 -19.5 82.5t-57.5 31.5q-40 0 -59.5 -31.5t-19.5 -82.5t19.5 -83t59.5 -32q38 0 57.5 32t19.5 83zM640 741h110l-503 -741
h-110zM507 182q0 54 21 98t61 70t97 26q56 0 95.5 -26t60.5 -70t21 -98t-21 -98t-60.5 -70.5t-95.5 -26.5q-57 0 -97 26.5t-61 70.5t-21 98zM763 182q0 51 -19.5 82.5t-57.5 31.5q-40 0 -59.5 -31.5t-19.5 -82.5t19.5 -83t59.5 -32q38 0 57.5 32t19.5 83zM909 182
q0 54 21 98t61 70t97 26q56 0 95.5 -26t60.5 -70t21 -98t-21 -98t-60.5 -70.5t-95.5 -26.5q-57 0 -97 26.5t-61 70.5t-21 98zM1165 182q0 51 -19.5 82.5t-57.5 31.5q-40 0 -59.5 -31.5t-19.5 -82.5t19.5 -83t59.5 -32q38 0 57.5 32t19.5 83z" />
    <glyph glyph-name="minute" unicode="&#x2032;" horiz-adv-x="286" 
d="M102 744q34 16 68 16q32 0 58 -16l-100 -266h-70z" />
    <glyph glyph-name="second" unicode="&#x2033;" horiz-adv-x="469" 
d="M102 744q34 16 68 16q32 0 58 -16l-100 -266h-70zM285 744q34 16 68 16q32 0 58 -16l-100 -266h-70z" />
    <glyph glyph-name="guilsinglleft" unicode="&#x2039;" horiz-adv-x="373" 
d="M201 493h122l-151 -221l151 -219h-122l-158 219z" />
    <glyph glyph-name="guilsinglright" unicode="&#x203a;" horiz-adv-x="373" 
d="M50 493h123l158 -221l-158 -219h-123l151 219z" />
    <glyph glyph-name="fraction" unicode="&#x2044;" horiz-adv-x="83" 
d="M238 741h110l-503 -741h-110z" />
    <glyph glyph-name="uni2070" unicode="&#x2070;" horiz-adv-x="458" 
d="M60 658q0 100 42 151.5t127 51.5q86 0 127.5 -51.5t41.5 -151.5q0 -98 -43 -150t-126 -52t-126 52.5t-43 149.5zM229 789q-38 0 -56 -31.5t-18 -99.5q0 -130 74 -130t74 130q0 68 -18 99.5t-56 31.5z" />
    <glyph glyph-name="uni2074" unicode="&#x2074;" horiz-adv-x="446" 
d="M253 852h96v-240h68l-7 -69h-61v-79h-89v79h-236v58zM120 612h140v154z" />
    <glyph glyph-name="uni2075" unicode="&#x2075;" horiz-adv-x="406" 
d="M95 852h242l-8 -72h-161l-9 -67q18 3 39 3q71 0 111.5 -34.5t40.5 -90.5q0 -61 -49.5 -98t-129.5 -37q-68 0 -125 27l7 74q24 -13 51.5 -21t56.5 -8q42 0 68 17t26 48q0 29 -24.5 47t-74.5 18q-19 0 -42 -3t-43 -8z" />
    <glyph glyph-name="uni2076" unicode="&#x2076;" horiz-adv-x="441" 
d="M362 841l-13 -71q-22 11 -41.5 15.5t-37.5 4.5q-56 0 -83 -28.5t-34 -79.5q35 42 100 42q60 0 99 -34.5t39 -93.5q0 -62 -45 -101t-117 -39q-79 0 -124 49t-45 137q0 110 56 164.5t150 54.5q26 0 51 -4.5t45 -15.5zM153 613q3 -38 22 -62t54 -24q30 0 49 18.5t19 47.5
q0 31 -19 49.5t-50 18.5q-26 0 -46.5 -13t-28.5 -35z" />
    <glyph glyph-name="uni2077" unicode="&#x2077;" horiz-adv-x="397" 
d="M267 780h-222l7 72h312l-7 -69q-46 -66 -77 -116.5t-50.5 -97.5t-31.5 -105h-99q14 55 35.5 104t54 100t78.5 112z" />
    <glyph glyph-name="uni2078" unicode="&#x2078;" horiz-adv-x="445" 
d="M221 861q68 0 109 -28.5t41 -69.5q0 -58 -80 -92q47 -16 73 -39.5t26 -61.5q0 -49 -47 -81.5t-122 -32.5t-120.5 31t-45.5 80q0 36 24.5 61t70.5 40q-77 28 -77 91q0 43 41.5 72.5t106.5 29.5zM168.5 538q21.5 -14 52.5 -14q33 0 54.5 14.5t21.5 38.5q0 21 -19 36t-63 24
q-31 -9 -49.5 -24t-18.5 -37q0 -24 21.5 -38zM157 753q0 -41 73 -56q57 15 57 56q0 20 -17.5 32.5t-46.5 12.5t-47.5 -12.5t-18.5 -32.5z" />
    <glyph glyph-name="uni2079" unicode="&#x2079;" horiz-adv-x="441" 
d="M72 478l9 76q22 -14 45.5 -20.5t45.5 -6.5q55 0 81 29.5t33 80.5q-16 -19 -42 -29t-57 -10q-59 0 -98 34t-39 91q0 61 45.5 99.5t116.5 38.5q79 0 124 -51t45 -139q0 -104 -56.5 -159.5t-149.5 -55.5q-60 0 -103 22zM288 708q-3 36 -22 59t-53 23q-31 0 -50 -17.5
t-19 -47.5q0 -27 19.5 -45.5t50.5 -18.5q25 0 46 13t28 34z" />
    <glyph glyph-name="uni2080" unicode="&#x2080;" horiz-adv-x="458" 
d="M60 84q0 100 42 151.5t127 51.5q86 0 127.5 -51.5t41.5 -151.5q0 -98 -43 -150t-126 -52t-126 52.5t-43 149.5zM229 215q-38 0 -56 -31.5t-18 -99.5q0 -130 74 -130t74 130q0 68 -18 99.5t-56 31.5z" />
    <glyph glyph-name="uni2081" unicode="&#x2081;" horiz-adv-x="413" 
d="M264 -34h89v-76h-280v76h101v219l-93 -43l-7 75l126 61h64v-312z" />
    <glyph glyph-name="uni2082" unicode="&#x2082;" horiz-adv-x="414" 
d="M187 84q36 23 51.5 43t15.5 39q0 23 -19 36.5t-51 13.5q-62 0 -117 -46l-5 81q31 18 66 27t71 9q69 0 109 -32.5t40 -85.5q0 -39 -23 -68.5t-69 -58.5q-35 -22 -55.5 -40t-31.5 -40h192l-8 -72h-299q0 59 32.5 105t100.5 89z" />
    <glyph glyph-name="uni2083" unicode="&#x2083;" horiz-adv-x="402" 
d="M230 207h-175l6 71h275l-6 -58l-107 -95q59 -4 91.5 -34t32.5 -77q0 -58 -49.5 -95t-130.5 -37q-32 0 -64.5 7t-60.5 20l7 75q52 -29 112 -29q41 0 66 17t25 46q0 28 -23 42t-59 14q-13 0 -24.5 -2t-19.5 -4v41z" />
    <glyph glyph-name="uni2084" unicode="&#x2084;" horiz-adv-x="446" 
d="M253 278h96v-240h68l-7 -69h-61v-79h-89v79h-236v58zM120 38h140v154z" />
    <glyph glyph-name="uni2085" unicode="&#x2085;" horiz-adv-x="406" 
d="M95 278h242l-8 -72h-161l-9 -67q18 3 39 3q71 0 111.5 -34.5t40.5 -90.5q0 -61 -49.5 -98t-129.5 -37q-68 0 -125 27l7 74q24 -13 51.5 -21t56.5 -8q42 0 68 17t26 48q0 29 -24.5 47t-74.5 18q-19 0 -42 -3t-43 -8z" />
    <glyph glyph-name="uni2086" unicode="&#x2086;" horiz-adv-x="441" 
d="M362 267l-13 -71q-22 11 -41.5 15.5t-37.5 4.5q-56 0 -83 -28.5t-34 -79.5q35 42 100 42q60 0 99 -34.5t39 -93.5q0 -62 -45 -101t-117 -39q-79 0 -124 49t-45 137q0 110 56 164.5t150 54.5q26 0 51 -4.5t45 -15.5zM153 39q3 -38 22 -62t54 -24q30 0 49 18.5t19 47.5
q0 31 -19 49.5t-50 18.5q-26 0 -46.5 -13t-28.5 -35z" />
    <glyph glyph-name="uni2087" unicode="&#x2087;" horiz-adv-x="397" 
d="M267 206h-222l7 72h312l-7 -69q-46 -66 -77 -116.5t-50.5 -97.5t-31.5 -105h-99q14 55 35.5 104t54 100t78.5 112z" />
    <glyph glyph-name="uni2088" unicode="&#x2088;" horiz-adv-x="445" 
d="M221 287q68 0 109 -28.5t41 -69.5q0 -58 -80 -92q47 -16 73 -39.5t26 -61.5q0 -49 -47 -81.5t-122 -32.5t-120.5 31t-45.5 80q0 36 24.5 61t70.5 40q-77 28 -77 91q0 43 41.5 72.5t106.5 29.5zM168.5 -36q21.5 -14 52.5 -14q33 0 54.5 14.5t21.5 38.5q0 21 -19 36t-63 24
q-31 -9 -49.5 -24t-18.5 -37q0 -24 21.5 -38zM157 179q0 -41 73 -56q57 15 57 56q0 20 -17.5 32.5t-46.5 12.5t-47.5 -12.5t-18.5 -32.5z" />
    <glyph glyph-name="uni2089" unicode="&#x2089;" horiz-adv-x="441" 
d="M72 -96l9 76q22 -14 45.5 -20.5t45.5 -6.5q55 0 81 29.5t33 80.5q-16 -19 -42 -29t-57 -10q-59 0 -98 34t-39 91q0 61 45.5 99.5t116.5 38.5q79 0 124 -51t45 -139q0 -104 -56.5 -159.5t-149.5 -55.5q-60 0 -103 22zM288 134q-3 36 -22 59t-53 23q-31 0 -50 -17.5
t-19 -47.5q0 -27 19.5 -45.5t50.5 -18.5q25 0 46 13t28 34z" />
    <glyph glyph-name="Euro" unicode="&#x20ac;" 
d="M95 245h-77v88h66q-1 18 -1 36q0 23 2 45h-67v88h80q30 118 111 185t200 67q56 0 106 -13.5t90 -38.5l-31 -104q-40 31 -78 43t-78 12q-73 0 -121 -40t-70 -111h318l-26 -88h-308q-2 -20 -2 -42q0 -20 1 -39h285l-25 -88h-245q21 -76 71.5 -117t125.5 -41q48 0 93 15.5
t76 44.5l13 -114q-34 -22 -87.5 -34t-109.5 -12q-125 0 -205 68t-107 190z" />
    <glyph glyph-name="uni20B9" unicode="&#x20b9;" 
d="M81 302v85h124q130 0 156 88h-280v87h280q-27 87 -156 87h-124v92h517l-26 -87h-143q49 -36 63 -92h106l-26 -87h-79q-14 -78 -81 -124t-172 -50l299 -301h-155z" />
    <glyph glyph-name="uni20BA" unicode="&#x20ba;" 
d="M133 259l-94 -46v94l94 46v82l-94 -46v94l94 46v212h126v-150l137 67v-95l-137 -67v-82l137 67v-93l-137 -67v-220h16q72 0 115 23.5t65.5 69.5t30.5 113l122 -16q-12 -87 -50.5 -152.5t-107 -102t-171.5 -36.5h-146v259z" />
    <glyph glyph-name="uni20BD" unicode="&#x20bd;" 
d="M113 741h190q133 0 212 -56t79 -165t-78.5 -164.5t-212.5 -55.5h-66v-82h210l-28 -94h-182v-124h-124v124h-90v94h90v82h-90v93h90v348zM303 393q77 0 118.5 32t41.5 95q0 62 -41.5 94t-118.5 32h-66v-253h66z" />
    <glyph glyph-name="trademark" unicode="&#x2122;" horiz-adv-x="786" 
d="M356 741h93l109 -231l110 231h89l10 -376h-82l-6 236l-96 -200h-56l-91 196l-4 -232h-84zM208 365h-90v303h-100v73h289v-73h-99v-303z" />
    <glyph glyph-name="uni2150" unicode="&#x2150;" horiz-adv-x="892" 
d="M264 430h89v-76h-280v76h101v219l-93 -43l-7 75l126 61h64v-312zM647 741h110l-503 -741h-110zM762 316h-222l7 72h312l-7 -69q-46 -66 -77 -116.5t-50.5 -97.5t-31.5 -105h-99q14 55 35.5 104t54 100t78.5 112z" />
    <glyph glyph-name="uni2151" unicode="&#x2151;" horiz-adv-x="936" 
d="M264 430h89v-76h-280v76h101v219l-93 -43l-7 75l126 61h64v-312zM663 741h110l-503 -741h-110zM567 14l9 76q22 -14 45.5 -20.5t45.5 -6.5q55 0 81 29.5t33 80.5q-16 -19 -42 -29t-57 -10q-59 0 -98 34t-39 91q0 61 45.5 99.5t116.5 38.5q79 0 124 -51t45 -139
q0 -104 -56.5 -159.5t-149.5 -55.5q-60 0 -103 22zM783 244q-3 36 -22 59t-53 23q-31 0 -50 -17.5t-19 -47.5q0 -27 19.5 -45.5t50.5 -18.5q25 0 46 13t28 34z" />
    <glyph glyph-name="uni2153" unicode="&#x2153;" horiz-adv-x="897" 
d="M264 430h89v-76h-280v76h101v219l-93 -43l-7 75l126 61h64v-312zM651 741h110l-503 -741h-110zM725 317h-175l6 71h275l-6 -58l-107 -95q59 -4 91.5 -34t32.5 -77q0 -58 -49.5 -95t-130.5 -37q-32 0 -64.5 7t-60.5 20l7 75q52 -29 112 -29q41 0 66 17t25 46q0 28 -23 42
t-59 14q-13 0 -24.5 -2t-19.5 -4v41z" />
    <glyph glyph-name="uni2154" unicode="&#x2154;" horiz-adv-x="899" 
d="M187 548q36 23 51.5 43t15.5 39q0 23 -19 36.5t-51 13.5q-62 0 -117 -46l-5 81q31 18 66 27t71 9q69 0 109 -32.5t40 -85.5q0 -39 -23 -68.5t-69 -58.5q-35 -22 -55.5 -40t-31.5 -40h192l-8 -72h-299q0 59 32.5 105t100.5 89zM652 741h110l-503 -741h-110zM727 317h-175
l6 71h275l-6 -58l-107 -95q59 -4 91.5 -34t32.5 -77q0 -58 -49.5 -95t-130.5 -37q-32 0 -64.5 7t-60.5 20l7 75q52 -29 112 -29q41 0 66 17t25 46q0 28 -23 42t-59 14q-13 0 -24.5 -2t-19.5 -4v41z" />
    <glyph glyph-name="uni2155" unicode="&#x2155;" horiz-adv-x="901" 
d="M264 430h89v-76h-280v76h101v219l-93 -43l-7 75l126 61h64v-312zM660 741h110l-503 -741h-110zM590 388h242l-8 -72h-161l-9 -67q18 3 39 3q71 0 111.5 -34.5t40.5 -90.5q0 -61 -49.5 -98t-129.5 -37q-68 0 -125 27l7 74q24 -13 51.5 -21t56.5 -8q42 0 68 17t26 48
q0 29 -24.5 47t-74.5 18q-19 0 -42 -3t-43 -8z" />
    <glyph glyph-name="uni2156" unicode="&#x2156;" horiz-adv-x="902" 
d="M187 548q36 23 51.5 43t15.5 39q0 23 -19 36.5t-51 13.5q-62 0 -117 -46l-5 81q31 18 66 27t71 9q69 0 109 -32.5t40 -85.5q0 -39 -23 -68.5t-69 -58.5q-35 -22 -55.5 -40t-31.5 -40h192l-8 -72h-299q0 59 32.5 105t100.5 89zM662 741h110l-503 -741h-110zM592 388h242
l-8 -72h-161l-9 -67q18 3 39 3q71 0 111.5 -34.5t40.5 -90.5q0 -61 -49.5 -98t-129.5 -37q-68 0 -125 27l7 74q24 -13 51.5 -21t56.5 -8q42 0 68 17t26 48q0 29 -24.5 47t-74.5 18q-19 0 -42 -3t-43 -8z" />
    <glyph glyph-name="uni2157" unicode="&#x2157;" horiz-adv-x="890" 
d="M230 671h-175l6 71h275l-6 -58l-107 -95q59 -4 91.5 -34t32.5 -77q0 -58 -49.5 -95t-130.5 -37q-32 0 -64.5 7t-60.5 20l7 75q52 -29 112 -29q41 0 66 17t25 46q0 28 -23 42t-59 14q-13 0 -24.5 -2t-19.5 -4v41zM629 741h110l-503 -741h-110zM580 388h242l-8 -72h-161
l-9 -67q18 3 39 3q71 0 111.5 -34.5t40.5 -90.5q0 -61 -49.5 -98t-129.5 -37q-68 0 -125 27l7 74q24 -13 51.5 -21t56.5 -8q42 0 68 17t26 48q0 29 -24.5 47t-74.5 18q-19 0 -42 -3t-43 -8z" />
    <glyph glyph-name="uni2158" unicode="&#x2158;" horiz-adv-x="934" 
d="M253 742h96v-240h68l-7 -69h-61v-79h-89v79h-236v58zM120 502h140v154zM684 741h110l-503 -741h-110zM623 388h242l-8 -72h-161l-9 -67q18 3 39 3q71 0 111.5 -34.5t40.5 -90.5q0 -61 -49.5 -98t-129.5 -37q-68 0 -125 27l7 74q24 -13 51.5 -21t56.5 -8q42 0 68 17t26 48
q0 29 -24.5 47t-74.5 18q-19 0 -42 -3t-43 -8z" />
    <glyph glyph-name="uni2159" unicode="&#x2159;" horiz-adv-x="928" 
d="M264 430h89v-76h-280v76h101v219l-93 -43l-7 75l126 61h64v-312zM666 741h110l-503 -741h-110zM850 377l-13 -71q-22 11 -41.5 15.5t-37.5 4.5q-56 0 -83 -28.5t-34 -79.5q35 42 100 42q60 0 99 -34.5t39 -93.5q0 -62 -45 -101t-117 -39q-79 0 -124 49t-45 137
q0 110 56 164.5t150 54.5q26 0 51 -4.5t45 -15.5zM641 149q3 -38 22 -62t54 -24q30 0 49 18.5t19 47.5q0 31 -19 49.5t-50 18.5q-26 0 -46.5 -13t-28.5 -35z" />
    <glyph glyph-name="uni215A" unicode="&#x215a;" horiz-adv-x="921" 
d="M95 742h242l-8 -72h-161l-9 -67q18 3 39 3q71 0 111.5 -34.5t40.5 -90.5q0 -61 -49.5 -98t-129.5 -37q-68 0 -125 27l7 74q24 -13 51.5 -21t56.5 -8q42 0 68 17t26 48q0 29 -24.5 47t-74.5 18q-19 0 -42 -3t-43 -8zM649 741h110l-503 -741h-110zM843 377l-13 -71
q-22 11 -41.5 15.5t-37.5 4.5q-56 0 -83 -28.5t-34 -79.5q35 42 100 42q60 0 99 -34.5t39 -93.5q0 -62 -45 -101t-117 -39q-79 0 -124 49t-45 137q0 110 56 164.5t150 54.5q26 0 51 -4.5t45 -15.5zM634 149q3 -38 22 -62t54 -24q30 0 49 18.5t19 47.5q0 31 -19 49.5
t-50 18.5q-26 0 -46.5 -13t-28.5 -35z" />
    <glyph glyph-name="oneeighth" unicode="&#x215b;" horiz-adv-x="940" 
d="M264 430h89v-76h-280v76h101v219l-93 -43l-7 75l126 61h64v-312zM669 741h110l-503 -741h-110zM716 397q68 0 109 -28.5t41 -69.5q0 -58 -80 -92q47 -16 73 -39.5t26 -61.5q0 -49 -47 -81.5t-122 -32.5t-120.5 31t-45.5 80q0 36 24.5 61t70.5 40q-77 28 -77 91
q0 43 41.5 72.5t106.5 29.5zM663.5 74q21.5 -14 52.5 -14q33 0 54.5 14.5t21.5 38.5q0 21 -19 36t-63 24q-31 -9 -49.5 -24t-18.5 -37q0 -24 21.5 -38zM652 289q0 -41 73 -56q57 15 57 56q0 20 -17.5 32.5t-46.5 12.5t-47.5 -12.5t-18.5 -32.5z" />
    <glyph glyph-name="threeeighths" unicode="&#x215c;" horiz-adv-x="929" 
d="M230 671h-175l6 71h275l-6 -58l-107 -95q59 -4 91.5 -34t32.5 -77q0 -58 -49.5 -95t-130.5 -37q-32 0 -64.5 7t-60.5 20l7 75q52 -29 112 -29q41 0 66 17t25 46q0 28 -23 42t-59 14q-13 0 -24.5 -2t-19.5 -4v41zM640 741h110l-503 -741h-110zM706 397q68 0 109 -28.5
t41 -69.5q0 -58 -80 -92q47 -16 73 -39.5t26 -61.5q0 -49 -47 -81.5t-122 -32.5t-120.5 31t-45.5 80q0 36 24.5 61t70.5 40q-77 28 -77 91q0 43 41.5 72.5t106.5 29.5zM653.5 74q21.5 -14 52.5 -14q33 0 54.5 14.5t21.5 38.5q0 21 -19 36t-63 24q-31 -9 -49.5 -24t-18.5 -37
q0 -24 21.5 -38zM642 289q0 -41 73 -56q57 15 57 56q0 20 -17.5 32.5t-46.5 12.5t-47.5 -12.5t-18.5 -32.5z" />
    <glyph glyph-name="fiveeighths" unicode="&#x215d;" horiz-adv-x="933" 
d="M95 742h242l-8 -72h-161l-9 -67q18 3 39 3q71 0 111.5 -34.5t40.5 -90.5q0 -61 -49.5 -98t-129.5 -37q-68 0 -125 27l7 74q24 -13 51.5 -21t56.5 -8q42 0 68 17t26 48q0 29 -24.5 47t-74.5 18q-19 0 -42 -3t-43 -8zM644 741h110l-503 -741h-110zM709 397q68 0 109 -28.5
t41 -69.5q0 -58 -80 -92q47 -16 73 -39.5t26 -61.5q0 -49 -47 -81.5t-122 -32.5t-120.5 31t-45.5 80q0 36 24.5 61t70.5 40q-77 28 -77 91q0 43 41.5 72.5t106.5 29.5zM656.5 74q21.5 -14 52.5 -14q33 0 54.5 14.5t21.5 38.5q0 21 -19 36t-63 24q-31 -9 -49.5 -24t-18.5 -37
q0 -24 21.5 -38zM645 289q0 -41 73 -56q57 15 57 56q0 20 -17.5 32.5t-46.5 12.5t-47.5 -12.5t-18.5 -32.5z" />
    <glyph glyph-name="seveneighths" unicode="&#x215e;" horiz-adv-x="881" 
d="M267 670h-222l7 72h312l-7 -69q-46 -66 -77 -116.5t-50.5 -97.5t-31.5 -105h-99q14 55 35.5 104t54 100t78.5 112zM592 741h110l-503 -741h-110zM658 397q68 0 109 -28.5t41 -69.5q0 -58 -80 -92q47 -16 73 -39.5t26 -61.5q0 -49 -47 -81.5t-122 -32.5t-120.5 31
t-45.5 80q0 36 24.5 61t70.5 40q-77 28 -77 91q0 43 41.5 72.5t106.5 29.5zM605.5 74q21.5 -14 52.5 -14q33 0 54.5 14.5t21.5 38.5q0 21 -19 36t-63 24q-31 -9 -49.5 -24t-18.5 -37q0 -24 21.5 -38zM594 289q0 -41 73 -56q57 15 57 56q0 20 -17.5 32.5t-46.5 12.5
t-47.5 -12.5t-18.5 -32.5z" />
    <glyph glyph-name="arrowleft" unicode="&#x2190;" horiz-adv-x="915" 
d="M80 370l341 313l47 -52l-260 -229l627 4v-72l-627 4l260 -229l-47 -52z" />
    <glyph glyph-name="arrowup" unicode="&#x2191;" horiz-adv-x="786" 
d="M431 -8h-76l4 627l-227 -260l-52 47l313 342l313 -342l-52 -47l-227 260z" />
    <glyph glyph-name="arrowright" unicode="&#x2192;" horiz-adv-x="915" 
d="M835 370l-341 -313l-47 52l260 229l-627 -4v72l627 -4l-260 229l47 52z" />
    <glyph glyph-name="arrowdown" unicode="&#x2193;" horiz-adv-x="786" 
d="M355 748h76l-4 -627l227 260l52 -47l-313 -342l-313 342l52 47l227 -260z" />
    <glyph glyph-name="partialdiff" unicode="&#x2202;" 
d="M490 114q-42 -61 -100.5 -94.5t-129.5 -33.5q-91 0 -145 58t-54 161q0 65 19.5 124t55 105.5t83 73.5t103.5 27q78 0 134 -53q-6 83 -42 130.5t-113 79.5l51 84q83 -33 132.5 -78.5t71.5 -108.5t22 -152q0 -97 -23 -179.5t-65 -143.5zM355.5 122q41.5 41 68.5 110.5
t33 157.5q-45 52 -106 52q-46 0 -84.5 -32t-61.5 -85.5t-23 -119.5q0 -61 21.5 -92.5t61.5 -31.5q49 0 90.5 41z" />
    <glyph glyph-name="uni2206" unicode="&#x2206;" horiz-adv-x="738" 
d="M297 741h143l247 -645v-96h-637v96zM366 635l-192 -532h385z" />
    <glyph glyph-name="product" unicode="&#x220f;" horiz-adv-x="700" 
d="M75 741h550v-849h-121v746h-308v-746h-121v849z" />
    <glyph glyph-name="summation" unicode="&#x2211;" 
d="M266 327l-221 331v83h535l-11 -98h-378l204 -313l-211 -340h400v-99h-539v82z" />
    <glyph glyph-name="minus" unicode="&#x2212;" 
d="M80 397h491v-103h-491v103z" />
    <glyph glyph-name="uni2215" unicode="&#x2215;" horiz-adv-x="633" 
d="M513 741h110l-503 -741h-110z" />
    <glyph glyph-name="uni2219" unicode="&#x2219;" horiz-adv-x="278" 
d="M61 370q0 35 22 58t56 23t56 -23t22 -58q0 -34 -22 -57.5t-56 -23.5t-56 23.5t-22 57.5z" />
    <glyph glyph-name="radical" unicode="&#x221a;" horiz-adv-x="663" 
d="M372 0h-125l-122 306h-83v101h169l100 -283l209 617h120z" />
    <glyph glyph-name="infinity" unicode="&#x221e;" horiz-adv-x="700" 
d="M491 181q-45 0 -79 22.5t-57 57.5q-55 -80 -146 -80q-68 0 -112.5 44t-44.5 116q0 50 20.5 88t56 59.5t80.5 21.5q46 0 80 -22.5t57 -58.5q54 81 145 81q68 0 112.5 -44t44.5 -117q0 -49 -20.5 -87t-56 -59.5t-80.5 -21.5zM309 355q-15 31 -39 50.5t-52 19.5
q-29 0 -49 -23t-20 -59q0 -34 19.5 -55.5t47.5 -21.5q30 0 53 23.5t40 65.5zM392 335q15 -31 38.5 -50t52.5 -19t48.5 22.5t19.5 58.5q0 34 -18.5 56t-47.5 22q-30 0 -53.5 -23.5t-39.5 -66.5z" />
    <glyph glyph-name="integral" unicode="&#x222b;" 
d="M265 544q0 112 55.5 170.5t162.5 58.5q26 0 49 -3.5t42 -9.5l-12 -96q-22 14 -65 14q-112 0 -112 -120v-558q0 -112 -55 -171t-162 -59q-54 0 -91 13l11 97q23 -14 65 -14q112 0 112 119v559z" />
    <glyph glyph-name="approxequal" unicode="&#x2248;" 
d="M446 368q-36 0 -65 11.5t-74 43.5q-30 22 -47 33t-27 15t-21 4q-28 0 -41.5 -23.5t-20.5 -83.5l-104 25q8 89 51 143t106 54q36 0 64.5 -12t73.5 -44q30 -22 47 -33t27.5 -15t20.5 -4q28 0 41.5 23.5t20.5 84.5l104 -26q-8 -88 -51 -142t-105 -54zM447 97q-36 0 -65 11.5
t-74 43.5q-30 22 -47 33t-27 15t-21 4q-28 0 -41.5 -23.5t-20.5 -83.5l-104 25q8 89 51 143t106 54q36 0 64.5 -12t73.5 -44q30 -22 47 -33t27.5 -15t20.5 -4q28 0 41.5 23.5t20.5 84.5l104 -26q-8 -88 -51 -142t-105 -54z" />
    <glyph glyph-name="notequal" unicode="&#x2260;" 
d="M353 265h218v-103h-255l-52 -141l-100 36l38 105h-122v103h160l57 155h-217v103h254l52 141l100 -36l-38 -105h123v-103h-161z" />
    <glyph glyph-name="lessequal" unicode="&#x2264;" 
d="M79 373v87l491 204v-111l-345 -136l345 -137v-111zM80 102h491v-103h-491v103z" />
    <glyph glyph-name="greaterequal" unicode="&#x2265;" 
d="M571 460v-88l-491 -203v111l345 136l-345 136v111zM80 102h491v-103h-491v103z" />
    <glyph glyph-name="midlinehorizontalellipsis" unicode="&#x22ef;" horiz-adv-x="874" 
d="M80 370q0 30 17.5 50.5t45.5 20.5t45.5 -20.5t17.5 -50.5t-17.5 -50.5t-45.5 -20.5t-45.5 20.5t-17.5 50.5zM374 370q0 30 17.5 50.5t45.5 20.5t45.5 -20.5t17.5 -50.5t-17.5 -50.5t-45.5 -20.5t-45.5 20.5t-17.5 50.5zM668 370q0 30 17.5 50.5t45.5 20.5t45.5 -20.5
t17.5 -50.5t-17.5 -50.5t-45.5 -20.5t-45.5 20.5t-17.5 50.5z" />
    <glyph glyph-name="upArrowHead" unicode="&#x2303;" horiz-adv-x="734" 
d="M654 239l-52 -50l-236 259l-234 -259l-52 50l287 313z" />
    <glyph glyph-name="downArrowHead" unicode="&#x2304;" horiz-adv-x="734" 
d="M80 502l52 50l236 -259l234 259l52 -50l-287 -313z" />
    <glyph glyph-name="lozenge" unicode="&#x25ca;" 
d="M47 379l229 377h101l227 -377l-227 -379h-101zM477 378l-152 258l-150 -258l150 -258z" />
    <glyph glyph-name="heavenTrigram" unicode="&#x2630;" horiz-adv-x="656" 
d="M576 150h-496v67h496v-67zM576 337h-496v67h496v-67zM576 524h-496v67h496v-67z" />
    <glyph glyph-name="checkmark" unicode="&#x2713;" horiz-adv-x="703" 
d="M568 611l55 -44l-342 -437l-201 184l49 54l145 -138z" />
    <glyph glyph-name="ballotX" unicode="&#x2717;" horiz-adv-x="618" 
d="M129 141l-49 49l182 180l-182 180l49 49l180 -182l180 182l49 -49l-182 -180l182 -180l-49 -49l-180 182z" />
    <glyph glyph-name="anglebracketleft" unicode="&#x27e8;" horiz-adv-x="510" 
d="M80 370l303 277l47 -52l-246 -225l246 -225l-47 -52z" />
    <glyph glyph-name="anglebracketright" unicode="&#x27e9;" horiz-adv-x="510" 
d="M430 370l-303 -277l-47 52l246 225l-246 225l47 52z" />
    <glyph glyph-name="clockwiseGappedCircleArrow" unicode="&#x27f3;" horiz-adv-x="743" 
d="M80 371q0 83 38.5 148t105 103t150.5 38q56 0 112.5 -23.5t97.5 -64.5l77 80v-206h-206l82 78q-31 33 -75 53t-88 20q-62 0 -112.5 -30t-80 -81t-29.5 -115t29.5 -115.5t80 -81.5t112.5 -30q50 0 95 22.5t77.5 61.5t43.5 87h73q-13 -66 -56 -119t-104 -84t-129 -31
q-84 0 -150.5 38t-105 103.5t-38.5 148.5z" />
    <glyph glyph-name="blackMediumUpTriangleCentred" unicode="&#x2bc5;" horiz-adv-x="663" 
d="M583 232h-503l251 276z" />
    <glyph glyph-name="blackMediumDownTriangleCentred" unicode="&#x2bc6;" horiz-adv-x="663" 
d="M80 508h503l-251 -276z" />
    <glyph glyph-name="blackMediumLeftTriangleCentred" unicode="&#x2bc7;" horiz-adv-x="435" 
d="M355 118l-275 253l275 252v-505z" />
    <glyph glyph-name="blackMediumRightTriangleCentred" unicode="&#x2bc8;" horiz-adv-x="435" 
d="M80 118v505l275 -252z" />
    <glyph glyph-name="uniFB00" unicode="&#xfb00;" horiz-adv-x="783" 
d="M127 447h-90v88h90v13q0 107 56 166t156 59q47 0 87 -12l-12 -100q-22 16 -60 16q-51 0 -79 -30.5t-28 -89.5v-22h237v13q0 107 56 166t156 59q46 0 88 -12l-12 -100q-22 16 -61 16q-50 0 -78.5 -30.5t-28.5 -89.5v-22h143v-88h-143v-447h-120v447h-237v-447h-120v447z
" />
    <glyph glyph-name="uniFB01" unicode="&#xfb01;" horiz-adv-x="675" 
d="M127 447h-90v88h90v13q0 107 53.5 166t153.5 59q20 0 40 -2.5t39 -7.5l-11 -100q-20 14 -57 14q-98 0 -98 -120v-22h142v-88h-142v-447h-120v447zM484 447h-115v88h235v-535h-120v447zM470 688q0 32 21.5 53t52.5 21q32 0 53 -21t21 -53q0 -31 -21 -52.5t-53 -21.5
q-31 0 -52.5 21.5t-21.5 52.5z" />
    <glyph glyph-name="uniFB02" unicode="&#xfb02;" horiz-adv-x="743" 
d="M127 447h-90v88h90v13q0 107 53.5 166t153.5 59q20 0 40 -2.5t39 -7.5l-11 -100q-20 14 -57 14q-98 0 -98 -120v-22h142v-88h-142v-447h-120v447zM481 760h120v-599q0 -41 15 -58.5t48 -17.5q38 0 62 22l-9 -103q-14 -6 -37 -10.5t-49 -4.5q-150 0 -150 155v616z" />
    <glyph glyph-name="uniFB03" unicode="&#xfb03;" horiz-adv-x="1032" 
d="M127 447h-90v88h90v13q0 107 56 166t156 59q47 0 87 -12l-12 -100q-22 16 -60 16q-51 0 -79 -30.5t-28 -89.5v-22h237v13q0 107 54 166t154 59q20 0 40 -2.5t39 -7.5l-12 -100q-20 14 -56 14q-99 0 -99 -120v-22h143v-88h-143v-447h-120v447h-237v-447h-120v447zM842 447
h-115v88h235v-535h-120v447zM828 688q0 32 21.5 53t52.5 21q32 0 53 -21t21 -53q0 -31 -21 -52.5t-53 -21.5q-31 0 -52.5 21.5t-21.5 52.5z" />
    <glyph glyph-name="uniFB04" unicode="&#xfb04;" horiz-adv-x="1101" 
d="M127 447h-90v88h90v13q0 107 56 166t156 59q47 0 87 -12l-12 -100q-22 16 -60 16q-51 0 -79 -30.5t-28 -89.5v-22h237v13q0 107 54 166t154 59q20 0 40 -2.5t39 -7.5l-12 -100q-20 14 -56 14q-99 0 -99 -120v-22h143v-88h-143v-447h-120v447h-237v-447h-120v447zM839 760
h120v-599q0 -41 15 -58.5t48 -17.5q38 0 62 22l-9 -103q-14 -6 -37 -10.5t-49 -4.5q-150 0 -150 155v616z" />
    <glyph glyph-name="ellipsis.vert" unicode="&#xfe19;" horiz-adv-x="366" orientation="v" 
d="M183 575q-28 0 -45.5 20.5t-17.5 50.5t17.5 50.5t45.5 20.5t45.5 -20.5t17.5 -50.5t-17.5 -50.5t-45.5 -20.5zM183 24q-28 0 -45.5 20.5t-17.5 50.5t17.5 50.5t45.5 20.5t45.5 -20.5t17.5 -50.5t-17.5 -50.5t-45.5 -20.5zM183 300q-28 0 -45.5 20.5t-17.5 50.5t17.5 50.5
t45.5 20.5t45.5 -20.5t17.5 -50.5t-17.5 -50.5t-45.5 -20.5z" />
    <glyph glyph-name="uniFEFF" unicode="&#xfeff;" horiz-adv-x="0" 
 />
    <glyph glyph-name="dotlessexclam" horiz-adv-x="282" 
d="M66 732q12 11 32.5 19.5t42.5 8.5t42 -8.5t33 -19.5l-30 -515h-90z" />
    <glyph glyph-name="dotlessquestion" horiz-adv-x="471" 
d="M22 696q37 26 87 42t108 16q66 0 116.5 -23.5t79 -67.5t28.5 -104q0 -52 -25.5 -98.5t-87.5 -103.5q-48 -43 -67 -74.5t-23 -65.5h-90q-2 32 3.5 58.5t24.5 56t56 68.5q43 44 63 79t20 70q0 53 -31.5 79.5t-83.5 26.5q-47 0 -88.5 -21t-79.5 -60z" />
    <glyph glyph-name="zero.pnum" horiz-adv-x="711" 
d="M560 86.5q-70 -99.5 -205 -99.5t-205 99.5t-70 283.5q0 187 69 285.5t206 98.5t206 -98.5t69 -285.5q0 -184 -70 -283.5zM355 86q77 0 113.5 70.5t36.5 213.5t-36.5 214t-113.5 71t-113.5 -71t-36.5 -214q0 -284 150 -284z" />
    <glyph glyph-name="one.pnum" horiz-adv-x="450" 
d="M207 608l-164 -90l-10 110l204 113h91v-741h-121v608z" />
    <glyph glyph-name="two.pnum" horiz-adv-x="608" 
d="M69 687q44 30 102 48.5t122 18.5q76 0 131 -26t85 -73t30 -111t-36.5 -118.5t-124.5 -120.5q-82 -61 -121.5 -107t-52.5 -97h355l-11 -101h-496q1 59 14 106.5t40.5 89.5t71.5 84.5t107 92.5q71 56 99.5 94.5t28.5 78.5q0 47 -36.5 76.5t-99.5 29.5q-108 0 -199 -85z" />
    <glyph glyph-name="three.pnum" horiz-adv-x="597" 
d="M362 642h-303l9 99h443l-9 -86l-186 -205q106 -5 161 -64t55 -148q0 -73 -36 -129.5t-101.5 -89t-154.5 -32.5q-55 0 -107 12.5t-96 37.5l10 116q42 -32 90 -48t94 -16q81 0 128 41.5t47 108.5q0 66 -40.5 99t-111.5 33q-22 0 -41.5 -3t-35.5 -8v70z" />
    <glyph glyph-name="four.pnum" horiz-adv-x="647" 
d="M397 741h121v-477h94l-9 -98h-85v-166h-117v166h-369v81zM163 264h238v325z" />
    <glyph glyph-name="five.pnum" horiz-adv-x="606" 
d="M129 741h391l-12 -99h-276l-19 -161q34 9 73 9q79 0 136 -30t88 -83.5t31 -126.5q0 -79 -36.5 -138t-101.5 -92t-150 -33q-119 0 -207 50l11 116q41 -31 88 -47.5t95 -16.5q78 0 125.5 42t47.5 116q0 71 -44 111t-130 40q-41 0 -79.5 -7.5t-72.5 -21.5z" />
    <glyph glyph-name="six.pnum" horiz-adv-x="674" 
d="M572 722l-24 -108q-34 21 -67 29.5t-65 8.5q-68 0 -111.5 -33t-67 -89t-31.5 -124q29 41 74.5 63t100.5 22q67 0 119 -30t82 -85.5t30 -131.5q0 -75 -32 -133t-89.5 -91t-133.5 -33q-88 0 -150.5 42t-95.5 120t-33 184q0 141 42 234.5t118.5 140t177.5 46.5q47 0 87 -9
t69 -23zM486 238q0 72 -36 114.5t-98 42.5q-54 0 -95.5 -33.5t-52.5 -87.5q6 -84 44.5 -135t106.5 -51q60 0 95.5 41t35.5 109z" />
    <glyph glyph-name="seven.pnum" horiz-adv-x="573" 
d="M413 640h-390l11 101h524l-10 -95q-81 -123 -137.5 -229t-94.5 -207t-62 -210h-136q27 104 65.5 206.5t94.5 209.5t135 224z" />
    <glyph glyph-name="eight.pnum" horiz-adv-x="668" 
d="M333 754q69 0 123.5 -24t85.5 -65.5t31 -94.5q0 -52 -34 -96.5t-98 -76.5q164 -67 164 -193q0 -62 -35.5 -111t-97.5 -77.5t-140 -28.5t-138.5 27t-95 73.5t-34.5 106.5q0 65 39.5 116t115.5 82q-60 28 -92.5 72t-32.5 99t31 98t85 68t123 25zM404.5 100q32.5 16 51.5 43
t19 61q0 47 -35.5 80.5t-119.5 64.5q-62 -25 -95 -63t-33 -86q0 -51 40 -83.5t100 -32.5q40 0 72.5 16zM347 435q105 47 105 125q0 44 -33 72.5t-86 28.5q-51 0 -84 -28t-33 -71q0 -42 32 -72t99 -55z" />
    <glyph glyph-name="nine.pnum" horiz-adv-x="674" 
d="M94 36l11 117q38 -32 80 -48t83 -16q64 0 105.5 34t64.5 91.5t30 127.5q-29 -40 -74.5 -62t-100.5 -22q-66 0 -118.5 29t-82.5 83t-30 128q0 75 32.5 132.5t91 90.5t136.5 33q87 0 148 -43t93.5 -121t32.5 -184q0 -140 -41.5 -233.5t-114 -139.5t-165.5 -46
q-50 0 -96.5 12t-84.5 37zM188 504q0 -70 36.5 -110t97.5 -40q51 0 92.5 30.5t55.5 80.5q-5 84 -43 136t-104 52q-61 0 -98 -40.5t-37 -108.5z" />
    <glyph glyph-name="zero.dnom" horiz-adv-x="458" 
d="M60 194q0 100 42 151.5t127 51.5q86 0 127.5 -51.5t41.5 -151.5q0 -98 -43 -150t-126 -52t-126 52.5t-43 149.5zM229 325q-38 0 -56 -31.5t-18 -99.5q0 -130 74 -130t74 130q0 68 -18 99.5t-56 31.5z" />
    <glyph glyph-name="one.dnom" horiz-adv-x="413" 
d="M264 76h89v-76h-280v76h101v219l-93 -43l-7 75l126 61h64v-312z" />
    <glyph glyph-name="two.dnom" horiz-adv-x="414" 
d="M187 194q36 23 51.5 43t15.5 39q0 23 -19 36.5t-51 13.5q-62 0 -117 -46l-5 81q31 18 66 27t71 9q69 0 109 -32.5t40 -85.5q0 -39 -23 -68.5t-69 -58.5q-35 -22 -55.5 -40t-31.5 -40h192l-8 -72h-299q0 59 32.5 105t100.5 89z" />
    <glyph glyph-name="three.dnom" horiz-adv-x="402" 
d="M230 317h-175l6 71h275l-6 -58l-107 -95q59 -4 91.5 -34t32.5 -77q0 -58 -49.5 -95t-130.5 -37q-32 0 -64.5 7t-60.5 20l7 75q52 -29 112 -29q41 0 66 17t25 46q0 28 -23 42t-59 14q-13 0 -24.5 -2t-19.5 -4v41z" />
    <glyph glyph-name="four.dnom" horiz-adv-x="446" 
d="M253 388h96v-240h68l-7 -69h-61v-79h-89v79h-236v58zM120 148h140v154z" />
    <glyph glyph-name="five.dnom" horiz-adv-x="406" 
d="M95 388h242l-8 -72h-161l-9 -67q18 3 39 3q71 0 111.5 -34.5t40.5 -90.5q0 -61 -49.5 -98t-129.5 -37q-68 0 -125 27l7 74q24 -13 51.5 -21t56.5 -8q42 0 68 17t26 48q0 29 -24.5 47t-74.5 18q-19 0 -42 -3t-43 -8z" />
    <glyph glyph-name="six.dnom" horiz-adv-x="441" 
d="M362 377l-13 -71q-22 11 -41.5 15.5t-37.5 4.5q-56 0 -83 -28.5t-34 -79.5q35 42 100 42q60 0 99 -34.5t39 -93.5q0 -62 -45 -101t-117 -39q-79 0 -124 49t-45 137q0 110 56 164.5t150 54.5q26 0 51 -4.5t45 -15.5zM153 149q3 -38 22 -62t54 -24q30 0 49 18.5t19 47.5
q0 31 -19 49.5t-50 18.5q-26 0 -46.5 -13t-28.5 -35z" />
    <glyph glyph-name="seven.dnom" horiz-adv-x="397" 
d="M267 316h-222l7 72h312l-7 -69q-46 -66 -77 -116.5t-50.5 -97.5t-31.5 -105h-99q14 55 35.5 104t54 100t78.5 112z" />
    <glyph glyph-name="eight.dnom" horiz-adv-x="445" 
d="M221 397q68 0 109 -28.5t41 -69.5q0 -58 -80 -92q47 -16 73 -39.5t26 -61.5q0 -49 -47 -81.5t-122 -32.5t-120.5 31t-45.5 80q0 36 24.5 61t70.5 40q-77 28 -77 91q0 43 41.5 72.5t106.5 29.5zM168.5 74q21.5 -14 52.5 -14q33 0 54.5 14.5t21.5 38.5q0 21 -19 36t-63 24
q-31 -9 -49.5 -24t-18.5 -37q0 -24 21.5 -38zM157 289q0 -41 73 -56q57 15 57 56q0 20 -17.5 32.5t-46.5 12.5t-47.5 -12.5t-18.5 -32.5z" />
    <glyph glyph-name="nine.dnom" horiz-adv-x="441" 
d="M72 14l9 76q22 -14 45.5 -20.5t45.5 -6.5q55 0 81 29.5t33 80.5q-16 -19 -42 -29t-57 -10q-59 0 -98 34t-39 91q0 61 45.5 99.5t116.5 38.5q79 0 124 -51t45 -139q0 -104 -56.5 -159.5t-149.5 -55.5q-60 0 -103 22zM288 244q-3 36 -22 59t-53 23q-31 0 -50 -17.5
t-19 -47.5q0 -27 19.5 -45.5t50.5 -18.5q25 0 46 13t28 34z" />
    <glyph glyph-name="zero.numr" horiz-adv-x="458" 
d="M60 548q0 100 42 151.5t127 51.5q86 0 127.5 -51.5t41.5 -151.5q0 -98 -43 -150t-126 -52t-126 52.5t-43 149.5zM229 679q-38 0 -56 -31.5t-18 -99.5q0 -130 74 -130t74 130q0 68 -18 99.5t-56 31.5z" />
    <glyph glyph-name="one.numr" horiz-adv-x="413" 
d="M264 430h89v-76h-280v76h101v219l-93 -43l-7 75l126 61h64v-312z" />
    <glyph glyph-name="two.numr" horiz-adv-x="414" 
d="M187 548q36 23 51.5 43t15.5 39q0 23 -19 36.5t-51 13.5q-62 0 -117 -46l-5 81q31 18 66 27t71 9q69 0 109 -32.5t40 -85.5q0 -39 -23 -68.5t-69 -58.5q-35 -22 -55.5 -40t-31.5 -40h192l-8 -72h-299q0 59 32.5 105t100.5 89z" />
    <glyph glyph-name="three.numr" horiz-adv-x="402" 
d="M230 671h-175l6 71h275l-6 -58l-107 -95q59 -4 91.5 -34t32.5 -77q0 -58 -49.5 -95t-130.5 -37q-32 0 -64.5 7t-60.5 20l7 75q52 -29 112 -29q41 0 66 17t25 46q0 28 -23 42t-59 14q-13 0 -24.5 -2t-19.5 -4v41z" />
    <glyph glyph-name="four.numr" horiz-adv-x="446" 
d="M253 742h96v-240h68l-7 -69h-61v-79h-89v79h-236v58zM120 502h140v154z" />
    <glyph glyph-name="five.numr" horiz-adv-x="406" 
d="M95 742h242l-8 -72h-161l-9 -67q18 3 39 3q71 0 111.5 -34.5t40.5 -90.5q0 -61 -49.5 -98t-129.5 -37q-68 0 -125 27l7 74q24 -13 51.5 -21t56.5 -8q42 0 68 17t26 48q0 29 -24.5 47t-74.5 18q-19 0 -42 -3t-43 -8z" />
    <glyph glyph-name="six.numr" horiz-adv-x="441" 
d="M362 731l-13 -71q-22 11 -41.5 15.5t-37.5 4.5q-56 0 -83 -28.5t-34 -79.5q35 42 100 42q60 0 99 -34.5t39 -93.5q0 -62 -45 -101t-117 -39q-79 0 -124 49t-45 137q0 110 56 164.5t150 54.5q26 0 51 -4.5t45 -15.5zM153 503q3 -38 22 -62t54 -24q30 0 49 18.5t19 47.5
q0 31 -19 49.5t-50 18.5q-26 0 -46.5 -13t-28.5 -35z" />
    <glyph glyph-name="seven.numr" horiz-adv-x="397" 
d="M267 670h-222l7 72h312l-7 -69q-46 -66 -77 -116.5t-50.5 -97.5t-31.5 -105h-99q14 55 35.5 104t54 100t78.5 112z" />
    <glyph glyph-name="eight.numr" horiz-adv-x="445" 
d="M221 751q68 0 109 -28.5t41 -69.5q0 -58 -80 -92q47 -16 73 -39.5t26 -61.5q0 -49 -47 -81.5t-122 -32.5t-120.5 31t-45.5 80q0 36 24.5 61t70.5 40q-77 28 -77 91q0 43 41.5 72.5t106.5 29.5zM168.5 428q21.5 -14 52.5 -14q33 0 54.5 14.5t21.5 38.5q0 21 -19 36t-63 24
q-31 -9 -49.5 -24t-18.5 -37q0 -24 21.5 -38zM157 643q0 -41 73 -56q57 15 57 56q0 20 -17.5 32.5t-46.5 12.5t-47.5 -12.5t-18.5 -32.5z" />
    <glyph glyph-name="nine.numr" horiz-adv-x="441" 
d="M72 368l9 76q22 -14 45.5 -20.5t45.5 -6.5q55 0 81 29.5t33 80.5q-16 -19 -42 -29t-57 -10q-59 0 -98 34t-39 91q0 61 45.5 99.5t116.5 38.5q79 0 124 -51t45 -139q0 -104 -56.5 -159.5t-149.5 -55.5q-60 0 -103 22zM288 598q-3 36 -22 59t-53 23q-31 0 -50 -17.5
t-19 -47.5q0 -27 19.5 -45.5t50.5 -18.5q25 0 46 13t28 34z" />
    <glyph glyph-name="zero.percent" horiz-adv-x="402" 
d="M23 182q0 54 21 98t61 70t97 26q56 0 95.5 -26t60.5 -70t21 -98t-21 -98t-60.5 -70.5t-95.5 -26.5q-57 0 -97 26.5t-61 70.5t-21 98zM279 182q0 51 -19.5 82.5t-57.5 31.5q-40 0 -59.5 -31.5t-19.5 -82.5t19.5 -83t59.5 -32q38 0 57.5 32t19.5 83z" />
    <glyph glyph-name="two_fraction_seven" horiz-adv-x="893" 
d="M187 548q36 23 51.5 43t15.5 39q0 23 -19 36.5t-51 13.5q-62 0 -117 -46l-5 81q31 18 66 27t71 9q69 0 109 -32.5t40 -85.5q0 -39 -23 -68.5t-69 -58.5q-35 -22 -55.5 -40t-31.5 -40h192l-8 -72h-299q0 59 32.5 105t100.5 89zM647 741h110l-503 -741h-110zM764 316h-222
l7 72h312l-7 -69q-46 -66 -77 -116.5t-50.5 -97.5t-31.5 -105h-99q14 55 35.5 104t54 100t78.5 112z" />
    <glyph glyph-name="three_fraction_seven" horiz-adv-x="881" 
d="M230 671h-175l6 71h275l-6 -58l-107 -95q59 -4 91.5 -34t32.5 -77q0 -58 -49.5 -95t-130.5 -37q-32 0 -64.5 7t-60.5 20l7 75q52 -29 112 -29q41 0 66 17t25 46q0 28 -23 42t-59 14q-13 0 -24.5 -2t-19.5 -4v41zM613 741h110l-503 -741h-110zM752 316h-222l7 72h312
l-7 -69q-46 -66 -77 -116.5t-50.5 -97.5t-31.5 -105h-99q14 55 35.5 104t54 100t78.5 112z" />
    <glyph glyph-name="four_fraction_seven" horiz-adv-x="925" 
d="M253 742h96v-240h68l-7 -69h-61v-79h-89v79h-236v58zM120 502h140v154zM671 741h110l-503 -741h-110zM795 316h-222l7 72h312l-7 -69q-46 -66 -77 -116.5t-50.5 -97.5t-31.5 -105h-99q14 55 35.5 104t54 100t78.5 112z" />
    <glyph glyph-name="five_fraction_seven" horiz-adv-x="885" 
d="M95 742h242l-8 -72h-161l-9 -67q18 3 39 3q71 0 111.5 -34.5t40.5 -90.5q0 -61 -49.5 -98t-129.5 -37q-68 0 -125 27l7 74q24 -13 51.5 -21t56.5 -8q42 0 68 17t26 48q0 29 -24.5 47t-74.5 18q-19 0 -42 -3t-43 -8zM618 741h110l-503 -741h-110zM755 316h-222l7 72h312
l-7 -69q-46 -66 -77 -116.5t-50.5 -97.5t-31.5 -105h-99q14 55 35.5 104t54 100t78.5 112z" />
    <glyph glyph-name="six_fraction_seven" horiz-adv-x="920" 
d="M362 731l-13 -71q-22 11 -41.5 15.5t-37.5 4.5q-56 0 -83 -28.5t-34 -79.5q35 42 100 42q60 0 99 -34.5t39 -93.5q0 -62 -45 -101t-117 -39q-79 0 -124 49t-45 137q0 110 56 164.5t150 54.5q26 0 51 -4.5t45 -15.5zM153 503q3 -38 22 -62t54 -24q30 0 49 18.5t19 47.5
q0 31 -19 49.5t-50 18.5q-26 0 -46.5 -13t-28.5 -35zM654 741h110l-503 -741h-110zM790 316h-222l7 72h312l-7 -69q-46 -66 -77 -116.5t-50.5 -97.5t-31.5 -105h-99q14 55 35.5 104t54 100t78.5 112z" />
    <glyph glyph-name="two_fraction_nine" horiz-adv-x="937" 
d="M187 548q36 23 51.5 43t15.5 39q0 23 -19 36.5t-51 13.5q-62 0 -117 -46l-5 81q31 18 66 27t71 9q69 0 109 -32.5t40 -85.5q0 -39 -23 -68.5t-69 -58.5q-35 -22 -55.5 -40t-31.5 -40h192l-8 -72h-299q0 59 32.5 105t100.5 89zM668 741h110l-503 -741h-110zM569 14l9 76
q22 -14 45.5 -20.5t45.5 -6.5q55 0 81 29.5t33 80.5q-16 -19 -42 -29t-57 -10q-59 0 -98 34t-39 91q0 61 45.5 99.5t116.5 38.5q79 0 124 -51t45 -139q0 -104 -56.5 -159.5t-149.5 -55.5q-60 0 -103 22zM785 244q-3 36 -22 59t-53 23q-31 0 -50 -17.5t-19 -47.5
q0 -27 19.5 -45.5t50.5 -18.5q25 0 46 13t28 34z" />
    <glyph glyph-name="four_fraction_nine" horiz-adv-x="969" 
d="M253 742h96v-240h68l-7 -69h-61v-79h-89v79h-236v58zM120 502h140v154zM692 741h110l-503 -741h-110zM600 14l9 76q22 -14 45.5 -20.5t45.5 -6.5q55 0 81 29.5t33 80.5q-16 -19 -42 -29t-57 -10q-59 0 -98 34t-39 91q0 61 45.5 99.5t116.5 38.5q79 0 124 -51t45 -139
q0 -104 -56.5 -159.5t-149.5 -55.5q-60 0 -103 22zM816 244q-3 36 -22 59t-53 23q-31 0 -50 -17.5t-19 -47.5q0 -27 19.5 -45.5t50.5 -18.5q25 0 46 13t28 34z" />
    <glyph glyph-name="five_fraction_nine" horiz-adv-x="929" 
d="M95 742h242l-8 -72h-161l-9 -67q18 3 39 3q71 0 111.5 -34.5t40.5 -90.5q0 -61 -49.5 -98t-129.5 -37q-68 0 -125 27l7 74q24 -13 51.5 -21t56.5 -8q42 0 68 17t26 48q0 29 -24.5 47t-74.5 18q-19 0 -42 -3t-43 -8zM644 741h110l-503 -741h-110zM560 14l9 76
q22 -14 45.5 -20.5t45.5 -6.5q55 0 81 29.5t33 80.5q-16 -19 -42 -29t-57 -10q-59 0 -98 34t-39 91q0 61 45.5 99.5t116.5 38.5q79 0 124 -51t45 -139q0 -104 -56.5 -159.5t-149.5 -55.5q-60 0 -103 22zM776 244q-3 36 -22 59t-53 23q-31 0 -50 -17.5t-19 -47.5
q0 -27 19.5 -45.5t50.5 -18.5q25 0 46 13t28 34z" />
    <glyph glyph-name="seven_fraction_nine" horiz-adv-x="877" 
d="M267 670h-222l7 72h312l-7 -69q-46 -66 -77 -116.5t-50.5 -97.5t-31.5 -105h-99q14 55 35.5 104t54 100t78.5 112zM592 741h110l-503 -741h-110zM509 14l9 76q22 -14 45.5 -20.5t45.5 -6.5q55 0 81 29.5t33 80.5q-16 -19 -42 -29t-57 -10q-59 0 -98 34t-39 91
q0 61 45.5 99.5t116.5 38.5q79 0 124 -51t45 -139q0 -104 -56.5 -159.5t-149.5 -55.5q-60 0 -103 22zM725 244q-3 36 -22 59t-53 23q-31 0 -50 -17.5t-19 -47.5q0 -27 19.5 -45.5t50.5 -18.5q25 0 46 13t28 34z" />
    <glyph glyph-name="eight_fraction_nine" horiz-adv-x="968" 
d="M221 751q68 0 109 -28.5t41 -69.5q0 -58 -80 -92q47 -16 73 -39.5t26 -61.5q0 -49 -47 -81.5t-122 -32.5t-120.5 31t-45.5 80q0 36 24.5 61t70.5 40q-77 28 -77 91q0 43 41.5 72.5t106.5 29.5zM168.5 428q21.5 -14 52.5 -14q33 0 54.5 14.5t21.5 38.5q0 21 -19 36t-63 24
q-31 -9 -49.5 -24t-18.5 -37q0 -24 21.5 -38zM157 643q0 -41 73 -56q57 15 57 56q0 20 -17.5 32.5t-46.5 12.5t-47.5 -12.5t-18.5 -32.5zM683 741h110l-503 -741h-110zM599 14l9 76q22 -14 45.5 -20.5t45.5 -6.5q55 0 81 29.5t33 80.5q-16 -19 -42 -29t-57 -10q-59 0 -98 34
t-39 91q0 61 45.5 99.5t116.5 38.5q79 0 124 -51t45 -139q0 -104 -56.5 -159.5t-149.5 -55.5q-60 0 -103 22zM815 244q-3 36 -22 59t-53 23q-31 0 -50 -17.5t-19 -47.5q0 -27 19.5 -45.5t50.5 -18.5q25 0 46 13t28 34z" />
    <glyph glyph-name="hyphen.case" horiz-adv-x="322" 
d="M22 422h278v-106h-278v106z" />
    <glyph glyph-name="endash.case" horiz-adv-x="500" 
d="M0 422h500v-97h-500v97z" />
    <glyph glyph-name="emdash.case" horiz-adv-x="1000" 
d="M0 422h1000v-97h-1000v97z" />
    <glyph glyph-name="parenleft.case" horiz-adv-x="340" 
d="M269 11.5q30 -77.5 59 -129.5h-113q-30 52 -62.5 127.5t-54.5 168t-22 193.5q0 102 22 193.5t54.5 167t62.5 127.5h113q-29 -51 -59 -128.5t-50 -170t-20 -189.5q0 -96 20 -189t50 -170.5z" />
    <glyph glyph-name="parenright.case" horiz-adv-x="340" 
d="M140 371q0 97 -20 189.5t-49.5 170t-59.5 128.5h113q31 -52 63 -127.5t54 -167t22 -193.5q0 -101 -22 -193.5t-54 -168t-63 -127.5h-113q30 52 59.5 129.5t49.5 170.5t20 189z" />
    <glyph glyph-name="slash.case" horiz-adv-x="467" 
d="M349 859h112l-343 -977h-112z" />
    <glyph glyph-name="backslash.case" horiz-adv-x="467" 
d="M6 859h112l343 -977h-112z" />
    <glyph glyph-name="bracketleft.case" horiz-adv-x="340" 
d="M96 859h219v-90h-102v-797h102v-90h-219v977z" />
    <glyph glyph-name="bracketright.case" horiz-adv-x="340" 
d="M244 -118h-219v90h102v797h-102v90h219v-977z" />
    <glyph glyph-name="braceleft.case" horiz-adv-x="349" 
d="M106 237q0 47 -19 66t-70 25v85q51 6 70 25t19 66v193q0 44 14.5 80.5t50.5 59t101 22.5h54v-90h-30q-26 0 -48.5 -17t-22.5 -60v-191q0 -49 -17.5 -80.5t-56.5 -49.5q39 -18 56.5 -50t17.5 -81v-191q0 -43 22.5 -60t48.5 -17h30v-90h-54q-65 0 -101 22.5t-50.5 59.5
t-14.5 80v193z" />
    <glyph glyph-name="braceright.case" horiz-adv-x="349" 
d="M242 44q0 -43 -14.5 -80t-50.5 -59.5t-101 -22.5h-53v90h30q26 0 48.5 17t22.5 60v191q0 49 17.5 80.5t56.5 50.5q-39 18 -56.5 49.5t-17.5 80.5v191q0 43 -22.5 60t-48.5 17h-30v90h53q65 0 101 -22.5t50.5 -59t14.5 -80.5v-192q0 -47 19 -66t70 -25v-86q-51 -6 -70 -25
t-19 -66v-193z" />
    <glyph glyph-name="bullet.case" horiz-adv-x="385" 
d="M192 240q-55 0 -92.5 37.5t-37.5 92.5q0 56 37.5 93.5t92.5 37.5q56 0 93.5 -37.5t37.5 -93.5q0 -55 -37.5 -92.5t-93.5 -37.5z" />
    <glyph glyph-name="guilsinglleft.case" horiz-adv-x="373" 
d="M201 592h122l-151 -221l151 -219h-122l-158 219z" />
    <glyph glyph-name="guilsinglright.case" horiz-adv-x="373" 
d="M50 592h123l158 -221l-158 -219h-123l151 219z" />
    <glyph glyph-name="guillemotleft.case" horiz-adv-x="597" 
d="M424 592h122l-151 -221l151 -219h-122l-158 219zM201 592h122l-151 -221l151 -219h-122l-158 219z" />
    <glyph glyph-name="guillemotright.case" horiz-adv-x="597" 
d="M273 592h123l158 -221l-158 -219h-123l151 219zM50 592h123l158 -221l-158 -219h-123l151 219z" />
    <glyph glyph-name="at.case" horiz-adv-x="1004" 
d="M626 18l12 -102q-40 -16 -87 -24t-94 -8q-122 0 -211 46.5t-137.5 131t-48.5 198.5q0 103 38 192.5t106.5 156.5t159.5 105t197 38q114 0 200.5 -45t135 -125.5t48.5 -188.5q0 -84 -30 -153.5t-81.5 -110.5t-116.5 -41q-52 0 -87.5 24.5t-44.5 73.5q-24 -49 -62.5 -73.5
t-86.5 -24.5q-71 0 -113.5 48.5t-42.5 131.5q0 53 18.5 102.5t50 88.5t71 61.5t82.5 22.5q37 0 67.5 -17.5t47.5 -49.5l11 47h93l-16 -60q-20 -81 -30.5 -129t-10.5 -81q0 -37 15.5 -58.5t41.5 -21.5q32 0 58.5 28t42 76t15.5 108q0 89 -34.5 152t-97 96.5t-147.5 33.5
q-82 0 -153 -31t-124 -86.5t-82.5 -128.5t-29.5 -157q0 -90 34 -156t97.5 -102.5t149.5 -36.5q108 0 176 49zM456 169q41 0 73.5 40t48.5 110l18 75q-7 26 -29.5 45.5t-52.5 19.5q-34 0 -63.5 -26.5t-48 -69.5t-18.5 -95q0 -48 19 -73.5t53 -25.5z" />
    <glyph glyph-name="periodcentered.case" horiz-adv-x="278" 
d="M61 370q0 35 22 58t56 23t56 -23t22 -58q0 -34 -22 -57.5t-56 -23.5t-56 23.5t-22 57.5z" />
    <glyph glyph-name="periodcentered.loclCAT" horiz-adv-x="176" 
d="M-26 356q0 35 22 58t56 23t56 -23t22 -58q0 -34 -22 -57.5t-56 -23.5t-56 23.5t-22 57.5z" />
    <glyph glyph-name="periodcentered.loclCAT.cap" horiz-adv-x="18" 
d="M-189 421q0 35 22 58t56 23t56 -23t22 -58q0 -34 -22 -57.5t-56 -23.5t-56 23.5t-22 57.5z" />
    <glyph glyph-name="IJacute" horiz-adv-x="738" 
d="M90 741h126v-741h-126v741zM657 198q0 -97 -53.5 -154t-157.5 -57q-37 0 -68.5 7t-58.5 19l11 108q47 -29 101 -29q47 0 74 30.5t27 98.5v520h125v-543zM659 1011q28 -10 50.5 -33.5t35.5 -51.5l-169 -128l-50 50zM219 1011q28 -10 50.5 -33.5t35.5 -51.5l-169 -128
l-50 50z" />
    <glyph glyph-name="f.short" horiz-adv-x="413" 
d="M127 447h-90v88h90v13q0 107 53.5 166t153.5 59q20 0 40 -2.5t39 -7.5l-11 -100q-20 14 -57 14q-98 0 -98 -120v-22h142v-88h-142v-447h-120v447z" />
    <glyph glyph-name="f_f.short" horiz-adv-x="770" 
d="M127 447h-90v88h90v13q0 107 56 166t156 59q47 0 87 -12l-12 -100q-22 16 -60 16q-51 0 -79 -30.5t-28 -89.5v-22h237v13q0 107 54 166t154 59q20 0 40 -2.5t39 -7.5l-12 -100q-20 14 -56 14q-99 0 -99 -120v-22h143v-88h-143v-447h-120v447h-237v-447h-120v447z" />
    <glyph glyph-name="dotlessi.long" horiz-adv-x="262" 
d="M71 447h-115v88h235v-535h-120v447z" />
    <glyph glyph-name="i.long" horiz-adv-x="262" 
d="M71 447h-115v88h235v-535h-120v447zM57 688q0 32 21.5 53t52.5 21q32 0 53 -21t21 -53q0 -31 -21 -52.5t-53 -21.5q-31 0 -52.5 21.5t-21.5 52.5z" />
    <glyph glyph-name="dotlessij" horiz-adv-x="523" 
d="M71 535h120v-535h-120v535zM333 535h120v-570q0 -195 -175 -195q-19 0 -38.5 3t-35.5 10l11 96q9 -5 21.5 -9t28.5 -4q68 0 68 95v574z" />
    <glyph glyph-name="ijacute" horiz-adv-x="523" 
d="M71 535h120v-535h-120v535zM333 535h120v-570q0 -195 -175 -195q-19 0 -38.5 3t-35.5 10l11 96q9 -5 21.5 -9t28.5 -4q68 0 68 95v574zM179 823q30 -9 54.5 -30t38.5 -47l-158 -147l-53 44zM440 823q30 -9 54.5 -30t38.5 -47l-158 -147l-53 44z" />
    <glyph glyph-name="uni0327.cap" horiz-adv-x="0" 
d="M-36 13h79l-18 -71q51 -3 79.5 -27t28.5 -65q0 -49 -40.5 -76t-111.5 -27q-26 0 -54 6.5t-42 13.5l10 75q15 -12 36.5 -18t43.5 -6q60 0 60 34q0 33 -63 33q-10 0 -22 -1t-22 -3z" />
    <glyph glyph-name="uni0326.cap" horiz-adv-x="0" 
d="M-53 -62h107q-7 -43 -29.5 -86.5t-53.5 -75.5h-84q46 66 60 162z" />
    <glyph glyph-name="uni0328.cap" horiz-adv-x="0" 
d="M88 -217q-15 -8 -37 -13.5t-40 -5.5q-54 0 -84 26t-30 72q0 41 34 84t94 77l64 -23q-89 -67 -89 -114q0 -32 35 -32q22 0 44 16z" />
    <glyph glyph-name="uni0328.round" horiz-adv-x="0" 
d="M23 23l82 -1q-57 -44 -83 -77t-26 -63q0 -31 35 -31q26 0 46 16l10 -85q-13 -7 -36 -12.5t-44 -5.5q-52 0 -81 24.5t-29 68.5q0 43 33.5 87t92.5 79z" />
    <glyph glyph-name="uni0328.round.cap" horiz-adv-x="0" 
d="M85 -217q-14 -8 -36 -13.5t-42 -5.5q-54 0 -84 26t-30 72q0 40 34.5 83.5t94.5 77.5l93 6q-61 -47 -90 -81t-29 -62q0 -32 35 -32q22 0 44 16z" />
    <glyph glyph-name="acutecomb.cap" horiz-adv-x="0" 
d="M66 1011q28 -10 50.5 -33.5t35.5 -51.5l-169 -128l-50 50z" />
    <glyph glyph-name="uni030B.cap" horiz-adv-x="0" 
d="M-35 1004q26 -7 51.5 -23t39.5 -38l-137 -145l-57 38zM155 1004q26 -7 51 -24t38 -39l-140 -142l-56 40z" />
    <glyph glyph-name="gravecomb.cap" horiz-adv-x="0" 
d="M-152 926q14 28 36 51.5t50 33.5l134 -163l-51 -50z" />
    <glyph glyph-name="uni0302.cap" horiz-adv-x="0" 
d="M-48 989h96l121 -145l-57 -48l-112 105l-111 -105l-58 48z" />
    <glyph glyph-name="tildecomb.cap" horiz-adv-x="0" 
d="M-74 972q20 0 40.5 -8t47.5 -28q22 -15 32 -20t21 -5q35 0 35 63l82 -14q0 -65 -28 -102t-81 -37q-20 0 -40.5 7.5t-47.5 27.5q-22 16 -32 20.5t-21 4.5q-35 0 -35 -63l-82 14q0 65 28.5 102.5t80.5 37.5z" />
    <glyph glyph-name="uni030C.cap" horiz-adv-x="0" 
d="M-169 957l58 48l111 -107l112 107l57 -48l-121 -144h-96z" />
    <glyph glyph-name="uni0315.short" horiz-adv-x="0" 
d="M-45 760q13 5 26.5 7.5t29.5 2.5q14 0 28 -2.5t28 -7.5l-58 -166h-62z" />
    <glyph glyph-name="uni0304.cap" horiz-adv-x="0" 
d="M-156 923h312v-89h-312v89z" />
    <glyph glyph-name="uni0308.cap" horiz-adv-x="0" 
d="M-178 879q0 31 20 51.5t50 20.5q29 0 49 -20.5t20 -51.5q0 -30 -20 -50.5t-49 -20.5q-30 0 -50 20.5t-20 50.5zM40 879q0 31 20 51.5t50 20.5q29 0 49 -20.5t20 -51.5q0 -30 -20 -50.5t-49 -20.5q-30 0 -50 20.5t-20 50.5z" />
    <glyph glyph-name="uni0306.cap" horiz-adv-x="0" 
d="M0 802q-82 0 -126 44t-40 119h90q0 -85 76 -85q77 0 77 85h90q4 -75 -40.5 -119t-126.5 -44z" />
    <glyph glyph-name="uni0307.cap" horiz-adv-x="0" 
d="M-76 880q0 32 21.5 53t54.5 21t54.5 -21t21.5 -53q0 -33 -21.5 -54t-54.5 -21t-54.5 21.5t-21.5 53.5z" />
    <glyph glyph-name="dotbelowcomb.cap" horiz-adv-x="0" 
d="M-76 -134q0 32 21.5 53.5t54.5 21.5t54.5 -21.5t21.5 -53.5t-21.5 -53.5t-54.5 -21.5t-54.5 21.5t-21.5 53.5z" />
    <glyph glyph-name="uni030A.cap" horiz-adv-x="0" 
d="M0 778q-52 0 -86 31.5t-34 79.5t34 79.5t86 31.5t86 -31.5t34 -79.5t-34 -79.5t-86 -31.5zM0 939q-22 0 -36 -13.5t-14 -36.5q0 -22 14 -36t36 -14q23 0 36.5 14t13.5 36q0 23 -13.5 36.5t-36.5 13.5z" />
    <glyph glyph-name="highdef" horiz-adv-x="0" 
d="M-25 -268l25 50l25 -50h-50zM0 996l-25 50h50z" />
    </font>
</defs>
</svg>
