<?xml version="1.0" standalone="no"?>
<!DOCTYPE svg PUBLIC "-//W3C//DTD SVG 1.1//EN" "http://www.w3.org/Graphics/SVG/1.1/DTD/svg11.dtd" >
<svg xmlns="http://www.w3.org/2000/svg" xmlns:xlink="http://www.w3.org/1999/xlink" version="1.1">
<metadata>
Created by FontForge 20201107 at Fri May 14 16:23:00 2021
 By 
Copyright 2020 Dalton Maag Ltd. Modification of this file requires prior written permission from Dalton Maag Ltd.
</metadata>
<defs>
<font id="DarkmodeTrial-DarkmodeOffLight" horiz-adv-x="650" >
  <font-face 
    font-family="Darkmode Trial DarkmodeOff Light"
    font-weight="300"
    font-stretch="normal"
    units-per-em="1000"
    panose-1="2 11 3 3 3 5 4 2 2 4"
    ascent="800"
    descent="-200"
    x-height="529"
    cap-height="741"
    bbox="-260 -268 1177 1046"
    underline-thickness="78"
    underline-position="-169"
    unicode-range="U+000D-FEFF"
  />
<missing-glyph horiz-adv-x="500" 
d="M50 760h400v-760h-400v760zM400 50v660h-300v-660h300z" />
    <glyph glyph-name="f_i" unicode="fi" horiz-adv-x="631" 
d="M137 482h-93v47h93v39q0 98 48 151.5t136 53.5q20 0 37.5 -2.5t32.5 -7.5l-6 -54q-21 13 -60 13q-129 0 -129 -152v-41h161v-47h-161v-482h-59v482zM485 482h-144v47h203v-529h-59v482zM469 701q0 20 13.5 34t32.5 14t32.5 -14t13.5 -34t-13.5 -34.5t-32.5 -14.5
t-32.5 14.5t-13.5 34.5z" />
    <glyph glyph-name="f_l" unicode="fl" horiz-adv-x="714" 
d="M137 482h-93v47h93v39q0 98 48 151.5t136 53.5q20 0 37.5 -2.5t32.5 -7.5l-6 -54q-21 13 -60 13q-129 0 -129 -152v-41h161v-47h-161v-482h-59v482zM476 760h60v-623q0 -52 19 -75t62 -23q39 0 68 21l-6 -57q-13 -6 -33 -10t-43 -4q-65 0 -96 34.5t-31 107.5v629z" />
    <glyph glyph-name="f_f_i" unicode="ffi" horiz-adv-x="979" 
d="M137 482h-93v47h93v39q0 98 49.5 151.5t137.5 53.5q45 0 75 -12l-5 -53q-23 14 -64 14q-64 0 -99 -38t-35 -114v-41h289v39q0 98 48 151.5t136 53.5q20 0 38 -2.5t33 -7.5l-6 -54q-23 13 -61 13q-128 0 -128 -152v-41h161v-47h-161v-482h-60v482h-289v-482h-59v482z
M834 482h-144v47h203v-529h-59v482zM818 701q0 20 13.5 34t32.5 14t32.5 -14t13.5 -34t-13.5 -34.5t-32.5 -14.5t-32.5 14.5t-13.5 34.5z" />
    <glyph glyph-name="f_f_l" unicode="ffl" horiz-adv-x="1063" 
d="M137 482h-93v47h93v39q0 98 49.5 151.5t137.5 53.5q45 0 75 -12l-5 -53q-23 14 -64 14q-64 0 -99 -38t-35 -114v-41h289v39q0 98 48 151.5t136 53.5q20 0 38 -2.5t33 -7.5l-6 -54q-23 13 -61 13q-128 0 -128 -152v-41h161v-47h-161v-482h-60v482h-289v-482h-59v482z
M825 760h60v-623q0 -52 19 -75t62 -23q39 0 68 21l-6 -57q-13 -6 -33 -10t-43 -4q-65 0 -96 34.5t-31 107.5v629z" />
    <glyph glyph-name="f_f" unicode="ff" horiz-adv-x="750" 
d="M137 482h-93v47h93v39q0 98 49.5 151.5t137.5 53.5q45 0 75 -12l-5 -53q-23 14 -64 14q-64 0 -99 -38t-35 -114v-41h289v39q0 98 50 151.5t137 53.5q45 0 76 -12l-6 -53q-23 14 -64 14q-64 0 -98.5 -38t-34.5 -114v-41h161v-47h-161v-482h-60v482h-289v-482h-59v482z" />
    <glyph glyph-name="f_t" unicode="ft" horiz-adv-x="757" 
d="M137 482h-93v47h93v39q0 98 49.5 151.5t137.5 53.5q45 0 75 -12l-5 -53q-23 14 -64 14q-64 0 -99 -38t-35 -114v-41h289v120l60 28v-148h163v-47h-163v-325q0 -62 22.5 -90.5t77.5 -28.5q18 0 39.5 5t34.5 14l-7 -57q-16 -6 -39 -9.5t-43 -3.5q-74 0 -109.5 39t-35.5 120
v336h-289v-482h-59v482z" />
    <glyph glyph-name=".notdef" horiz-adv-x="500" 
d="M50 760h400v-760h-400v760zM400 50v660h-300v-660h300z" />
    <glyph glyph-name="uni0000" horiz-adv-x="0" 
 />
    <glyph glyph-name="uni0000" horiz-adv-x="0" 
 />
    <glyph glyph-name="uni000D" unicode="&#xd;" horiz-adv-x="234" 
 />
    <glyph glyph-name="space" unicode=" " horiz-adv-x="234" 
 />
    <glyph glyph-name="exclam" unicode="!" horiz-adv-x="248" 
d="M76 43q0 23 14 37.5t34 14.5t34 -14.5t14 -37.5q0 -22 -14 -37t-34 -15t-34 15t-14 37zM84 743q5 6 16 11.5t24 5.5t24 -5.5t16 -11.5l-18 -540h-45z" />
    <glyph glyph-name="quotedbl" unicode="&#x22;" horiz-adv-x="377" 
d="M84 747q7 5 16.5 9t21.5 4q10 0 20 -4t17 -9l-19 -234h-37zM219 747q7 5 16.5 9t21.5 4q10 0 20 -4t17 -9l-19 -234h-37z" />
    <glyph glyph-name="numbersign" unicode="#" 
d="M197 480h-115v54h123l29 207h51l-29 -207h185l29 207h51l-29 -207h105v-54h-113l-31 -219h115v-54h-123l-29 -207h-51l29 207h-185l-29 -207h-51l29 207h-105v54h113zM433 480h-185l-31 -219h185z" />
    <glyph glyph-name="dollar" unicode="$" 
d="M309 365q-105 35 -150.5 78t-45.5 103q0 53 29.5 93t82 62t120.5 22l14 135h48l-14 -137q76 -9 142 -43l-17 -55q-61 40 -130 49l-27 -265q109 -37 156 -83.5t47 -110.5q0 -85 -62.5 -138.5t-179.5 -56.5l-14 -135h-47l14 136q-47 4 -96 18t-88 39l7 60q41 -30 89 -47
t93 -21zM445 307q-32 21 -90 42l-28 -282q86 4 130.5 41t44.5 100q0 30 -12.5 54t-44.5 45zM202.5 481q29.5 -30 112.5 -59l25 252q-75 -3 -121 -34.5t-46 -87.5q0 -41 29.5 -71z" />
    <glyph glyph-name="percent" unicode="%" horiz-adv-x="825" 
d="M27 563q0 54 19.5 97t56 68.5t87.5 25.5t87 -25.5t55.5 -68.5t19.5 -97q0 -53 -19.5 -96.5t-55.5 -69t-87 -25.5t-87.5 25.5t-56 69t-19.5 96.5zM299 563q0 64 -29 105.5t-80 41.5t-80 -41.5t-29 -105.5t29 -105.5t80 -41.5t80 41.5t29 105.5zM645 741h61l-525 -741h-61z
M472 178q0 54 19.5 97t56 68.5t87.5 25.5t87 -25.5t55.5 -68.5t19.5 -97q0 -53 -19.5 -96.5t-55.5 -69t-87 -25.5t-87.5 25.5t-56 69t-19.5 96.5zM744 178q0 64 -29 105.5t-80 41.5t-80 -41.5t-29 -105.5t29 -105.5t80 -41.5t80 41.5t29 105.5z" />
    <glyph glyph-name="ampersand" unicode="&#x26;" horiz-adv-x="754" 
d="M342 754q46 0 82 -21t56.5 -56.5t20.5 -81.5q0 -53 -35.5 -99.5t-121.5 -91.5q51 -54 102.5 -110t104.5 -112q45 83 68 219l57 -12q-24 -147 -86 -247q34 -35 69 -70.5t72 -71.5h-80q-25 24 -49 48.5t-47 48.5q-45 -53 -103 -81.5t-129 -28.5q-69 0 -123 26t-85 72
t-31 104q0 62 39.5 119t140.5 107q-39 46 -62 90t-23 88q0 46 22 82t59 57.5t82 21.5zM518 135q-59 62 -114.5 123.5t-109.5 121.5q-86 -43 -116.5 -91t-30.5 -96q0 -45 22.5 -79t62.5 -53.5t92 -19.5q59 0 108 23t86 71zM416 675q-30 30 -75 30q-43 0 -74 -31t-31 -80
q0 -39 20 -76t58 -80q70 36 101 74t31 84q0 49 -30 79z" />
    <glyph glyph-name="quotesingle" unicode="'" horiz-adv-x="243" 
d="M84 747q7 5 16.5 9t21.5 4q10 0 20 -4t17 -9l-19 -234h-37z" />
    <glyph glyph-name="parenleft" unicode="(" horiz-adv-x="311" 
d="M95 272q0 93 19.5 181t51.5 166.5t68 140.5h56q-36 -63 -66 -142t-48.5 -167.5t-18.5 -178.5t18.5 -178.5t48.5 -168t66 -142.5h-56q-36 63 -68 141t-51.5 166.5t-19.5 181.5z" />
    <glyph glyph-name="parenright" unicode=")" horiz-adv-x="311" 
d="M155 272q0 90 -18.5 178.5t-49 167.5t-66.5 142h56q37 -62 68.5 -140.5t51 -166.5t19.5 -181t-19.5 -181.5t-51 -166.5t-68.5 -141h-56q36 63 66.5 142.5t49 168t18.5 178.5z" />
    <glyph glyph-name="asterisk" unicode="*" horiz-adv-x="515" 
d="M232 752q11 8 30 8q18 0 29 -8l-9 -136l120 49q12 -10 17.5 -26t0.5 -31l-127 -32l91 -109q-6 -15 -20 -24.5t-28 -10.5l-74 117l-74 -117q-15 1 -28.5 10.5t-19.5 24.5l90 109l-127 32q-4 15 1 31t17 26l120 -49z" />
    <glyph glyph-name="plus" unicode="+" 
d="M297 593h56v-222h210v-52h-210v-222h-56v222h-210v52h210v222z" />
    <glyph glyph-name="comma" unicode="," horiz-adv-x="248" 
d="M103 -156h-35q21 33 35.5 72.5t19.5 75.5h-3q-18 0 -31.5 14.5t-13.5 36.5q0 23 14 37.5t34 14.5t34 -16t14 -48q0 -42 -18 -94.5t-50 -92.5z" />
    <glyph glyph-name="hyphen" unicode="-" horiz-adv-x="290" 
d="M28 309h233v-54h-233v54z" />
    <glyph glyph-name="period" unicode="." horiz-adv-x="248" 
d="M76 43q0 23 14 37.5t34 14.5t34 -14.5t14 -37.5q0 -22 -14 -37t-34 -15t-34 15t-14 37z" />
    <glyph glyph-name="slash" unicode="/" horiz-adv-x="424" 
d="M355 760h57l-343 -977h-57z" />
    <glyph glyph-name="zero" unicode="0" 
d="M65 370q0 186 66 285t194 99q129 0 194.5 -99t65.5 -285q0 -183 -66.5 -283t-193.5 -100t-193.5 100t-66.5 283zM523 370q0 163 -49 247t-149 84q-99 0 -148.5 -84t-49.5 -247q0 -161 50 -245.5t148 -84.5t148 84.5t50 245.5z" />
    <glyph glyph-name="one" unicode="1" 
d="M373 54h180v-54h-435v54h194v619l-181 -99l-4 58l200 110h46v-688z" />
    <glyph glyph-name="two" unicode="2" 
d="M378 322q-75 -55 -120.5 -98t-68 -83t-29.5 -87h405l-6 -54h-472q2 56 16 101t43 85t74.5 81.5t111.5 90.5q80 59 114 104t34 96q0 64 -46 103t-123 39q-57 0 -109 -21t-93 -59l-6 67q41 30 97 48.5t117 18.5q68 0 118.5 -25t78.5 -69t28 -103q0 -64 -37.5 -117
t-126.5 -118z" />
    <glyph glyph-name="three" unicode="3" 
d="M430 688h-336l6 53h411l-5 -47l-220 -248q11 1 23 1q105 0 165.5 -57.5t60.5 -153.5q0 -74 -34 -130t-95.5 -87.5t-146.5 -31.5q-50 0 -100.5 12.5t-91.5 37.5l6 64q40 -29 89 -44.5t93 -15.5q101 0 159 53t58 141q0 83 -50 124.5t-132 41.5q-24 0 -44.5 -4t-36.5 -9v45z
" />
    <glyph glyph-name="four" unicode="4" 
d="M432 741h60v-512h107l-4 -52h-103v-177h-59v177h-385v42zM120 229h313v425z" />
    <glyph glyph-name="five" unicode="5" 
d="M172 741h354l-5 -53h-297l-25 -223q47 19 105 19q78 0 132.5 -30t83 -83.5t28.5 -125.5q0 -78 -34 -136t-95.5 -90t-143.5 -32q-111 0 -193 50l6 64q40 -28 87.5 -44t98.5 -16q95 0 152.5 54t57.5 148q0 87 -51 138t-151 51q-39 0 -76.5 -7.5t-73.5 -21.5z" />
    <glyph glyph-name="six" unicode="6" 
d="M545 724l-16 -58q-31 19 -65 26.5t-63 7.5q-69 0 -116.5 -28t-77 -76t-44.5 -108t-18 -123q28 55 82 87.5t123 32.5q68 0 120 -30.5t81.5 -86t29.5 -131.5q0 -73 -29.5 -129.5t-82.5 -88.5t-125 -32q-82 0 -141 42t-90.5 118t-31.5 177q0 148 42 243t114.5 141t165.5 46
q42 0 78 -8t64 -22zM518 233q0 92 -49 146t-129 54q-50 0 -91 -22t-68.5 -60t-35.5 -87q11 -100 63 -161.5t136 -61.5q80 0 127 53t47 139z" />
    <glyph glyph-name="seven" unicode="7" 
d="M369 312.5q-38 -80.5 -64.5 -157t-46.5 -155.5h-69q21 77 48.5 153.5t65 158.5t89 174t121.5 201h-438l5 54h508l-5 -50q-71 -112 -123.5 -205t-90.5 -173.5z" />
    <glyph glyph-name="eight" unicode="8" 
d="M324 754q66 0 117 -23t80 -62.5t29 -90.5q0 -116 -161 -181q98 -36 144 -85.5t46 -116.5q0 -60 -33 -107t-90.5 -74t-132.5 -27q-74 0 -130.5 26t-88.5 71t-32 102q0 71 47.5 124t137.5 84q-157 61 -157 179q0 52 29 92.5t80 64.5t115 24zM225.5 58q42.5 -19 97.5 -19
q56 0 98.5 19.5t67 54.5t24.5 79q0 59 -44.5 101t-151.5 79q-88 -29 -134.5 -76t-46.5 -109q0 -43 23.5 -76.5t66 -52.5zM183.5 640.5q-20.5 -29.5 -20.5 -67.5q0 -52 40 -88.5t131 -68.5q153 58 153 157q0 57 -45 94t-118 37q-47 0 -83.5 -17t-57 -46.5z" />
    <glyph glyph-name="nine" unicode="9" 
d="M105 28l6 65q35 -27 74.5 -39.5t74.5 -12.5q66 0 112 28.5t74.5 77t42.5 109t17 125.5q-29 -54 -83.5 -85.5t-122.5 -31.5q-67 0 -119.5 30t-82 84t-29.5 127t31 129t86 88t127 32q82 0 139 -43t87 -120t30 -178q0 -148 -41 -242t-110 -139t-154 -45q-42 0 -83.5 10
t-75.5 31zM132 508q0 -88 49 -140t129 -52q48 0 89 21t69 57t37 82q-11 100 -60.5 162t-131.5 62t-131.5 -53t-49.5 -139z" />
    <glyph glyph-name="colon" unicode=":" horiz-adv-x="248" 
d="M76 43q0 23 14 37.5t34 14.5t34 -14.5t14 -37.5q0 -22 -14 -37t-34 -15t-34 15t-14 37zM76 476q0 23 14 37.5t34 14.5t34 -14.5t14 -37.5q0 -22 -14 -37t-34 -15t-34 15t-14 37z" />
    <glyph glyph-name="semicolon" unicode=";" horiz-adv-x="248" 
d="M103 -156h-35q21 33 35.5 72.5t19.5 75.5h-3q-18 0 -31.5 14.5t-13.5 36.5q0 23 14 37.5t34 14.5t34 -16t14 -48q0 -42 -18 -94.5t-50 -92.5zM75 476q0 23 14 37.5t34 14.5t34 -14.5t14 -37.5q0 -22 -14 -37t-34 -15t-34 15t-14 37z" />
    <glyph glyph-name="less" unicode="&#x3c;" 
d="M87 323v44l476 207v-57l-406 -172l406 -172v-57z" />
    <glyph glyph-name="equal" unicode="=" 
d="M563 192h-476v52h476v-52zM563 445h-476v52h476v-52z" />
    <glyph glyph-name="greater" unicode="&#x3e;" 
d="M563 367v-44l-476 -207v57l406 172l-406 172v57z" />
    <glyph glyph-name="question" unicode="?" horiz-adv-x="460" 
d="M146 43q0 23 14 37.5t34 14.5t34 -14.5t14 -37.5q0 -22 -14 -37t-34 -15t-34 15t-14 37zM305 360q-49 -46 -67.5 -81t-20.5 -76h-46q-2 34 5.5 62t28.5 58.5t61 70.5q47 47 69.5 86.5t22.5 81.5q0 68 -40.5 103.5t-105.5 35.5q-101 0 -175 -80l-6 70q37 29 85.5 46
t101.5 17q59 0 105 -23t72 -65t26 -101q0 -49 -26 -96.5t-90 -108.5z" />
    <glyph glyph-name="at" unicode="@" horiz-adv-x="976" 
d="M616 -118l7 -59q-39 -19 -85 -28.5t-95 -9.5q-114 0 -197.5 46t-129 129.5t-45.5 196.5q0 103 36.5 192t101.5 156.5t151 105.5t186 38q107 0 188 -44t127 -124t46 -188q0 -84 -27.5 -152.5t-74 -109t-104.5 -40.5q-50 0 -80 28t-32 84q-23 -56 -66.5 -85t-94.5 -29
q-67 0 -107.5 47t-40.5 129q0 55 18.5 105t50 89.5t72 62t83.5 22.5q40 0 72.5 -20t49.5 -55l13 55h52l-9 -35q-22 -88 -34 -152.5t-12 -105.5q0 -44 17.5 -68t49.5 -24q40 0 72.5 32.5t52 89t19.5 127.5q0 98 -37.5 168t-105.5 108t-160 38q-87 0 -162.5 -34t-131.5 -94.5
t-87.5 -140.5t-31.5 -173q0 -100 37.5 -173.5t107 -114t163.5 -40.5q50 0 96.5 13t80.5 37zM530 79.5q43 44.5 61 127.5l22 104q-9 38 -38.5 62.5t-68.5 24.5q-44 0 -83 -32t-63 -84.5t-24 -115.5q0 -62 26.5 -96.5t74.5 -34.5q50 0 93 44.5z" />
    <glyph glyph-name="A" unicode="A" horiz-adv-x="721" 
d="M326 743h69q72 -185 142.5 -371t139.5 -372h-67q-22 61 -44 121.5t-44 121.5h-326q-45 -123 -88 -243h-64q69 186 139.5 372t142.5 371zM359 680q-36 -95 -72 -191t-71 -192h286q-36 96 -71.5 192t-71.5 191z" />
    <glyph glyph-name="B" unicode="B" horiz-adv-x="625" 
d="M104 741h192q107 0 172.5 -48t65.5 -137q0 -61 -36 -102t-90 -56q77 -14 121 -64t44 -125q0 -100 -71.5 -154.5t-189.5 -54.5h-208v741zM167 52h144q92 0 144.5 41.5t52.5 117.5q0 74 -51.5 114t-143.5 40h-146v-313zM304 416q78 0 121.5 36t43.5 101t-47 100.5
t-129 35.5h-126v-273h137z" />
    <glyph glyph-name="C" unicode="C" horiz-adv-x="636" 
d="M396 40q50 0 101 14.5t87 43.5l8 -64q-37 -22 -92 -34.5t-109 -12.5q-102 0 -174 46.5t-110 133t-38 206.5q0 118 38.5 203.5t111 131.5t172.5 46q55 0 106 -13.5t94 -40.5l-18 -59q-46 33 -89 46.5t-90 13.5q-123 0 -190.5 -86.5t-67.5 -239.5q0 -157 66.5 -246
t193.5 -89z" />
    <glyph glyph-name="D" unicode="D" horiz-adv-x="721" 
d="M104 741h169q127 0 212 -47.5t128.5 -130.5t43.5 -192t-43.5 -192.5t-128.5 -131t-212 -47.5h-169v741zM168 688v-635h105q104 0 174.5 39.5t106.5 111t36 166.5q0 96 -36 167.5t-106.5 111t-174.5 39.5h-105z" />
    <glyph glyph-name="E" unicode="E" horiz-adv-x="553" 
d="M104 741h403l-6 -53h-333v-267h270v-53h-270v-315h351v-53h-415v741z" />
    <glyph glyph-name="F" unicode="F" horiz-adv-x="541" 
d="M104 741h403l-6 -53h-333v-267h270v-53h-270v-368h-64v741z" />
    <glyph glyph-name="G" unicode="G" horiz-adv-x="696" 
d="M622 50q-39 -28 -97 -45.5t-129 -17.5q-104 0 -177 46t-111.5 133t-38.5 208q0 118 39.5 203t113.5 131t177 46q115 0 210 -55l-18 -58q-48 32 -94 46t-96 14q-127 0 -196 -87t-69 -240q0 -158 68 -246t196 -88q50 0 89.5 10t70.5 28v258h-181v53h243v-339z" />
    <glyph glyph-name="H" unicode="H" horiz-adv-x="732" 
d="M104 741h64v-319h397v319h62v-741h-62v369h-397v-369h-64v741z" />
    <glyph glyph-name="I" unicode="I" horiz-adv-x="272" 
d="M104 741h64v-741h-64v741z" />
    <glyph glyph-name="J" unicode="J" horiz-adv-x="418" 
d="M324 191q0 -100 -51.5 -152t-141.5 -52q-30 0 -57.5 6.5t-49.5 16.5l7 59q18 -12 44 -19t51 -7q60 0 98 38.5t38 123.5v536h62v-550z" />
    <glyph glyph-name="K" unicode="K" horiz-adv-x="639" 
d="M104 741h64v-331l176 166t171 165h75q-86 -85 -177.5 -172t-183.5 -172q44 -43 95 -93.5t103 -104t101 -104.5t88 -95h-83q-36 40 -82 88.5t-96 99.5t-98.5 99t-88.5 88v-375h-64v741z" />
    <glyph glyph-name="L" unicode="L" horiz-adv-x="526" 
d="M104 741h64v-687h333v-54h-397v741z" />
    <glyph glyph-name="M" unicode="M" horiz-adv-x="921" 
d="M116 741h59l287 -592l287 592h55l19 -741h-60l-15 620l-265 -545h-46l-264 545l-15 -620h-60z" />
    <glyph glyph-name="N" unicode="N" horiz-adv-x="732" 
d="M104 741h72l393 -625l-1 39v586h59v-741h-53l-410 656v-656h-60v741z" />
    <glyph glyph-name="O" unicode="O" horiz-adv-x="754" 
d="M69 379q0 111 35 195.5t103.5 132t169.5 47.5q102 0 170.5 -47.5t103 -132t34.5 -195.5q0 -116 -34.5 -204.5t-103 -138t-170.5 -49.5t-170.5 49.5t-103 138t-34.5 204.5zM618 379q0 99 -27.5 171t-81 111.5t-132.5 39.5q-78 0 -131.5 -39.5t-81.5 -111.5t-28 -171
q0 -103 28 -179t82 -118t131 -42q78 0 131.5 42t81.5 118t28 179z" />
    <glyph glyph-name="P" unicode="P" horiz-adv-x="592" 
d="M104 741h177q78 0 138.5 -23.5t94.5 -70.5t34 -118t-34 -118.5t-94.5 -70.5t-138.5 -23h-113v-317h-64v741zM427.5 407.5q55.5 39.5 55.5 121.5q0 81 -55.5 120.5t-146.5 39.5h-113v-321h113q91 0 146.5 39.5z" />
    <glyph glyph-name="Q" unicode="Q" horiz-adv-x="754" 
d="M465 -2q27 -39 76.5 -68t115.5 -42l-35 -52q-74 16 -128 56.5t-81 96.5q-18 -2 -36 -2q-102 0 -170.5 49.5t-103 138t-34.5 204.5q0 111 35 195.5t103.5 132t169.5 47.5q102 0 170.5 -47.5t103 -132t34.5 -195.5q0 -147 -55 -249t-165 -132zM246 82q54 -42 131 -42
q78 0 131.5 42t81.5 118t28 179q0 99 -27.5 171t-81 111.5t-132.5 39.5q-78 0 -131.5 -39.5t-81.5 -111.5t-28 -171q0 -103 28 -179t82 -118z" />
    <glyph glyph-name="R" unicode="R" horiz-adv-x="648" 
d="M104 741h179q75 0 135 -21.5t95 -66t35 -112.5q0 -80 -47 -128t-122 -64q63 -25 119 -108.5t120 -240.5h-69q-40 95 -74 158.5t-67.5 100.5t-72 53t-88.5 16h-79v-328h-64v741zM385 396.5q45 17.5 71.5 52.5t26.5 87t-26.5 86t-71.5 50.5t-101 16.5h-116v-310h116
q56 0 101 17.5z" />
    <glyph glyph-name="S" unicode="S" horiz-adv-x="581" 
d="M267 -13q-56 0 -113.5 13.5t-107.5 42.5l8 64q50 -34 104.5 -50.5t107.5 -16.5q95 0 145.5 41t50.5 112q0 37 -15 64t-53 51t-109 50q-80 30 -126.5 60t-66 65.5t-19.5 78.5q0 59 30.5 102t83.5 66.5t122 23.5q55 0 102.5 -13t85.5 -35l-18 -58q-37 26 -78 39.5t-91 13.5
q-76 0 -125 -34.5t-49 -98.5q0 -33 17.5 -59t57.5 -48.5t109 -47.5q83 -30 127.5 -62.5t61.5 -70t17 -82.5q0 -95 -67.5 -153t-191.5 -58z" />
    <glyph glyph-name="T" unicode="T" horiz-adv-x="572" 
d="M255 687h-230v54h522v-54h-230v-687h-62v687z" />
    <glyph glyph-name="U" unicode="U" horiz-adv-x="704" 
d="M610 252q0 -126 -67.5 -195.5t-189.5 -69.5q-123 0 -191 69.5t-68 195.5v489h64v-479q0 -221 195 -221q95 0 145.5 54t50.5 158v488h61v-489z" />
    <glyph glyph-name="V" unicode="V" horiz-adv-x="690" 
d="M34 741h68q59 -165 121 -330.5t124 -329.5q62 164 124 329.5t121 330.5h64q-69 -186 -140 -372t-143 -371h-56q-72 185 -143 371t-140 372z" />
    <glyph glyph-name="W" unicode="W" horiz-adv-x="1014" 
d="M507 614l-183 -616h-54q-58 185 -114.5 371t-111.5 372h68q46 -160 92 -319.5t94 -319.5l180 607h58l181 -611q47 162 95 322.5t94 320.5h63q-55 -186 -111 -372t-114 -371h-54z" />
    <glyph glyph-name="X" unicode="X" horiz-adv-x="660" 
d="M295 388l-240 353h76l203 -308l206 308h71l-241 -355l262 -386h-75l-226 341l-229 -341h-71z" />
    <glyph glyph-name="Y" unicode="Y" horiz-adv-x="659" 
d="M362 295v-295h-62v297l-266 444h71l228 -390l225 390h67z" />
    <glyph glyph-name="Z" unicode="Z" horiz-adv-x="583" 
d="M450 687h-389l4 54h458v-49l-396 -638h401v-54h-474v49z" />
    <glyph glyph-name="bracketleft" unicode="[" horiz-adv-x="323" 
d="M116 760h176v-47h-116v-883h116v-47h-176v977z" />
    <glyph glyph-name="backslash" unicode="\" horiz-adv-x="424" 
d="M12 760h57l343 -977h-57z" />
    <glyph glyph-name="bracketright" unicode="]" horiz-adv-x="323" 
d="M206 -217h-176v47h117v883h-117v47h176v-977z" />
    <glyph glyph-name="asciicircum" unicode="^" 
d="M296 741h57l185 -404h-59l-155 347l-156 -347h-57z" />
    <glyph glyph-name="underscore" unicode="_" horiz-adv-x="500" 
d="M0 -104h500v-52h-500v52z" />
    <glyph glyph-name="grave" unicode="`" horiz-adv-x="560" 
d="M214 757q7 13 21 24.5t32 15.5l110 -164l-31 -23z" />
    <glyph glyph-name="a" unicode="a" horiz-adv-x="534" 
d="M458 96q0 -23 3 -51t9 -45h-56q-5 15 -8.5 39t-5.5 47q-32 -49 -79.5 -74t-100.5 -25q-70 0 -114 42t-44 109q0 80 66 126.5t194 59.5l77 7v12q0 68 -38 108t-111 40q-38 0 -79 -13t-76 -40l-7 59q36 22 82 33.5t90 11.5q97 0 147.5 -54.5t50.5 -149.5v-242zM232 36
q49 0 93 27t74 79v146l-81 -9q-94 -10 -144.5 -43.5t-50.5 -94.5q0 -47 29 -76t80 -29z" />
    <glyph glyph-name="b" unicode="b" horiz-adv-x="599" 
d="M84 760h60v-319q26 46 71.5 73.5t102.5 27.5q67 0 116 -34t76 -96.5t27 -147.5t-27 -147t-76 -96t-116 -34q-59 0 -105 28.5t-71 76.5v-92h-58v760zM309 492q-58 0 -102 -34t-63 -85v-217q19 -52 63 -86t102 -34q77 0 121.5 62t44.5 166q0 105 -44.5 166.5t-121.5 61.5z
" />
    <glyph glyph-name="c" unicode="c" horiz-adv-x="492" 
d="M63 267q0 83 30 144.5t84.5 96t126.5 34.5q40 0 77.5 -10.5t64.5 -27.5l-17 -54q-27 21 -59 31t-64 10q-83 0 -132.5 -60t-49.5 -163q0 -109 50 -169.5t138 -60.5q35 0 71 10.5t58 29.5l6 -60q-25 -13 -62.5 -22t-78.5 -9q-115 0 -179 74.5t-64 205.5z" />
    <glyph glyph-name="d" unicode="d" horiz-adv-x="599" 
d="M514 0h-57v92q-25 -48 -71.5 -76.5t-105.5 -28.5q-66 0 -114.5 34t-75.5 96t-27 147t27 147.5t76 96.5t115 34q57 0 102.5 -27.5t71.5 -73.5v319h59v-760zM455 156v217q-19 51 -63 85t-102 34q-76 0 -121 -61.5t-45 -166.5q0 -104 45 -166t122 -62q58 0 101.5 34t62.5 86
z" />
    <glyph glyph-name="e" unicode="e" horiz-adv-x="544" 
d="M474 83l6 -59q-30 -17 -71.5 -27t-87.5 -10q-79 0 -137 34.5t-89.5 98t-31.5 151.5q0 81 27 142t77.5 95t121.5 34q92 0 143.5 -61.5t51.5 -179.5v-16.5t-1 -19.5h-361q3 -110 59 -168.5t146 -58.5q38 0 78 11t69 34zM426 311v3q0 89 -36 135t-103 46q-71 0 -113.5 -49.5
t-50.5 -134.5h303z" />
    <glyph glyph-name="f" unicode="f" horiz-adv-x="402" 
d="M137 482h-93v47h93v39q0 98 49.5 151.5t137.5 53.5q45 0 75 -12l-5 -53q-23 14 -64 14q-64 0 -99 -38t-35 -114v-41h161v-47h-161v-482h-59v482z" />
    <glyph glyph-name="g" unicode="g" horiz-adv-x="589" 
d="M514 60q0 -141 -66 -215.5t-190 -74.5q-39 0 -81.5 9.5t-76.5 29.5l6 60q32 -26 72.5 -37t77.5 -11q95 0 147 56t52 164v46q-26 -45 -71.5 -72.5t-102.5 -27.5q-66 0 -115 34t-76 96t-27 147t27 147.5t75.5 96.5t114.5 34q59 0 105.5 -29t71.5 -77v93h57v-469zM124 264
q0 -104 45 -166t121 -62q58 0 102 34t63 85v217q-19 52 -62.5 86t-101.5 34q-77 0 -122 -61.5t-45 -166.5z" />
    <glyph glyph-name="h" unicode="h" horiz-adv-x="575" 
d="M84 760h60v-319q27 46 73 73.5t105 27.5q81 0 130 -51.5t49 -144.5v-346h-59v343q0 68 -35.5 108t-97.5 40q-59 0 -103 -34.5t-62 -83.5v-373h-60v760z" />
    <glyph glyph-name="i" unicode="i" horiz-adv-x="232" 
d="M86 529h59v-529h-59v529zM70 701q0 20 13.5 34t32.5 14t32.5 -14t13.5 -34t-13.5 -34.5t-32.5 -14.5t-32.5 14.5t-13.5 34.5z" />
    <glyph glyph-name="j" unicode="j" horiz-adv-x="232" 
d="M86 529h59v-587q0 -85 -36 -128.5t-104 -43.5q-37 0 -65 13l5 52q21 -14 55 -14q41 0 63.5 30t22.5 89v589zM70 701q0 20 13.5 34t32.5 14t32.5 -14t13.5 -34t-13.5 -34.5t-32.5 -14.5t-32.5 14.5t-13.5 34.5z" />
    <glyph glyph-name="k" unicode="k" horiz-adv-x="516" 
d="M84 760h60v-468q39 35 85.5 76.5t91.5 83.5t81 77h72q-37 -37 -84 -80.5t-95.5 -86.5t-89.5 -79q48 -44 103.5 -95t106.5 -100.5t87 -87.5h-79q-33 35 -81 81.5t-100.5 95.5t-97.5 90v-267h-60v760z" />
    <glyph glyph-name="l" unicode="l" horiz-adv-x="322" 
d="M84 760h60v-623q0 -52 19 -75t62 -23q39 0 68 21l-6 -57q-13 -6 -33 -10t-43 -4q-65 0 -96 34.5t-31 107.5v629z" />
    <glyph glyph-name="m" unicode="m" horiz-adv-x="882" 
d="M84 529h58v-91q26 48 69 76t99 28q58 0 98 -29.5t57 -85.5q27 54 72 84.5t105 30.5q76 0 121 -50t45 -142v-350h-59v347q0 67 -31.5 105.5t-87.5 38.5t-96 -34.5t-58 -83.5v-373h-59v347q0 67 -32 105.5t-87 38.5q-56 0 -96 -34.5t-58 -83.5v-373h-60v529z" />
    <glyph glyph-name="n" unicode="n" horiz-adv-x="575" 
d="M84 529h58v-92q27 48 73.5 76.5t106.5 28.5q81 0 130 -51.5t49 -144.5v-346h-59v343q0 68 -35.5 108t-97.5 40q-59 0 -103 -34.5t-62 -83.5v-373h-60v529z" />
    <glyph glyph-name="o" unicode="o" horiz-adv-x="597" 
d="M63 272q0 122 60.5 196t175.5 74q114 0 174.5 -74t60.5 -196q0 -130 -59.5 -207.5t-175.5 -77.5q-115 0 -175.5 77.5t-60.5 207.5zM473 272q0 103 -45.5 161.5t-128.5 58.5q-84 0 -129.5 -58.5t-45.5 -161.5q0 -109 46 -172.5t129 -63.5t128.5 63.5t45.5 172.5z" />
    <glyph glyph-name="p" unicode="p" horiz-adv-x="599" 
d="M84 529h58v-93q25 48 71 77t105 29q67 0 116 -34t76 -96.5t27 -147.5t-27 -147t-76 -96t-116 -34q-57 0 -102.5 27.5t-71.5 72.5v-312h-60v754zM144 372v-217q19 -51 63 -85t102 -34q77 0 121.5 62t44.5 166q0 105 -44.5 166.5t-121.5 61.5q-58 0 -102 -34t-63 -86z" />
    <glyph glyph-name="q" unicode="q" horiz-adv-x="599" 
d="M514 -225h-59v312q-26 -45 -71.5 -72.5t-102.5 -27.5q-66 0 -115 34t-76 96t-27 147t27 147.5t75.5 96.5t114.5 34q59 0 105.5 -29t71.5 -77v93h57v-754zM290 36q58 0 102 34t63 85v217q-19 52 -62.5 86t-101.5 34q-77 0 -122 -61.5t-45 -166.5q0 -104 45 -166t121 -62z
" />
    <glyph glyph-name="r" unicode="r" horiz-adv-x="393" 
d="M84 529h58v-115q26 60 72.5 94t106.5 34q11 0 20.5 -1t17.5 -3l-8 -64q-18 8 -41 8q-40 0 -73 -19t-57 -51t-36 -70v-342h-60v529z" />
    <glyph glyph-name="s" unicode="s" horiz-adv-x="472" 
d="M213 -13q-44 0 -86.5 11t-71.5 29l8 61q32 -25 72 -38.5t79 -13.5q68 0 104.5 28t36.5 75q0 25 -11 43t-38.5 34t-79.5 34q-88 31 -123 65t-35 84q0 45 24 77t65 49t91 17q39 0 76 -10.5t65 -27.5l-18 -52q-53 41 -122 41q-53 0 -87.5 -23t-34.5 -67q0 -35 29.5 -57
t103.5 -48q61 -22 94 -45t46 -50.5t13 -61.5q0 -72 -54 -113t-146 -41z" />
    <glyph glyph-name="t" unicode="t" horiz-adv-x="401" 
d="M128 482h-94v47h94v120l59 28v-148h164v-47h-164v-325q0 -62 23 -90.5t78 -28.5q17 0 39 5t35 15l-6 -57q-17 -7 -40.5 -10.5t-43.5 -3.5q-73 0 -108.5 39t-35.5 120v336z" />
    <glyph glyph-name="u" unicode="u" horiz-adv-x="572" 
d="M428 529h59v-529h-57v92q-28 -49 -74.5 -77t-105.5 -28q-79 0 -127.5 51t-48.5 145v346h60v-343q0 -69 35 -108.5t94 -39.5q58 0 102 34t63 84v373z" />
    <glyph glyph-name="v" unicode="v" horiz-adv-x="525" 
d="M24 529h63q44 -115 88 -229t89 -228q46 114 90 228.5t87 228.5h59q-103 -265 -213 -531h-50q-54 133 -107.5 265.5t-105.5 265.5z" />
    <glyph glyph-name="w" unicode="w" horiz-adv-x="763" 
d="M382 435l-133 -437h-47q-87 266 -168 531h63q31 -110 64 -218.5t66 -216.5l128 426h53l129 -432q34 111 67 221t65 220h59q-81 -265 -168 -531h-46z" />
    <glyph glyph-name="x" unicode="x" horiz-adv-x="497" 
d="M215 277l-179 252h67l147 -214l150 214h66l-183 -255l197 -274h-68l-164 235l-165 -235h-65z" />
    <glyph glyph-name="y" unicode="y" horiz-adv-x="525" 
d="M288 -2q-33 -82 -65 -132.5t-70 -73t-90 -22.5q-24 0 -44 4.5t-37 11.5l6 55q33 -20 74 -20q54 0 92 39.5t70 120.5l10 25q-54 130 -106.5 261t-103.5 262h63q44 -115 88 -229t89 -228q46 114 90 228.5t87 228.5h59q-52 -133 -104.5 -265t-107.5 -266z" />
    <glyph glyph-name="z" unicode="z" horiz-adv-x="465" 
d="M114 47h307v-47h-377v43l301 438h-293v48h362v-43z" />
    <glyph glyph-name="braceleft" unicode="{" horiz-adv-x="323" 
d="M176 389q0 -47 -16 -74.5t-56 -42.5q40 -16 56 -43t16 -75v-222q0 -51 26 -76t69 -25h21v-48h-23q-85 0 -119 44t-34 114v217q0 47 -18.5 66t-70.5 25v45q52 6 70.5 25t18.5 66v217q0 70 34 114t119 44h23v-48h-21q-43 0 -69 -25t-26 -76v-222z" />
    <glyph glyph-name="bar" unicode="|" horiz-adv-x="246" 
d="M93 760h60v-977h-60v977z" />
    <glyph glyph-name="braceright" unicode="}" horiz-adv-x="323" 
d="M147 154q0 47 16 74.5t56 42.5q-40 16 -56 43t-16 75v222q0 51 -26 76t-70 25h-21v48h24q85 0 118.5 -44t33.5 -114v-217q0 -47 19 -66t70 -25v-45q-51 -6 -70 -25t-19 -66v-217q0 -70 -33.5 -114t-118.5 -44h-24v48h21q44 0 70 25t26 76v222z" />
    <glyph glyph-name="asciitilde" unicode="~" 
d="M445 257q-20 0 -38 5t-38.5 18.5t-51.5 36.5q-32 25 -51 38t-31.5 18t-25.5 5q-34 0 -52.5 -28t-26.5 -90l-55 13q9 74 43.5 117.5t86.5 43.5q21 0 38.5 -5t38.5 -17.5t51 -36.5q32 -25 51 -38.5t31.5 -18t25.5 -4.5q34 0 53 28t26 89l55 -13q-9 -74 -43.5 -117.5
t-86.5 -43.5z" />
    <glyph glyph-name="uni00A0" unicode="&#xa0;" horiz-adv-x="234" 
 />
    <glyph glyph-name="exclamdown" unicode="&#xa1;" horiz-adv-x="230" 
d="M93 316h45l17 -539q-5 -7 -15.5 -12.5t-24.5 -5.5q-13 0 -24 5.5t-16 12.5zM163 476q0 -22 -13.5 -37t-34.5 -15q-20 0 -33.5 15t-13.5 37q0 23 13.5 38t33.5 15q21 0 34.5 -15t13.5 -38z" />
    <glyph glyph-name="cent" unicode="&#xa2;" 
d="M355 141q9 -1 19 -1q43 0 82.5 11.5t61.5 29.5l6 -59q-25 -13 -68.5 -22t-87.5 -9q-10 0 -19 1l-14 -125h-48l15 132q-82 20 -128 90.5t-46 178.5q0 83 29.5 144.5t82.5 96t124 37.5l15 128h48l-15 -130q31 -4 60 -13t51 -23l-17 -54q-44 32 -100 39zM221 229
q31 -57 87 -78l50 443q-78 -7 -123 -66t-45 -157q0 -85 31 -142z" />
    <glyph glyph-name="sterling" unicode="&#xa3;" 
d="M378 754q44 0 84 -11t70 -31l-19 -56q-58 45 -132 45q-73 0 -115.5 -42t-42.5 -113q0 -35 7 -69.5t16 -68.5h233l-15 -52h-204q7 -29 12 -59t5 -62q0 -52 -18 -99.5t-51 -81.5h349v-54h-484v54h63q39 23 59 73.5t20 102.5q0 34 -6 65t-14 61h-124v52h110
q-8 32 -14.5 65.5t-6.5 71.5q0 96 59 152.5t159 56.5z" />
    <glyph glyph-name="currency" unicode="&#xa4;" 
d="M325 117q-40 0 -77.5 14t-66.5 38l-75 -75l-38 38l74 76q-22 29 -35.5 65.5t-13.5 76.5q0 41 13.5 77.5t35.5 65.5l-74 75l38 38l75 -74q29 24 66.5 37.5t77.5 13.5q41 0 78 -13.5t66 -37.5l75 74l38 -38l-74 -75q23 -29 36 -65.5t13 -77.5q0 -40 -13 -76.5t-36 -65.5
l74 -76l-38 -38l-75 75q-29 -24 -66 -38t-78 -14zM325 532q-49 0 -89 -24.5t-64 -65.5t-24 -92q0 -50 24 -91.5t64 -66t89 -24.5t89 24.5t64 66t24 91.5q0 51 -24 92t-64 65.5t-89 24.5z" />
    <glyph glyph-name="yen" unicode="&#xa5;" 
d="M329 353l210 388h67l-188 -337h150v-52h-180l-30 -54v-59h210v-53h-210v-186h-63v186h-213v53h213v58l-31 55h-182v52h153l-191 337h71z" />
    <glyph glyph-name="brokenbar" unicode="&#xa6;" horiz-adv-x="246" 
d="M93 175h60v-392h-60v392zM93 760h60v-392h-60v392z" />
    <glyph glyph-name="section" unicode="&#xa7;" horiz-adv-x="607" 
d="M60 -49l6 58q36 -35 97 -58.5t122 -23.5q42 0 76.5 10t60.5 29q4 39 -12.5 78t-53.5 69l-156 126q-68 55 -105.5 116t-37.5 139q0 76 33 134.5t92.5 92t137.5 33.5q53 0 104.5 -16t94.5 -45l-14 -53q-47 35 -95.5 51t-95.5 16q-76 0 -128 -37q-6 -40 11 -80t53 -69
l157 -127q68 -55 105.5 -115.5t37.5 -138.5q0 -76 -34 -135t-95.5 -92t-143.5 -33q-62 0 -122.5 20t-94.5 51zM232 278l132 -106q47 -37 73.5 -77t26.5 -85q35 51 35 124q0 68 -33 121t-92 100l-132 106q-48 38 -73.5 78.5t-25.5 86.5q-36 -51 -36 -125q0 -69 33.5 -122.5
t91.5 -100.5z" />
    <glyph glyph-name="dieresis" unicode="&#xa8;" horiz-adv-x="560" 
d="M330 700q0 20 13 34t32 14q18 0 31.5 -14t13.5 -34q0 -19 -13.5 -33.5t-31.5 -14.5q-19 0 -32 14.5t-13 33.5zM139 700q0 20 13.5 34t31.5 14t31.5 -14t13.5 -34q0 -19 -13.5 -33.5t-31.5 -14.5t-31.5 14.5t-13.5 33.5z" />
    <glyph glyph-name="copyright" unicode="&#xa9;" horiz-adv-x="800" 
d="M400 -13q-80 0 -148 29t-118 81.5t-78 123t-28 153.5t28 153.5t78 123t118 81.5t148 29t148 -29t118 -81.5t78 -123t28 -153.5t-28 -153.5t-78 -123t-118 -81.5t-148 -29zM400 38q69 0 127 25.5t101 71t67 106.5t24 133t-24 133.5t-67 107t-101 70.5t-127 25t-127 -25
t-101 -70.5t-67 -107t-24 -133.5t24 -133t67 -106.5t101 -71t127 -25.5zM415 525q-60 0 -95.5 -39.5t-35.5 -108.5t35 -108t100 -39q59 0 102 31l6 -51q-22 -11 -52.5 -17.5t-59.5 -6.5q-87 0 -134.5 51t-47.5 140t48.5 140t133.5 51q59 0 108 -27l-12 -46q-24 15 -47 22.5
t-49 7.5z" />
    <glyph glyph-name="ordfeminine" unicode="&#xaa;" horiz-adv-x="420" 
d="M342 442q0 -18 2 -36.5t6 -31.5h-48q-7 24 -9 57q-24 -34 -58 -50t-69 -16q-52 0 -84 30t-32 77q0 111 188 129l54 5v9q0 47 -26 72.5t-78 25.5q-28 0 -57.5 -9t-55.5 -27l-4 46q26 14 59 22.5t65 8.5q72 0 109.5 -38t37.5 -105v-169zM100 475q0 -31 20 -50.5t54 -19.5
q32 0 63.5 17t54.5 52v96l-55 -5q-67 -7 -102 -29t-35 -61z" />
    <glyph glyph-name="guillemotleft" unicode="&#xab;" horiz-adv-x="560" 
d="M226 493h61l-162 -221l162 -219h-61l-167 219zM426 493h61l-162 -221l162 -219h-61l-167 219z" />
    <glyph glyph-name="logicalnot" unicode="&#xac;" 
d="M507 433h-420v53h476v-273h-56v220z" />
    <glyph glyph-name="uni00AD" unicode="&#xad;" horiz-adv-x="290" 
d="M28 309h233v-54h-233v54z" />
    <glyph glyph-name="registered" unicode="&#xae;" horiz-adv-x="800" 
d="M134 97.5q-50 52.5 -78 123t-28 153.5t28 153.5t78 123t118 81.5t148 29t148 -29t118 -81.5t78 -123t28 -153.5t-28 -153.5t-78 -123t-118 -81.5t-148 -29t-148 29t-118 81.5zM628 134.5q43 45.5 67 106.5t24 133t-24 133.5t-67 107t-101 70.5t-127 25t-127 -25
t-101 -70.5t-67 -107t-24 -133.5t24 -133t67 -106.5t101 -71t127 -25.5t127 25.5t101 71zM484.5 536.5q42.5 -24.5 42.5 -77.5q0 -41 -26.5 -64.5t-68.5 -31.5q36 -14 67 -54t63 -115h-58q-26 58 -49 91.5t-50 48.5t-66 15h-21v-155h-51v367h111q64 0 106.5 -24.5zM378 522
h-60v-134h60q41 0 69 18t28 50q0 34 -28 50t-69 16z" />
    <glyph glyph-name="macron" unicode="&#xaf;" horiz-adv-x="560" 
d="M143 713h274v-48h-274v48z" />
    <glyph glyph-name="degree" unicode="&#xb0;" horiz-adv-x="422" 
d="M42 590q0 46 22.5 83t61 59t85.5 22q48 0 86 -22t60.5 -59t22.5 -83q0 -45 -22.5 -82t-60.5 -59t-86 -22q-47 0 -85.5 22t-61 59t-22.5 82zM327 590q0 49 -33 83.5t-83 34.5q-49 0 -82.5 -34.5t-33.5 -83.5t33.5 -82.5t82.5 -33.5q50 0 83 33.5t33 82.5z" />
    <glyph glyph-name="plusminus" unicode="&#xb1;" 
d="M297 643h56v-222h210v-52h-210v-222h-56v222h-210v52h210v222zM87 52h476v-52h-476v52z" />
    <glyph glyph-name="uni00B2" unicode="&#xb2;" horiz-adv-x="388" 
d="M188 655q45 28 64 50.5t19 47.5q0 30 -24.5 48t-65.5 18q-63 0 -113 -40l-3 45q53 35 123 35q61 0 97 -29.5t36 -76.5q0 -33 -22 -61.5t-77 -62.5q-52 -31 -75.5 -56t-33.5 -57h220l-4 -40h-273q2 56 33 96.5t99 82.5z" />
    <glyph glyph-name="uni00B3" unicode="&#xb3;" horiz-adv-x="372" 
d="M242 812h-188l4 39h242l-4 -34l-115 -114q61 0 97 -29t36 -79q0 -57 -45 -91.5t-116 -34.5q-62 0 -114 26l4 44q49 -29 107 -29q50 0 81 23t31 63q0 37 -27 56.5t-70 19.5q-29 0 -44 -6v25z" />
    <glyph glyph-name="acute" unicode="&#xb4;" horiz-adv-x="560" 
d="M294 797q18 -4 32 -15.5t21 -24.5l-133 -147l-31 23z" />
    <glyph glyph-name="uni00B5" unicode="&#xb5;" horiz-adv-x="572" 
d="M74 529h60v-343q0 -69 35 -108.5t94 -39.5q58 0 102 34t63 84v373h59v-529h-57v92q-28 -49 -73 -77t-105 -28q-34 0 -64.5 12t-53.5 41v-257h-60v746z" />
    <glyph glyph-name="paragraph" unicode="&#xb6;" horiz-adv-x="655" 
d="M559 -108h-55v797h-143v-797h-55v417q-119 3 -191 56t-72 160q0 110 75.5 163t208.5 53h232v-849zM306 689q-103 -1 -154.5 -43t-51.5 -121q0 -160 206 -164v328z" />
    <glyph glyph-name="periodcentered" unicode="&#xb7;" horiz-adv-x="248" 
d="M76 264q0 23 14 37.5t34 14.5t34 -14.5t14 -37.5q0 -22 -14 -37t-34 -15t-34 15t-14 37z" />
    <glyph glyph-name="cedilla" unicode="&#xb8;" horiz-adv-x="560" 
d="M255 4h44l-19 -73q51 -1 78 -22t27 -58q0 -42 -31 -66t-90 -24q-21 0 -46 6t-39 14l6 46q13 -10 35 -17t44 -7q70 0 70 49q0 44 -68 44q-19 0 -41 -5z" />
    <glyph glyph-name="uni00B9" unicode="&#xb9;" horiz-adv-x="380" 
d="M221 519h100v-43h-255v43h107v280l-99 -47l-4 43l116 56h35v-332z" />
    <glyph glyph-name="ordmasculine" unicode="&#xba;" horiz-adv-x="420" 
d="M42 565q0 86 43 137.5t125 51.5t125 -51.5t43 -137.5q0 -91 -42.5 -145.5t-125.5 -54.5t-125.5 54.5t-42.5 145.5zM327 565q0 65 -30.5 105t-86.5 40q-55 0 -86 -40t-31 -105q0 -71 31 -113.5t86 -42.5q56 0 86.5 42.5t30.5 113.5z" />
    <glyph glyph-name="guillemotright" unicode="&#xbb;" horiz-adv-x="560" 
d="M235 273l-162 220h61l167 -220l-167 -220h-61zM435 273l-162 220h61l167 -220l-167 -220h-61z" />
    <glyph glyph-name="onequarter" unicode="&#xbc;" horiz-adv-x="817" 
d="M221 409h100v-43h-255v43h107v280l-99 -47l-4 43l116 56h35v-332zM656 741h61l-525 -741h-61zM675 375h50v-248h69l-3 -39h-66v-88h-49v88h-242v31zM492 127h184v195z" />
    <glyph glyph-name="onehalf" unicode="&#xbd;" horiz-adv-x="834" 
d="M221 409h100v-43h-255v43h107v280l-99 -47l-4 43l116 56h35v-332zM649 741h61l-525 -741h-61zM634 179q45 28 64 50.5t19 47.5q0 30 -24.5 48t-65.5 18q-63 0 -113 -40l-3 45q53 35 123 35q61 0 97 -29.5t36 -76.5q0 -33 -22 -61.5t-77 -62.5q-52 -31 -75.5 -56
t-33.5 -57h220l-4 -40h-273q2 56 33 96.5t99 82.5z" />
    <glyph glyph-name="threequarters" unicode="&#xbe;" horiz-adv-x="808" 
d="M242 702h-188l4 39h242l-4 -34l-115 -114q61 0 97 -29t36 -79q0 -57 -45 -91.5t-116 -34.5q-62 0 -114 26l4 44q49 -29 107 -29q50 0 81 23t31 63q0 37 -27 56.5t-70 19.5q-29 0 -44 -6v25zM638 741h61l-525 -741h-61zM667 375h50v-248h69l-3 -39h-66v-88h-49v88h-242v31
zM484 127h184v195z" />
    <glyph glyph-name="questiondown" unicode="&#xbf;" horiz-adv-x="460" 
d="M244 316h46q2 -33 -5 -61.5t-28.5 -58.5t-61.5 -70q-47 -47 -69.5 -86.5t-22.5 -82.5q0 -67 40.5 -103t105.5 -36q49 0 94 21t81 59l5 -70q-36 -29 -85 -46t-102 -17q-58 0 -104 23t-72 66t-26 101q0 49 26 96.5t90 108.5q48 46 67 81t21 75zM231.5 514q13.5 15 34.5 15
q20 0 33.5 -15t13.5 -38q0 -22 -13.5 -37t-33.5 -15q-21 0 -34.5 15t-13.5 37q0 23 13.5 38z" />
    <glyph glyph-name="Agrave" unicode="&#xc0;" horiz-adv-x="721" 
d="M326 743h69q72 -185 142.5 -371t139.5 -372h-67q-22 61 -44 121.5t-44 121.5h-326q-45 -123 -88 -243h-64q69 186 139.5 372t142.5 371zM359 680q-36 -95 -72 -191t-71 -192h286q-36 96 -71.5 192t-71.5 191zM234 944q8 14 21 26.5t31 16.5l119 -152l-31 -27z" />
    <glyph glyph-name="Aacute" unicode="&#xc1;" horiz-adv-x="721" 
d="M326 743h69q72 -185 142.5 -371t139.5 -372h-67q-22 61 -44 121.5t-44 121.5h-326q-45 -123 -88 -243h-64q69 186 139.5 372t142.5 371zM359 680q-36 -95 -72 -191t-71 -192h286q-36 96 -71.5 192t-71.5 191zM432 987q17 -4 31 -16.5t21 -26.5l-140 -136l-31 27z" />
    <glyph glyph-name="Acircumflex" unicode="&#xc2;" horiz-adv-x="721" 
d="M326 743h69q72 -185 142.5 -371t139.5 -372h-67q-22 61 -44 121.5t-44 121.5h-326q-45 -123 -88 -243h-64q69 186 139.5 372t142.5 371zM359 680q-36 -95 -72 -191t-71 -192h286q-36 96 -71.5 192t-71.5 191zM329 977h60l123 -146l-33 -25l-120 121l-120 -121l-33 25z
" />
    <glyph glyph-name="Atilde" unicode="&#xc3;" horiz-adv-x="721" 
d="M326 743h69q72 -185 142.5 -371t139.5 -372h-67q-22 61 -44 121.5t-44 121.5h-326q-45 -123 -88 -243h-64q69 186 139.5 372t142.5 371zM359 680q-36 -95 -72 -191t-71 -192h286q-36 96 -71.5 192t-71.5 191zM477 948l43 -10q-3 -50 -27 -79t-63 -29q-19 0 -37.5 8
t-44.5 30q-23 20 -34 25.5t-25 5.5q-41 0 -47 -68l-43 10q3 50 27 78.5t63 28.5q19 0 38 -8t44 -29q23 -19 34.5 -25.5t24.5 -6.5q41 0 47 69z" />
    <glyph glyph-name="Adieresis" unicode="&#xc4;" horiz-adv-x="721" 
d="M326 743h69q72 -185 142.5 -371t139.5 -372h-67q-22 61 -44 121.5t-44 121.5h-326q-45 -123 -88 -243h-64q69 186 139.5 372t142.5 371zM359 680q-36 -95 -72 -191t-71 -192h286q-36 96 -71.5 192t-71.5 191zM213 889q0 21 13.5 35t32.5 14t32.5 -14t13.5 -35
q0 -19 -13.5 -33.5t-32.5 -14.5t-32.5 14.5t-13.5 33.5zM414 889q0 21 13.5 35t32.5 14t32 -14t13 -35q0 -19 -13 -33.5t-32 -14.5t-32.5 14.5t-13.5 33.5z" />
    <glyph glyph-name="Aring" unicode="&#xc5;" horiz-adv-x="721" 
d="M326 743h69q72 -185 142.5 -371t139.5 -372h-67q-22 61 -44 121.5t-44 121.5h-326q-45 -123 -88 -243h-64q69 186 139.5 372t142.5 371zM359 680q-36 -95 -72 -191t-71 -192h286q-36 96 -71.5 192t-71.5 191zM359 783q-46 0 -77 28t-31 70q0 44 31 72t77 28
q47 0 77.5 -28t30.5 -72q0 -42 -30.5 -70t-77.5 -28zM359 944q-28 0 -46.5 -17.5t-18.5 -45.5q0 -27 18.5 -44.5t46.5 -17.5q29 0 47 17.5t18 44.5q0 28 -18 45.5t-47 17.5z" />
    <glyph glyph-name="AE" unicode="&#xc6;" horiz-adv-x="964" 
d="M485 741h433l-6 -53h-334v-267h271v-53h-271v-315h352v-53h-415v243h-260l-143 -243h-68zM515 686l-229 -389h229v389z" />
    <glyph glyph-name="Ccedilla" unicode="&#xc7;" horiz-adv-x="636" 
d="M396 40q50 0 101 14.5t87 43.5l8 -64q-37 -22 -92 -34.5t-109 -12.5q-102 0 -174 46.5t-110 133t-38 206.5q0 118 38.5 203.5t111 131.5t172.5 46q55 0 106 -13.5t94 -40.5l-18 -59q-46 33 -89 46.5t-90 13.5q-123 0 -190.5 -86.5t-67.5 -239.5q0 -157 66.5 -246
t193.5 -89zM356 6h45l-20 -75h2q48 0 76.5 -21t28.5 -59q0 -41 -32 -65.5t-91 -24.5q-21 0 -46 6t-39 14l6 47q13 -10 35 -17t44 -7q69 0 69 48q0 43 -68 43q-21 0 -41 -5z" />
    <glyph glyph-name="Egrave" unicode="&#xc8;" horiz-adv-x="553" 
d="M104 741h403l-6 -53h-333v-267h270v-53h-270v-315h351v-53h-415v741zM181 944q8 14 21 26.5t31 16.5l119 -152l-31 -27z" />
    <glyph glyph-name="Eacute" unicode="&#xc9;" horiz-adv-x="553" 
d="M104 741h403l-6 -53h-333v-267h270v-53h-270v-315h351v-53h-415v741zM379 987q17 -4 31 -16.5t21 -26.5l-140 -136l-31 27z" />
    <glyph glyph-name="Ecircumflex" unicode="&#xca;" horiz-adv-x="553" 
d="M104 741h403l-6 -53h-333v-267h270v-53h-270v-315h351v-53h-415v741zM276 977h60l123 -146l-33 -25l-120 121l-120 -121l-33 25z" />
    <glyph glyph-name="Edieresis" unicode="&#xcb;" horiz-adv-x="553" 
d="M104 741h403l-6 -53h-333v-267h270v-53h-270v-315h351v-53h-415v741zM160 889q0 21 13.5 35t32.5 14t32.5 -14t13.5 -35q0 -19 -13.5 -33.5t-32.5 -14.5t-32.5 14.5t-13.5 33.5zM361 889q0 21 13.5 35t32.5 14t32 -14t13 -35q0 -19 -13 -33.5t-32 -14.5t-32.5 14.5
t-13.5 33.5z" />
    <glyph glyph-name="Igrave" unicode="&#xcc;" horiz-adv-x="272" 
d="M104 741h64v-741h-64v741zM10 944q8 14 21 26.5t31 16.5l119 -152l-31 -27z" />
    <glyph glyph-name="Iacute" unicode="&#xcd;" horiz-adv-x="272" 
d="M104 741h64v-741h-64v741zM208 987q17 -4 31 -16.5t21 -26.5l-140 -136l-31 27z" />
    <glyph glyph-name="Icircumflex" unicode="&#xce;" horiz-adv-x="272" 
d="M104 741h64v-741h-64v741zM105 977h60l123 -146l-33 -25l-120 121l-120 -121l-33 25z" />
    <glyph glyph-name="Idieresis" unicode="&#xcf;" horiz-adv-x="272" 
d="M104 741h64v-741h-64v741zM-11 889q0 21 13.5 35t32.5 14t32.5 -14t13.5 -35q0 -19 -13.5 -33.5t-32.5 -14.5t-32.5 14.5t-13.5 33.5zM190 889q0 21 13.5 35t32.5 14t32 -14t13 -35q0 -19 -13 -33.5t-32 -14.5t-32.5 14.5t-13.5 33.5z" />
    <glyph glyph-name="Eth" unicode="&#xd0;" horiz-adv-x="726" 
d="M104 348h-89v53h89v340h169q127 0 212 -47.5t128.5 -130.5t43.5 -192t-43.5 -192.5t-128.5 -131t-212 -47.5h-169v348zM168 53h105q104 0 174.5 39.5t106.5 111t36 166.5q0 96 -36 167.5t-106.5 111t-174.5 39.5h-105v-287h168v-53h-168v-295z" />
    <glyph glyph-name="Ntilde" unicode="&#xd1;" horiz-adv-x="732" 
d="M104 741h72l393 -625l-1 39v586h59v-741h-53l-410 656v-656h-60v741zM484 948l43 -10q-3 -50 -27 -79t-63 -29q-19 0 -37.5 8t-44.5 30q-23 20 -34 25.5t-25 5.5q-41 0 -47 -68l-43 10q3 50 27 78.5t63 28.5q19 0 38 -8t44 -29q23 -19 34.5 -25.5t24.5 -6.5q41 0 47 69z
" />
    <glyph glyph-name="Ograve" unicode="&#xd2;" horiz-adv-x="754" 
d="M69 379q0 111 35 195.5t103.5 132t169.5 47.5q102 0 170.5 -47.5t103 -132t34.5 -195.5q0 -116 -34.5 -204.5t-103 -138t-170.5 -49.5t-170.5 49.5t-103 138t-34.5 204.5zM618 379q0 99 -27.5 171t-81 111.5t-132.5 39.5q-78 0 -131.5 -39.5t-81.5 -111.5t-28 -171
q0 -103 28 -179t82 -118t131 -42q78 0 131.5 42t81.5 118t28 179zM252 944q8 14 21 26.5t31 16.5l119 -152l-31 -27z" />
    <glyph glyph-name="Oacute" unicode="&#xd3;" horiz-adv-x="754" 
d="M69 379q0 111 35 195.5t103.5 132t169.5 47.5q102 0 170.5 -47.5t103 -132t34.5 -195.5q0 -116 -34.5 -204.5t-103 -138t-170.5 -49.5t-170.5 49.5t-103 138t-34.5 204.5zM618 379q0 99 -27.5 171t-81 111.5t-132.5 39.5q-78 0 -131.5 -39.5t-81.5 -111.5t-28 -171
q0 -103 28 -179t82 -118t131 -42q78 0 131.5 42t81.5 118t28 179zM450 987q17 -4 31 -16.5t21 -26.5l-140 -136l-31 27z" />
    <glyph glyph-name="Ocircumflex" unicode="&#xd4;" horiz-adv-x="754" 
d="M69 379q0 111 35 195.5t103.5 132t169.5 47.5q102 0 170.5 -47.5t103 -132t34.5 -195.5q0 -116 -34.5 -204.5t-103 -138t-170.5 -49.5t-170.5 49.5t-103 138t-34.5 204.5zM618 379q0 99 -27.5 171t-81 111.5t-132.5 39.5q-78 0 -131.5 -39.5t-81.5 -111.5t-28 -171
q0 -103 28 -179t82 -118t131 -42q78 0 131.5 42t81.5 118t28 179zM347 977h60l123 -146l-33 -25l-120 121l-120 -121l-33 25z" />
    <glyph glyph-name="Otilde" unicode="&#xd5;" horiz-adv-x="754" 
d="M69 379q0 111 35 195.5t103.5 132t169.5 47.5q102 0 170.5 -47.5t103 -132t34.5 -195.5q0 -116 -34.5 -204.5t-103 -138t-170.5 -49.5t-170.5 49.5t-103 138t-34.5 204.5zM618 379q0 99 -27.5 171t-81 111.5t-132.5 39.5q-78 0 -131.5 -39.5t-81.5 -111.5t-28 -171
q0 -103 28 -179t82 -118t131 -42q78 0 131.5 42t81.5 118t28 179zM495 948l43 -10q-3 -50 -27 -79t-63 -29q-19 0 -37.5 8t-44.5 30q-23 20 -34 25.5t-25 5.5q-41 0 -47 -68l-43 10q3 50 27 78.5t63 28.5q19 0 38 -8t44 -29q23 -19 34.5 -25.5t24.5 -6.5q41 0 47 69z" />
    <glyph glyph-name="Odieresis" unicode="&#xd6;" horiz-adv-x="754" 
d="M69 379q0 111 35 195.5t103.5 132t169.5 47.5q102 0 170.5 -47.5t103 -132t34.5 -195.5q0 -116 -34.5 -204.5t-103 -138t-170.5 -49.5t-170.5 49.5t-103 138t-34.5 204.5zM618 379q0 99 -27.5 171t-81 111.5t-132.5 39.5q-78 0 -131.5 -39.5t-81.5 -111.5t-28 -171
q0 -103 28 -179t82 -118t131 -42q78 0 131.5 42t81.5 118t28 179zM231 889q0 21 13.5 35t32.5 14t32.5 -14t13.5 -35q0 -19 -13.5 -33.5t-32.5 -14.5t-32.5 14.5t-13.5 33.5zM432 889q0 21 13.5 35t32.5 14t32 -14t13 -35q0 -19 -13 -33.5t-32 -14.5t-32.5 14.5t-13.5 33.5z
" />
    <glyph glyph-name="multiply" unicode="&#xd7;" 
d="M326 307l-176 -176l-38 39l175 175l-175 175l38 39l176 -176l175 176l38 -39l-175 -175l175 -175l-38 -39z" />
    <glyph glyph-name="Oslash" unicode="&#xd8;" horiz-adv-x="754" 
d="M90.5 212.5q-21.5 74.5 -21.5 166.5q0 111 35 195.5t103.5 132t169.5 47.5q56 0 102.5 -15t82.5 -43l55 83l39 -25l-60 -91q44 -50 66.5 -122.5t22.5 -161.5q0 -116 -34.5 -204.5t-103 -138t-170.5 -49.5q-58 0 -105.5 16.5t-83.5 48.5l-57 -86l-39 24l62 96
q-42 52 -63.5 126.5zM618 379q0 147 -59 231l-335 -508q29 -30 67.5 -46t85.5 -16q78 0 131.5 42t81.5 118t28 179zM136 379q0 -149 57 -238l334 506q-60 54 -150 54q-78 0 -131.5 -39.5t-81.5 -111.5t-28 -171z" />
    <glyph glyph-name="Ugrave" unicode="&#xd9;" horiz-adv-x="704" 
d="M610 252q0 -126 -67.5 -195.5t-189.5 -69.5q-123 0 -191 69.5t-68 195.5v489h64v-479q0 -221 195 -221q95 0 145.5 54t50.5 158v488h61v-489zM227 944q8 14 21 26.5t31 16.5l119 -152l-31 -27z" />
    <glyph glyph-name="Uacute" unicode="&#xda;" horiz-adv-x="704" 
d="M610 252q0 -126 -67.5 -195.5t-189.5 -69.5q-123 0 -191 69.5t-68 195.5v489h64v-479q0 -221 195 -221q95 0 145.5 54t50.5 158v488h61v-489zM425 987q17 -4 31 -16.5t21 -26.5l-140 -136l-31 27z" />
    <glyph glyph-name="Ucircumflex" unicode="&#xdb;" horiz-adv-x="704" 
d="M610 252q0 -126 -67.5 -195.5t-189.5 -69.5q-123 0 -191 69.5t-68 195.5v489h64v-479q0 -221 195 -221q95 0 145.5 54t50.5 158v488h61v-489zM322 977h60l123 -146l-33 -25l-120 121l-120 -121l-33 25z" />
    <glyph glyph-name="Udieresis" unicode="&#xdc;" horiz-adv-x="704" 
d="M610 252q0 -126 -67.5 -195.5t-189.5 -69.5q-123 0 -191 69.5t-68 195.5v489h64v-479q0 -221 195 -221q95 0 145.5 54t50.5 158v488h61v-489zM206 889q0 21 13.5 35t32.5 14t32.5 -14t13.5 -35q0 -19 -13.5 -33.5t-32.5 -14.5t-32.5 14.5t-13.5 33.5zM407 889
q0 21 13.5 35t32.5 14t32 -14t13 -35q0 -19 -13 -33.5t-32 -14.5t-32.5 14.5t-13.5 33.5z" />
    <glyph glyph-name="Yacute" unicode="&#xdd;" horiz-adv-x="659" 
d="M362 295v-295h-62v297l-266 444h71l228 -390l225 390h67zM405 987q17 -4 31 -16.5t21 -26.5l-140 -136l-31 27z" />
    <glyph glyph-name="Thorn" unicode="&#xde;" horiz-adv-x="597" 
d="M104 741h64v-150h118q78 0 138.5 -23t94.5 -70t34 -119q0 -71 -34 -118.5t-94.5 -70.5t-138.5 -23h-118v-167h-64v741zM487 379q0 81 -55 120.5t-147 39.5h-117v-320h117q92 0 147 39t55 121z" />
    <glyph glyph-name="germandbls" unicode="&#xdf;" horiz-adv-x="619" 
d="M144 0h-60v534q0 83 27 135.5t73.5 78t106.5 25.5q59 0 100.5 -24.5t63.5 -66.5t22 -95v-19q-56 -32 -86 -66t-30 -75q0 -28 18.5 -53.5t58.5 -56.5q53 -40 80.5 -69.5t37.5 -55t10 -53.5q0 -72 -52 -112t-135 -40q-43 0 -82.5 11.5t-68.5 30.5l7 63q30 -28 68 -42
t78 -14q57 0 92 26t35 74q0 19 -8 38t-30.5 43t-67.5 57q-56 42 -76.5 75.5t-20.5 72.5q0 45 26 82.5t89 81.5q-1 62 -37.5 99t-92.5 37q-61 0 -103.5 -44t-42.5 -143v-535z" />
    <glyph glyph-name="agrave" unicode="&#xe0;" horiz-adv-x="534" 
d="M458 96q0 -23 3 -51t9 -45h-56q-5 15 -8.5 39t-5.5 47q-32 -49 -79.5 -74t-100.5 -25q-70 0 -114 42t-44 109q0 80 66 126.5t194 59.5l77 7v12q0 68 -38 108t-111 40q-38 0 -79 -13t-76 -40l-7 59q36 22 82 33.5t90 11.5q97 0 147.5 -54.5t50.5 -149.5v-242zM232 36
q49 0 93 27t74 79v146l-81 -9q-94 -10 -144.5 -43.5t-50.5 -94.5q0 -47 29 -76t80 -29zM155 757q7 13 21 24.5t32 15.5l110 -164l-31 -23z" />
    <glyph glyph-name="aacute" unicode="&#xe1;" horiz-adv-x="534" 
d="M458 96q0 -23 3 -51t9 -45h-56q-5 15 -8.5 39t-5.5 47q-32 -49 -79.5 -74t-100.5 -25q-70 0 -114 42t-44 109q0 80 66 126.5t194 59.5l77 7v12q0 68 -38 108t-111 40q-38 0 -79 -13t-76 -40l-7 59q36 22 82 33.5t90 11.5q97 0 147.5 -54.5t50.5 -149.5v-242zM232 36
q49 0 93 27t74 79v146l-81 -9q-94 -10 -144.5 -43.5t-50.5 -94.5q0 -47 29 -76t80 -29zM325 797q18 -4 32 -15.5t21 -24.5l-133 -147l-31 23z" />
    <glyph glyph-name="acircumflex" unicode="&#xe2;" horiz-adv-x="534" 
d="M458 96q0 -23 3 -51t9 -45h-56q-5 15 -8.5 39t-5.5 47q-32 -49 -79.5 -74t-100.5 -25q-70 0 -114 42t-44 109q0 80 66 126.5t194 59.5l77 7v12q0 68 -38 108t-111 40q-38 0 -79 -13t-76 -40l-7 59q36 22 82 33.5t90 11.5q97 0 147.5 -54.5t50.5 -149.5v-242zM232 36
q49 0 93 27t74 79v146l-81 -9q-94 -10 -144.5 -43.5t-50.5 -94.5q0 -47 29 -76t80 -29zM238 794h56l125 -164l-32 -24l-121 138l-121 -138l-32 24z" />
    <glyph glyph-name="atilde" unicode="&#xe3;" horiz-adv-x="534" 
d="M458 96q0 -23 3 -51t9 -45h-56q-5 15 -8.5 39t-5.5 47q-32 -49 -79.5 -74t-100.5 -25q-70 0 -114 42t-44 109q0 80 66 126.5t194 59.5l77 7v12q0 68 -38 108t-111 40q-38 0 -79 -13t-76 -40l-7 59q36 22 82 33.5t90 11.5q97 0 147.5 -54.5t50.5 -149.5v-242zM232 36
q49 0 93 27t74 79v146l-81 -9q-94 -10 -144.5 -43.5t-50.5 -94.5q0 -47 29 -76t80 -29zM198 750q19 0 37.5 -8t42.5 -30q22 -21 33 -27t24 -6q20 0 32.5 18.5t14.5 51.5l43 -10q-3 -50 -27 -78.5t-63 -28.5q-19 0 -37.5 8t-42.5 30q-22 20 -33 26t-24 6q-20 0 -32.5 -18.5
t-14.5 -51.5l-43 11q3 50 27 78.5t63 28.5z" />
    <glyph glyph-name="adieresis" unicode="&#xe4;" horiz-adv-x="534" 
d="M458 96q0 -23 3 -51t9 -45h-56q-5 15 -8.5 39t-5.5 47q-32 -49 -79.5 -74t-100.5 -25q-70 0 -114 42t-44 109q0 80 66 126.5t194 59.5l77 7v12q0 68 -38 108t-111 40q-38 0 -79 -13t-76 -40l-7 59q36 22 82 33.5t90 11.5q97 0 147.5 -54.5t50.5 -149.5v-242zM232 36
q49 0 93 27t74 79v146l-81 -9q-94 -10 -144.5 -43.5t-50.5 -94.5q0 -47 29 -76t80 -29zM317 700q0 20 13 34t32 14q18 0 31.5 -14t13.5 -34q0 -19 -13.5 -33.5t-31.5 -14.5q-19 0 -32 14.5t-13 33.5zM126 700q0 20 13.5 34t31.5 14t31.5 -14t13.5 -34q0 -19 -13.5 -33.5
t-31.5 -14.5t-31.5 14.5t-13.5 33.5z" />
    <glyph glyph-name="aring" unicode="&#xe5;" horiz-adv-x="534" 
d="M458 96q0 -23 3 -51t9 -45h-56q-5 15 -8.5 39t-5.5 47q-32 -49 -79.5 -74t-100.5 -25q-70 0 -114 42t-44 109q0 80 66 126.5t194 59.5l77 7v12q0 68 -38 108t-111 40q-38 0 -79 -13t-76 -40l-7 59q36 22 82 33.5t90 11.5q97 0 147.5 -54.5t50.5 -149.5v-242zM232 36
q49 0 93 27t74 79v146l-81 -9q-94 -10 -144.5 -43.5t-50.5 -94.5q0 -47 29 -76t80 -29zM266 609q-46 0 -77 28.5t-31 72.5q0 45 31 73.5t77 28.5t77 -28.5t31 -73.5q0 -44 -31 -72.5t-77 -28.5zM266 775q-28 0 -46.5 -18t-18.5 -47t18.5 -47t46.5 -18q29 0 47 18.5t18 46.5
q0 29 -18 47t-47 18z" />
    <glyph glyph-name="ae" unicode="&#xe6;" horiz-adv-x="881" 
d="M62 132q0 76 64 122.5t199 53.5l74 4v31q0 68 -38 108t-111 40q-38 0 -79 -13t-76 -39l-7 58q36 22 82 33.5t90 11.5q69 0 113.5 -31t62.5 -86q26 55 74.5 86t114.5 31q92 0 144 -61.5t52 -179.5v-16.5t-1 -19.5h-362q3 -110 59 -168.5t147 -58.5q38 0 78 11t69 34l6 -60
q-30 -16 -72 -26t-88 -10q-76 0 -132.5 32t-88.5 90q-41 -62 -96 -92t-115 -30q-76 0 -119.5 41.5t-43.5 103.5zM416 156q-17 51 -17 112l-69 -4q-109 -6 -158 -39.5t-49 -90.5q0 -42 29 -70t80 -28q54 0 102.5 30.5t81.5 89.5zM726.5 449q-36.5 46 -103.5 46
q-70 0 -113 -49.5t-51 -134.5h304v3q0 89 -36.5 135z" />
    <glyph glyph-name="ccedilla" unicode="&#xe7;" horiz-adv-x="492" 
d="M63 267q0 83 30 144.5t84.5 96t126.5 34.5q40 0 77.5 -10.5t64.5 -27.5l-17 -54q-27 21 -59 31t-64 10q-83 0 -132.5 -60t-49.5 -163q0 -109 50 -169.5t138 -60.5q35 0 71 10.5t58 29.5l6 -60q-25 -13 -62.5 -22t-78.5 -9q-115 0 -179 74.5t-64 205.5zM274 4h44l-19 -73
q51 -1 78 -22t27 -58q0 -42 -31 -66t-90 -24q-21 0 -46 6t-39 14l6 46q13 -10 35 -17t44 -7q70 0 70 49q0 44 -68 44q-19 0 -41 -5z" />
    <glyph glyph-name="egrave" unicode="&#xe8;" horiz-adv-x="544" 
d="M474 83l6 -59q-30 -17 -71.5 -27t-87.5 -10q-79 0 -137 34.5t-89.5 98t-31.5 151.5q0 81 27 142t77.5 95t121.5 34q92 0 143.5 -61.5t51.5 -179.5v-16.5t-1 -19.5h-361q3 -110 59 -168.5t146 -58.5q38 0 78 11t69 34zM426 311v3q0 89 -36 135t-103 46q-71 0 -113.5 -49.5
t-50.5 -134.5h303zM172 757q7 13 21 24.5t32 15.5l110 -164l-31 -23z" />
    <glyph glyph-name="eacute" unicode="&#xe9;" horiz-adv-x="544" 
d="M474 83l6 -59q-30 -17 -71.5 -27t-87.5 -10q-79 0 -137 34.5t-89.5 98t-31.5 151.5q0 81 27 142t77.5 95t121.5 34q92 0 143.5 -61.5t51.5 -179.5v-16.5t-1 -19.5h-361q3 -110 59 -168.5t146 -58.5q38 0 78 11t69 34zM426 311v3q0 89 -36 135t-103 46q-71 0 -113.5 -49.5
t-50.5 -134.5h303zM342 797q18 -4 32 -15.5t21 -24.5l-133 -147l-31 23z" />
    <glyph glyph-name="ecircumflex" unicode="&#xea;" horiz-adv-x="544" 
d="M474 83l6 -59q-30 -17 -71.5 -27t-87.5 -10q-79 0 -137 34.5t-89.5 98t-31.5 151.5q0 81 27 142t77.5 95t121.5 34q92 0 143.5 -61.5t51.5 -179.5v-16.5t-1 -19.5h-361q3 -110 59 -168.5t146 -58.5q38 0 78 11t69 34zM426 311v3q0 89 -36 135t-103 46q-71 0 -113.5 -49.5
t-50.5 -134.5h303zM255 794h56l125 -164l-32 -24l-121 138l-121 -138l-32 24z" />
    <glyph glyph-name="edieresis" unicode="&#xeb;" horiz-adv-x="544" 
d="M474 83l6 -59q-30 -17 -71.5 -27t-87.5 -10q-79 0 -137 34.5t-89.5 98t-31.5 151.5q0 81 27 142t77.5 95t121.5 34q92 0 143.5 -61.5t51.5 -179.5v-16.5t-1 -19.5h-361q3 -110 59 -168.5t146 -58.5q38 0 78 11t69 34zM426 311v3q0 89 -36 135t-103 46q-71 0 -113.5 -49.5
t-50.5 -134.5h303zM334 700q0 20 13 34t32 14q18 0 31.5 -14t13.5 -34q0 -19 -13.5 -33.5t-31.5 -14.5q-19 0 -32 14.5t-13 33.5zM143 700q0 20 13.5 34t31.5 14t31.5 -14t13.5 -34q0 -19 -13.5 -33.5t-31.5 -14.5t-31.5 14.5t-13.5 33.5z" />
    <glyph glyph-name="igrave" unicode="&#xec;" horiz-adv-x="232" 
d="M86 529h59v-529h-59v529zM5 757q7 13 21 24.5t32 15.5l110 -164l-31 -23z" />
    <glyph glyph-name="iacute" unicode="&#xed;" horiz-adv-x="232" 
d="M86 529h59v-529h-59v529zM175 797q18 -4 32 -15.5t21 -24.5l-133 -147l-31 23z" />
    <glyph glyph-name="icircumflex" unicode="&#xee;" horiz-adv-x="232" 
d="M86 529h59v-529h-59v529zM88 794h56l125 -164l-32 -24l-121 138l-121 -138l-32 24z" />
    <glyph glyph-name="idieresis" unicode="&#xef;" horiz-adv-x="232" 
d="M86 529h59v-529h-59v529zM167 700q0 20 13 34t32 14q18 0 31.5 -14t13.5 -34q0 -19 -13.5 -33.5t-31.5 -14.5q-19 0 -32 14.5t-13 33.5zM-24 700q0 20 13.5 34t31.5 14t31.5 -14t13.5 -34q0 -19 -13.5 -33.5t-31.5 -14.5t-31.5 14.5t-13.5 33.5z" />
    <glyph glyph-name="eth" unicode="&#xf0;" horiz-adv-x="604" 
d="M295 -13q-72 0 -124 31.5t-80 89t-28 134.5q0 78 27.5 135.5t76 89t110.5 31.5t114 -32.5t85 -89.5q-27 174 -133 273l-120 -100l-26 33l114 95q-61 45 -141 68l45 39q76 -24 138 -73l95 80l26 -33l-89 -74q69 -67 109 -164t40 -217q0 -155 -62.5 -235.5t-176.5 -80.5z
M476 306.5v7.5q-32 62 -81 97.5t-106 35.5q-48 0 -85 -25t-58.5 -70.5t-21.5 -107.5q0 -93 46.5 -150t124.5 -57q86 0 133 63t48 199v7.5z" />
    <glyph glyph-name="ntilde" unicode="&#xf1;" horiz-adv-x="575" 
d="M84 529h58v-92q27 48 73.5 76.5t106.5 28.5q81 0 130 -51.5t49 -144.5v-346h-59v343q0 68 -35.5 108t-97.5 40q-59 0 -103 -34.5t-62 -83.5v-373h-60v529zM230 750q19 0 37.5 -8t42.5 -30q22 -21 33 -27t24 -6q20 0 32.5 18.5t14.5 51.5l43 -10q-3 -50 -27 -78.5
t-63 -28.5q-19 0 -37.5 8t-42.5 30q-22 20 -33 26t-24 6q-20 0 -32.5 -18.5t-14.5 -51.5l-43 11q3 50 27 78.5t63 28.5z" />
    <glyph glyph-name="ograve" unicode="&#xf2;" horiz-adv-x="597" 
d="M63 272q0 122 60.5 196t175.5 74q114 0 174.5 -74t60.5 -196q0 -130 -59.5 -207.5t-175.5 -77.5q-115 0 -175.5 77.5t-60.5 207.5zM473 272q0 103 -45.5 161.5t-128.5 58.5q-84 0 -129.5 -58.5t-45.5 -161.5q0 -109 46 -172.5t129 -63.5t128.5 63.5t45.5 172.5zM188 757
q7 13 21 24.5t32 15.5l110 -164l-31 -23z" />
    <glyph glyph-name="oacute" unicode="&#xf3;" horiz-adv-x="597" 
d="M63 272q0 122 60.5 196t175.5 74q114 0 174.5 -74t60.5 -196q0 -130 -59.5 -207.5t-175.5 -77.5q-115 0 -175.5 77.5t-60.5 207.5zM473 272q0 103 -45.5 161.5t-128.5 58.5q-84 0 -129.5 -58.5t-45.5 -161.5q0 -109 46 -172.5t129 -63.5t128.5 63.5t45.5 172.5zM358 797
q18 -4 32 -15.5t21 -24.5l-133 -147l-31 23z" />
    <glyph glyph-name="ocircumflex" unicode="&#xf4;" horiz-adv-x="597" 
d="M63 272q0 122 60.5 196t175.5 74q114 0 174.5 -74t60.5 -196q0 -130 -59.5 -207.5t-175.5 -77.5q-115 0 -175.5 77.5t-60.5 207.5zM473 272q0 103 -45.5 161.5t-128.5 58.5q-84 0 -129.5 -58.5t-45.5 -161.5q0 -109 46 -172.5t129 -63.5t128.5 63.5t45.5 172.5zM271 794
h56l125 -164l-32 -24l-121 138l-121 -138l-32 24z" />
    <glyph glyph-name="otilde" unicode="&#xf5;" horiz-adv-x="597" 
d="M63 272q0 122 60.5 196t175.5 74q114 0 174.5 -74t60.5 -196q0 -130 -59.5 -207.5t-175.5 -77.5q-115 0 -175.5 77.5t-60.5 207.5zM473 272q0 103 -45.5 161.5t-128.5 58.5q-84 0 -129.5 -58.5t-45.5 -161.5q0 -109 46 -172.5t129 -63.5t128.5 63.5t45.5 172.5zM231 750
q19 0 37.5 -8t42.5 -30q22 -21 33 -27t24 -6q20 0 32.5 18.5t14.5 51.5l43 -10q-3 -50 -27 -78.5t-63 -28.5q-19 0 -37.5 8t-42.5 30q-22 20 -33 26t-24 6q-20 0 -32.5 -18.5t-14.5 -51.5l-43 11q3 50 27 78.5t63 28.5z" />
    <glyph glyph-name="odieresis" unicode="&#xf6;" horiz-adv-x="597" 
d="M63 272q0 122 60.5 196t175.5 74q114 0 174.5 -74t60.5 -196q0 -130 -59.5 -207.5t-175.5 -77.5q-115 0 -175.5 77.5t-60.5 207.5zM473 272q0 103 -45.5 161.5t-128.5 58.5q-84 0 -129.5 -58.5t-45.5 -161.5q0 -109 46 -172.5t129 -63.5t128.5 63.5t45.5 172.5zM350 700
q0 20 13 34t32 14q18 0 31.5 -14t13.5 -34q0 -19 -13.5 -33.5t-31.5 -14.5q-19 0 -32 14.5t-13 33.5zM159 700q0 20 13.5 34t31.5 14t31.5 -14t13.5 -34q0 -19 -13.5 -33.5t-31.5 -14.5t-31.5 14.5t-13.5 33.5z" />
    <glyph glyph-name="divide" unicode="&#xf7;" 
d="M563 319h-476v52h476v-52zM288 185.5q15 15.5 37 15.5t36.5 -15.5t14.5 -38.5q0 -22 -14.5 -37.5t-36.5 -15.5t-37 15.5t-15 37.5q0 23 15 38.5zM288 580.5q15 14.5 37 14.5t36.5 -14.5t14.5 -37.5t-14.5 -38.5t-36.5 -15.5t-37 15.5t-15 38.5t15 37.5z" />
    <glyph glyph-name="oslash" unicode="&#xf8;" horiz-adv-x="597" 
d="M63 272q0 122 60.5 196t175.5 74q81 0 137 -39l47 68l36 -23l-51 -74q66 -72 66 -202t-59.5 -207.5t-175.5 -77.5q-82 0 -138 42l-48 -70l-36 24l51 75q-65 76 -65 214zM473 272q0 96 -39 153l-241 -351q43 -38 106 -38q83 0 128.5 63.5t45.5 172.5zM299 492
q-84 0 -129.5 -58.5t-45.5 -161.5q0 -102 40 -164l239 350q-42 34 -104 34z" />
    <glyph glyph-name="ugrave" unicode="&#xf9;" horiz-adv-x="572" 
d="M428 529h59v-529h-57v92q-28 -49 -74.5 -77t-105.5 -28q-79 0 -127.5 51t-48.5 145v346h60v-343q0 -69 35 -108.5t94 -39.5q58 0 102 34t63 84v373zM170 757q7 13 21 24.5t32 15.5l110 -164l-31 -23z" />
    <glyph glyph-name="uacute" unicode="&#xfa;" horiz-adv-x="572" 
d="M428 529h59v-529h-57v92q-28 -49 -74.5 -77t-105.5 -28q-79 0 -127.5 51t-48.5 145v346h60v-343q0 -69 35 -108.5t94 -39.5q58 0 102 34t63 84v373zM340 797q18 -4 32 -15.5t21 -24.5l-133 -147l-31 23z" />
    <glyph glyph-name="ucircumflex" unicode="&#xfb;" horiz-adv-x="572" 
d="M428 529h59v-529h-57v92q-28 -49 -74.5 -77t-105.5 -28q-79 0 -127.5 51t-48.5 145v346h60v-343q0 -69 35 -108.5t94 -39.5q58 0 102 34t63 84v373zM253 794h56l125 -164l-32 -24l-121 138l-121 -138l-32 24z" />
    <glyph glyph-name="udieresis" unicode="&#xfc;" horiz-adv-x="572" 
d="M428 529h59v-529h-57v92q-28 -49 -74.5 -77t-105.5 -28q-79 0 -127.5 51t-48.5 145v346h60v-343q0 -69 35 -108.5t94 -39.5q58 0 102 34t63 84v373zM332 700q0 20 13 34t32 14q18 0 31.5 -14t13.5 -34q0 -19 -13.5 -33.5t-31.5 -14.5q-19 0 -32 14.5t-13 33.5zM141 700
q0 20 13.5 34t31.5 14t31.5 -14t13.5 -34q0 -19 -13.5 -33.5t-31.5 -14.5t-31.5 14.5t-13.5 33.5z" />
    <glyph glyph-name="yacute" unicode="&#xfd;" horiz-adv-x="525" 
d="M288 -2q-33 -82 -65 -132.5t-70 -73t-90 -22.5q-24 0 -44 4.5t-37 11.5l6 55q33 -20 74 -20q54 0 92 39.5t70 120.5l10 25q-54 130 -106.5 261t-103.5 262h63q44 -115 88 -229t89 -228q46 114 90 228.5t87 228.5h59q-52 -133 -104.5 -265t-107.5 -266zM316 797
q18 -4 32 -15.5t21 -24.5l-133 -147l-31 23z" />
    <glyph glyph-name="thorn" unicode="&#xfe;" horiz-adv-x="599" 
d="M84 760h60v-320q26 46 71.5 74t102.5 28q67 0 116 -34t76 -96.5t27 -147.5t-27 -147t-76 -96t-116 -34q-57 0 -102.5 27.5t-71.5 72.5v-304h-60v977zM309 492q-58 0 -102 -34t-63 -86v-217q19 -51 63 -85t102 -34q77 0 121.5 62t44.5 166q0 105 -44.5 166.5t-121.5 61.5z
" />
    <glyph glyph-name="ydieresis" unicode="&#xff;" horiz-adv-x="525" 
d="M288 -2q-33 -82 -65 -132.5t-70 -73t-90 -22.5q-24 0 -44 4.5t-37 11.5l6 55q33 -20 74 -20q54 0 92 39.5t70 120.5l10 25q-54 130 -106.5 261t-103.5 262h63q44 -115 88 -229t89 -228q46 114 90 228.5t87 228.5h59q-52 -133 -104.5 -265t-107.5 -266zM308 700
q0 20 13 34t32 14q18 0 31.5 -14t13.5 -34q0 -19 -13.5 -33.5t-31.5 -14.5q-19 0 -32 14.5t-13 33.5zM117 700q0 20 13.5 34t31.5 14t31.5 -14t13.5 -34q0 -19 -13.5 -33.5t-31.5 -14.5t-31.5 14.5t-13.5 33.5z" />
    <glyph glyph-name="Amacron" unicode="&#x100;" horiz-adv-x="721" 
d="M326 743h69q72 -185 142.5 -371t139.5 -372h-67q-22 61 -44 121.5t-44 121.5h-326q-45 -123 -88 -243h-64q69 186 139.5 372t142.5 371zM359 680q-36 -95 -72 -191t-71 -192h286q-36 96 -71.5 192t-71.5 191zM212 903h294v-49h-294v49z" />
    <glyph glyph-name="amacron" unicode="&#x101;" horiz-adv-x="534" 
d="M458 96q0 -23 3 -51t9 -45h-56q-5 15 -8.5 39t-5.5 47q-32 -49 -79.5 -74t-100.5 -25q-70 0 -114 42t-44 109q0 80 66 126.5t194 59.5l77 7v12q0 68 -38 108t-111 40q-38 0 -79 -13t-76 -40l-7 59q36 22 82 33.5t90 11.5q97 0 147.5 -54.5t50.5 -149.5v-242zM232 36
q49 0 93 27t74 79v146l-81 -9q-94 -10 -144.5 -43.5t-50.5 -94.5q0 -47 29 -76t80 -29zM129 713h274v-48h-274v48z" />
    <glyph glyph-name="Abreve" unicode="&#x102;" horiz-adv-x="721" 
d="M326 743h69q72 -185 142.5 -371t139.5 -372h-67q-22 61 -44 121.5t-44 121.5h-326q-45 -123 -88 -243h-64q69 186 139.5 372t142.5 371zM359 680q-36 -95 -72 -191t-71 -192h286q-36 96 -71.5 192t-71.5 191zM359 862q92 0 94 98h48q3 -64 -35.5 -102.5t-106.5 -38.5
t-106.5 38.5t-35.5 102.5h48q2 -98 94 -98z" />
    <glyph glyph-name="abreve" unicode="&#x103;" horiz-adv-x="534" 
d="M458 96q0 -23 3 -51t9 -45h-56q-5 15 -8.5 39t-5.5 47q-32 -49 -79.5 -74t-100.5 -25q-70 0 -114 42t-44 109q0 80 66 126.5t194 59.5l77 7v12q0 68 -38 108t-111 40q-38 0 -79 -13t-76 -40l-7 59q36 22 82 33.5t90 11.5q97 0 147.5 -54.5t50.5 -149.5v-242zM232 36
q49 0 93 27t74 79v146l-81 -9q-94 -10 -144.5 -43.5t-50.5 -94.5q0 -47 29 -76t80 -29zM266 621q-66 0 -103 38.5t-37 106.5h43q1 -49 26 -75.5t71 -26.5q47 0 71.5 26.5t25.5 75.5h43q0 -68 -37 -106.5t-103 -38.5z" />
    <glyph glyph-name="Aogonek" unicode="&#x104;" horiz-adv-x="721" 
d="M326 743h69q72 -185 142.5 -371t139.5 -372h-67q-22 61 -44 121.5t-44 121.5h-326q-45 -123 -88 -243h-64q69 186 139.5 372t142.5 371zM359 680q-36 -95 -72 -191t-71 -192h286q-36 96 -71.5 192t-71.5 191zM636 12l40 -12q-98 -72 -98 -126q0 -20 12.5 -31t34.5 -11
q30 0 52 18l6 -47q-14 -8 -33 -12.5t-35 -4.5q-43 0 -67 21t-24 58t29.5 75.5t82.5 71.5z" />
    <glyph glyph-name="aogonek" unicode="&#x105;" horiz-adv-x="534" 
d="M458 96q0 -23 3 -51t9 -45h-56q-5 15 -8.5 39t-5.5 47q-32 -49 -79.5 -74t-100.5 -25q-70 0 -114 42t-44 109q0 80 66 126.5t194 59.5l77 7v12q0 68 -38 108t-111 40q-38 0 -79 -13t-76 -40l-7 59q36 22 82 33.5t90 11.5q97 0 147.5 -54.5t50.5 -149.5v-242zM232 36
q49 0 93 27t74 79v146l-81 -9q-94 -10 -144.5 -43.5t-50.5 -94.5q0 -47 29 -76t80 -29zM430 12l39 -12q-52 -38 -76 -69t-24 -60q0 -19 13 -29.5t34 -10.5q15 0 29 4.5t24 13.5l6 -46q-13 -8 -32.5 -12.5t-37.5 -4.5q-41 0 -64.5 20t-23.5 55q0 38 30 77.5t83 73.5z" />
    <glyph glyph-name="Cacute" unicode="&#x106;" horiz-adv-x="636" 
d="M396 40q50 0 101 14.5t87 43.5l8 -64q-37 -22 -92 -34.5t-109 -12.5q-102 0 -174 46.5t-110 133t-38 206.5q0 118 38.5 203.5t111 131.5t172.5 46q55 0 106 -13.5t94 -40.5l-18 -59q-46 33 -89 46.5t-90 13.5q-123 0 -190.5 -86.5t-67.5 -239.5q0 -157 66.5 -246
t193.5 -89zM451 987q17 -4 31 -16.5t21 -26.5l-140 -136l-31 27z" />
    <glyph glyph-name="cacute" unicode="&#x107;" horiz-adv-x="492" 
d="M63 267q0 83 30 144.5t84.5 96t126.5 34.5q40 0 77.5 -10.5t64.5 -27.5l-17 -54q-27 21 -59 31t-64 10q-83 0 -132.5 -60t-49.5 -163q0 -109 50 -169.5t138 -60.5q35 0 71 10.5t58 29.5l6 -60q-25 -13 -62.5 -22t-78.5 -9q-115 0 -179 74.5t-64 205.5zM356 797
q18 -4 32 -15.5t21 -24.5l-133 -147l-31 23z" />
    <glyph glyph-name="Cdotaccent" unicode="&#x10a;" horiz-adv-x="636" 
d="M396 40q50 0 101 14.5t87 43.5l8 -64q-37 -22 -92 -34.5t-109 -12.5q-102 0 -174 46.5t-110 133t-38 206.5q0 118 38.5 203.5t111 131.5t172.5 46q55 0 106 -13.5t94 -40.5l-18 -59q-46 33 -89 46.5t-90 13.5q-123 0 -190.5 -86.5t-67.5 -239.5q0 -157 66.5 -246
t193.5 -89zM331 889q0 20 14 34t33 14q20 0 33.5 -14t13.5 -34q0 -21 -13.5 -35t-33.5 -14q-19 0 -33 14.5t-14 34.5z" />
    <glyph glyph-name="cdotaccent" unicode="&#x10b;" horiz-adv-x="492" 
d="M63 267q0 83 30 144.5t84.5 96t126.5 34.5q40 0 77.5 -10.5t64.5 -27.5l-17 -54q-27 21 -59 31t-64 10q-83 0 -132.5 -60t-49.5 -163q0 -109 50 -169.5t138 -60.5q35 0 71 10.5t58 29.5l6 -60q-25 -13 -62.5 -22t-78.5 -9q-115 0 -179 74.5t-64 205.5zM251 701
q0 20 13.5 34t32.5 14t32.5 -14t13.5 -34t-13.5 -34.5t-32.5 -14.5t-32.5 14.5t-13.5 34.5z" />
    <glyph glyph-name="Ccaron" unicode="&#x10c;" horiz-adv-x="636" 
d="M396 40q50 0 101 14.5t87 43.5l8 -64q-37 -22 -92 -34.5t-109 -12.5q-102 0 -174 46.5t-110 133t-38 206.5q0 118 38.5 203.5t111 131.5t172.5 46q55 0 106 -13.5t94 -40.5l-18 -59q-46 33 -89 46.5t-90 13.5q-123 0 -190.5 -86.5t-67.5 -239.5q0 -157 66.5 -246
t193.5 -89zM225 964l33 25l120 -121l120 121l33 -25l-123 -145h-60z" />
    <glyph glyph-name="ccaron" unicode="&#x10d;" horiz-adv-x="492" 
d="M63 267q0 83 30 144.5t84.5 96t126.5 34.5q40 0 77.5 -10.5t64.5 -27.5l-17 -54q-27 21 -59 31t-64 10q-83 0 -132.5 -60t-49.5 -163q0 -109 50 -169.5t138 -60.5q35 0 71 10.5t58 29.5l6 -60q-25 -13 -62.5 -22t-78.5 -9q-115 0 -179 74.5t-64 205.5zM143 778l32 24
l121 -139l121 139l32 -24l-125 -164h-56z" />
    <glyph glyph-name="Dcaron" unicode="&#x10e;" horiz-adv-x="721" 
d="M104 741h169q127 0 212 -47.5t128.5 -130.5t43.5 -192t-43.5 -192.5t-128.5 -131t-212 -47.5h-169v741zM168 688v-635h105q104 0 174.5 39.5t106.5 111t36 166.5q0 96 -36 167.5t-106.5 111t-174.5 39.5h-105zM200 964l33 25l120 -121l120 121l33 -25l-123 -145h-60z" />
    <glyph glyph-name="dcaron" unicode="&#x10f;" horiz-adv-x="649" 
d="M514 0h-57v92q-25 -48 -71.5 -76.5t-105.5 -28.5q-66 0 -114.5 34t-75.5 96t-27 147t27 147.5t76 96.5t115 34q57 0 102.5 -27.5t71.5 -73.5v319h59v-760zM455 156v217q-19 51 -63 85t-102 34q-76 0 -121 -61.5t-45 -166.5q0 -104 45 -166t122 -62q58 0 101.5 34t62.5 86
zM604 761q15 6 30 6q16 0 31 -6l-40 -220h-36z" />
    <glyph glyph-name="Dcroat" unicode="&#x110;" horiz-adv-x="726" 
d="M104 348h-89v53h89v340h169q127 0 212 -47.5t128.5 -130.5t43.5 -192t-43.5 -192.5t-128.5 -131t-212 -47.5h-169v348zM168 53h105q104 0 174.5 39.5t106.5 111t36 166.5q0 96 -36 167.5t-106.5 111t-174.5 39.5h-105v-287h168v-53h-168v-295z" />
    <glyph glyph-name="dcroat" unicode="&#x111;" horiz-adv-x="607" 
d="M514 0h-57v92q-25 -48 -71.5 -76.5t-105.5 -28.5q-66 0 -114.5 33.5t-75.5 95t-27 144.5q0 85 27 146t76 94.5t115 33.5q57 0 102.5 -27t71.5 -73v191h-163v42h163v93h59v-93h83v-42h-83v-625zM392 451q-44 34 -102 34q-76 0 -121 -60.5t-45 -164.5q0 -101 45 -162.5
t122 -61.5q58 0 101.5 34t62.5 86v210q-19 51 -63 85z" />
    <glyph glyph-name="Emacron" unicode="&#x112;" horiz-adv-x="553" 
d="M104 741h403l-6 -53h-333v-267h270v-53h-270v-315h351v-53h-415v741zM159 903h294v-49h-294v49z" />
    <glyph glyph-name="emacron" unicode="&#x113;" horiz-adv-x="544" 
d="M474 83l6 -59q-30 -17 -71.5 -27t-87.5 -10q-79 0 -137 34.5t-89.5 98t-31.5 151.5q0 81 27 142t77.5 95t121.5 34q92 0 143.5 -61.5t51.5 -179.5v-16.5t-1 -19.5h-361q3 -110 59 -168.5t146 -58.5q38 0 78 11t69 34zM426 311v3q0 89 -36 135t-103 46q-71 0 -113.5 -49.5
t-50.5 -134.5h303zM146 713h274v-48h-274v48z" />
    <glyph glyph-name="Edotaccent" unicode="&#x116;" horiz-adv-x="553" 
d="M104 741h403l-6 -53h-333v-267h270v-53h-270v-315h351v-53h-415v741zM259 889q0 20 14 34t33 14q20 0 33.5 -14t13.5 -34q0 -21 -13.5 -35t-33.5 -14q-19 0 -33 14.5t-14 34.5z" />
    <glyph glyph-name="edotaccent" unicode="&#x117;" horiz-adv-x="544" 
d="M474 83l6 -59q-30 -17 -71.5 -27t-87.5 -10q-79 0 -137 34.5t-89.5 98t-31.5 151.5q0 81 27 142t77.5 95t121.5 34q92 0 143.5 -61.5t51.5 -179.5v-16.5t-1 -19.5h-361q3 -110 59 -168.5t146 -58.5q38 0 78 11t69 34zM426 311v3q0 89 -36 135t-103 46q-71 0 -113.5 -49.5
t-50.5 -134.5h303zM237 701q0 20 13.5 34t32.5 14t32.5 -14t13.5 -34t-13.5 -34.5t-32.5 -14.5t-32.5 14.5t-13.5 34.5z" />
    <glyph glyph-name="Eogonek" unicode="&#x118;" horiz-adv-x="553" 
d="M104 741h403l-6 -53h-333v-267h270v-53h-270v-315h351v-53h-415v741zM478 12l40 -12q-98 -72 -98 -126q0 -20 12.5 -31t34.5 -11q30 0 52 18l6 -47q-14 -8 -33 -12.5t-35 -4.5q-43 0 -67 21t-24 58t29.5 75.5t82.5 71.5z" />
    <glyph glyph-name="eogonek" unicode="&#x119;" horiz-adv-x="544" 
d="M474 83l6 -59q-30 -17 -71.5 -27t-87.5 -10q-79 0 -137 34.5t-89.5 98t-31.5 151.5q0 81 27 142t77.5 95t121.5 34q92 0 143.5 -61.5t51.5 -179.5v-16.5t-1 -19.5h-361q3 -110 59 -168.5t146 -58.5q38 0 78 11t69 34zM426 311v3q0 89 -36 135t-103 46q-71 0 -113.5 -49.5
t-50.5 -134.5h303zM361 -128q0 -19 12.5 -30t33.5 -11q33 0 54 18l6 -46q-13 -8 -33 -12.5t-37 -4.5q-41 0 -64.5 20.5t-23.5 56.5q0 38 29.5 80t84.5 78l57 3q-119 -85 -119 -152z" />
    <glyph glyph-name="Ecaron" unicode="&#x11a;" horiz-adv-x="553" 
d="M104 741h403l-6 -53h-333v-267h270v-53h-270v-315h351v-53h-415v741zM153 964l33 25l120 -121l120 121l33 -25l-123 -145h-60z" />
    <glyph glyph-name="ecaron" unicode="&#x11b;" horiz-adv-x="544" 
d="M474 83l6 -59q-30 -17 -71.5 -27t-87.5 -10q-79 0 -137 34.5t-89.5 98t-31.5 151.5q0 81 27 142t77.5 95t121.5 34q92 0 143.5 -61.5t51.5 -179.5v-16.5t-1 -19.5h-361q3 -110 59 -168.5t146 -58.5q38 0 78 11t69 34zM426 311v3q0 89 -36 135t-103 46q-71 0 -113.5 -49.5
t-50.5 -134.5h303zM129 778l32 24l121 -139l121 139l32 -24l-125 -164h-56z" />
    <glyph glyph-name="Gbreve" unicode="&#x11e;" horiz-adv-x="696" 
d="M622 50q-39 -28 -97 -45.5t-129 -17.5q-104 0 -177 46t-111.5 133t-38.5 208q0 118 39.5 203t113.5 131t177 46q115 0 210 -55l-18 -58q-48 32 -94 46t-96 14q-127 0 -196 -87t-69 -240q0 -158 68 -246t196 -88q50 0 89.5 10t70.5 28v258h-181v53h243v-339zM385 862
q92 0 94 98h48q3 -64 -35.5 -102.5t-106.5 -38.5t-106.5 38.5t-35.5 102.5h48q2 -98 94 -98z" />
    <glyph glyph-name="gbreve" unicode="&#x11f;" horiz-adv-x="589" 
d="M514 60q0 -141 -66 -215.5t-190 -74.5q-39 0 -81.5 9.5t-76.5 29.5l6 60q32 -26 72.5 -37t77.5 -11q95 0 147 56t52 164v46q-26 -45 -71.5 -72.5t-102.5 -27.5q-66 0 -115 34t-76 96t-27 147t27 147.5t75.5 96.5t114.5 34q59 0 105.5 -29t71.5 -77v93h57v-469zM124 264
q0 -104 45 -166t121 -62q58 0 102 34t63 85v217q-19 52 -62.5 86t-101.5 34q-77 0 -122 -61.5t-45 -166.5zM292 621q-66 0 -103 38.5t-37 106.5h43q1 -49 26 -75.5t71 -26.5q47 0 71.5 26.5t25.5 75.5h43q0 -68 -37 -106.5t-103 -38.5z" />
    <glyph glyph-name="Gdotaccent" unicode="&#x120;" horiz-adv-x="696" 
d="M622 50q-39 -28 -97 -45.5t-129 -17.5q-104 0 -177 46t-111.5 133t-38.5 208q0 118 39.5 203t113.5 131t177 46q115 0 210 -55l-18 -58q-48 32 -94 46t-96 14q-127 0 -196 -87t-69 -240q0 -158 68 -246t196 -88q50 0 89.5 10t70.5 28v258h-181v53h243v-339zM338 889
q0 20 14 34t33 14q20 0 33.5 -14t13.5 -34q0 -21 -13.5 -35t-33.5 -14q-19 0 -33 14.5t-14 34.5z" />
    <glyph glyph-name="gdotaccent" unicode="&#x121;" horiz-adv-x="589" 
d="M514 60q0 -141 -66 -215.5t-190 -74.5q-39 0 -81.5 9.5t-76.5 29.5l6 60q32 -26 72.5 -37t77.5 -11q95 0 147 56t52 164v46q-26 -45 -71.5 -72.5t-102.5 -27.5q-66 0 -115 34t-76 96t-27 147t27 147.5t75.5 96.5t114.5 34q59 0 105.5 -29t71.5 -77v93h57v-469zM124 264
q0 -104 45 -166t121 -62q58 0 102 34t63 85v217q-19 52 -62.5 86t-101.5 34q-77 0 -122 -61.5t-45 -166.5zM246 701q0 20 13.5 34t32.5 14t32.5 -14t13.5 -34t-13.5 -34.5t-32.5 -14.5t-32.5 14.5t-13.5 34.5z" />
    <glyph glyph-name="uni0122" unicode="&#x122;" horiz-adv-x="696" 
d="M622 50q-39 -28 -97 -45.5t-129 -17.5q-104 0 -177 46t-111.5 133t-38.5 208q0 118 39.5 203t113.5 131t177 46q115 0 210 -55l-18 -58q-48 32 -94 46t-96 14q-127 0 -196 -87t-69 -240q0 -158 68 -246t196 -88q50 0 89.5 10t70.5 28v258h-181v53h243v-339zM340 -217h-45
q20 30 34 70t21 85h59q-8 -43 -26 -83.5t-43 -71.5z" />
    <glyph glyph-name="uni0123" unicode="&#x123;" horiz-adv-x="589" 
d="M514 60q0 -141 -66 -215.5t-190 -74.5q-39 0 -81.5 9.5t-76.5 29.5l6 60q32 -26 72.5 -37t77.5 -11q95 0 147 56t52 164v46q-26 -45 -71.5 -72.5t-102.5 -27.5q-66 0 -115 34t-76 96t-27 147t27 147.5t75.5 96.5t114.5 34q59 0 105.5 -29t71.5 -77v93h57v-469zM124 264
q0 -104 45 -166t121 -62q58 0 102 34t63 85v217q-19 52 -62.5 86t-101.5 34q-77 0 -122 -61.5t-45 -166.5zM318 775h45q-19 -33 -30 -71t-15 -89h-60q8 91 60 160z" />
    <glyph glyph-name="Hbar" unicode="&#x126;" horiz-adv-x="732" 
d="M627 0h-62v369h-397v-369h-64v552h-83v49h83v140h64v-140h397v140h62v-140h84v-49h-84v-552zM565 552h-397v-130h397v130z" />
    <glyph glyph-name="hbar" unicode="&#x127;" horiz-adv-x="582" 
d="M92 625h-83v42h83v93h59v-93h164v-42h-164v-193q32 52 81.5 77t101.5 25q82 0 128 -51t46 -145v-338h-59v335q0 69 -32.5 109t-94.5 40q-51 0 -97 -30.5t-74 -86.5v-367h-59v625z" />
    <glyph glyph-name="Itilde" unicode="&#x128;" horiz-adv-x="272" 
d="M104 741h64v-741h-64v741zM253 948l43 -10q-3 -50 -27 -79t-63 -29q-19 0 -37.5 8t-44.5 30q-23 20 -34 25.5t-25 5.5q-41 0 -47 -68l-43 10q3 50 27 78.5t63 28.5q19 0 38 -8t44 -29q23 -19 34.5 -25.5t24.5 -6.5q41 0 47 69z" />
    <glyph glyph-name="itilde" unicode="&#x129;" horiz-adv-x="232" 
d="M86 529h59v-529h-59v529zM48 750q19 0 37.5 -8t42.5 -30q22 -21 33 -27t24 -6q20 0 32.5 18.5t14.5 51.5l43 -10q-3 -50 -27 -78.5t-63 -28.5q-19 0 -37.5 8t-42.5 30q-22 20 -33 26t-24 6q-20 0 -32.5 -18.5t-14.5 -51.5l-43 11q3 50 27 78.5t63 28.5z" />
    <glyph glyph-name="Imacron" unicode="&#x12a;" horiz-adv-x="272" 
d="M104 741h64v-741h-64v741zM-12 903h294v-49h-294v49z" />
    <glyph glyph-name="imacron" unicode="&#x12b;" horiz-adv-x="232" 
d="M86 529h59v-529h-59v529zM-21 713h274v-48h-274v48z" />
    <glyph glyph-name="Iogonek" unicode="&#x12e;" horiz-adv-x="272" 
d="M104 741h64v-741h-64v741zM127 12l40 -12q-98 -72 -98 -126q0 -20 12.5 -31t34.5 -11q30 0 52 18l6 -47q-14 -8 -33 -12.5t-35 -4.5q-43 0 -67 21t-24 58t29.5 75.5t82.5 71.5z" />
    <glyph glyph-name="iogonek" unicode="&#x12f;" horiz-adv-x="232" 
d="M86 529h59v-529h-59v529zM70 701q0 20 13.5 34t32.5 14t32.5 -14t13.5 -34t-13.5 -34.5t-32.5 -14.5t-32.5 14.5t-13.5 34.5zM106 12l39 -12q-52 -38 -76 -69t-24 -60q0 -19 13 -29.5t34 -10.5q15 0 29 4.5t24 13.5l6 -46q-13 -8 -32.5 -12.5t-37.5 -4.5q-41 0 -64.5 20
t-23.5 55q0 38 30 77.5t83 73.5z" />
    <glyph glyph-name="Idotaccent" unicode="&#x130;" horiz-adv-x="272" 
d="M104 741h64v-741h-64v741zM88 889q0 20 14 34t33 14q20 0 33.5 -14t13.5 -34q0 -21 -13.5 -35t-33.5 -14q-19 0 -33 14.5t-14 34.5z" />
    <glyph glyph-name="dotlessi" unicode="&#x131;" horiz-adv-x="232" 
d="M86 529h59v-529h-59v529z" />
    <glyph glyph-name="IJ" unicode="&#x132;" horiz-adv-x="699" 
d="M104 741h64v-741h-64v741zM605 191q0 -100 -51.5 -152t-141.5 -52q-30 0 -57.5 6.5t-49.5 16.5l7 59q18 -12 44 -19t51 -7q60 0 98 38.5t38 123.5v536h62v-550z" />
    <glyph glyph-name="ij" unicode="&#x133;" horiz-adv-x="463" 
d="M86 529h59v-529h-59v529zM70 701q0 20 13.5 34t32.5 14t32.5 -14t13.5 -34t-13.5 -34.5t-32.5 -14.5t-32.5 14.5t-13.5 34.5zM318 529h59v-587q0 -85 -36 -128.5t-104 -43.5q-37 0 -65 13l5 52q21 -14 55 -14q41 0 63.5 30t22.5 89v589zM302 701q0 20 13.5 34t32.5 14
t32.5 -14t13.5 -34t-13.5 -34.5t-32.5 -14.5t-32.5 14.5t-13.5 34.5z" />
    <glyph glyph-name="uni0136" unicode="&#x136;" horiz-adv-x="639" 
d="M104 741h64v-331l176 166t171 165h75q-86 -85 -177.5 -172t-183.5 -172q44 -43 95 -93.5t103 -104t101 -104.5t88 -95h-83q-36 40 -82 88.5t-96 99.5t-98.5 99t-88.5 88v-375h-64v741zM308 -217h-45q20 30 34 70t21 85h59q-8 -43 -26 -83.5t-43 -71.5z" />
    <glyph glyph-name="uni0137" unicode="&#x137;" horiz-adv-x="516" 
d="M84 760h60v-468q39 35 85.5 76.5t91.5 83.5t81 77h72q-37 -37 -84 -80.5t-95.5 -86.5t-89.5 -79q48 -44 103.5 -95t106.5 -100.5t87 -87.5h-79q-33 35 -81 81.5t-100.5 95.5t-97.5 90v-267h-60v760zM239 -217h-42q20 30 33.5 70t20.5 85h57q-8 -43 -26 -83.5t-43 -71.5z
" />
    <glyph glyph-name="kgreenlandic" unicode="&#x138;" horiz-adv-x="534" 
d="M84 529h60v-237q39 35 85.5 76.5t91.5 83.5t81 77h72q-37 -37 -84 -80.5t-95.5 -86.5t-89.5 -79q48 -44 103.5 -95t106.5 -100.5t87 -87.5h-79q-33 35 -81 81.5t-100.5 95.5t-97.5 90v-267h-60v529z" />
    <glyph glyph-name="Lacute" unicode="&#x139;" horiz-adv-x="526" 
d="M104 741h64v-687h333v-54h-397v741zM219 987q17 -4 31 -16.5t21 -26.5l-140 -136l-31 27z" />
    <glyph glyph-name="lacute" unicode="&#x13a;" horiz-adv-x="322" 
d="M84 760h60v-623q0 -52 19 -75t62 -23q39 0 68 21l-6 -57q-13 -6 -33 -10t-43 -4q-65 0 -96 34.5t-31 107.5v629zM198 987q17 -4 31 -16.5t21 -26.5l-140 -136l-31 27z" />
    <glyph glyph-name="uni013B" unicode="&#x13b;" horiz-adv-x="526" 
d="M104 741h64v-687h333v-54h-397v741zM268 -217h-45q20 30 34 70t21 85h59q-8 -43 -26 -83.5t-43 -71.5z" />
    <glyph glyph-name="uni013C" unicode="&#x13c;" horiz-adv-x="322" 
d="M84 760h60v-623q0 -52 19 -75t62 -23q39 0 68 21l-6 -57q-13 -6 -33 -10t-43 -4q-65 0 -96 34.5t-31 107.5v629zM151 -217h-42q20 30 33.5 70t20.5 85h57q-8 -43 -26 -83.5t-43 -71.5z" />
    <glyph glyph-name="Lcaron" unicode="&#x13d;" horiz-adv-x="526" 
d="M104 741h64v-687h333v-54h-397v741zM294 761q15 6 30 6q16 0 31 -6l-40 -220h-36z" />
    <glyph glyph-name="lcaron" unicode="&#x13e;" horiz-adv-x="322" 
d="M84 760h60v-623q0 -52 19 -75t62 -23q39 0 68 21l-6 -57q-13 -6 -33 -10t-43 -4q-65 0 -96 34.5t-31 107.5v629zM234 761q15 6 30 6q16 0 31 -6l-40 -220h-36z" />
    <glyph glyph-name="Lslash" unicode="&#x141;" horiz-adv-x="526" 
d="M104 741h64v-317l218 102v-52l-218 -102v-318h333v-54h-397v342l-104 -48v52l104 48v347z" />
    <glyph glyph-name="lslash" unicode="&#x142;" horiz-adv-x="322" 
d="M84 760h60v-291l119 56v-53l-119 -56v-279q0 -52 19 -75t62 -23q39 0 68 21l-6 -57q-13 -6 -33 -10t-43 -4q-65 0 -96 34.5t-31 107.5v256l-70 -33v53l70 33v320z" />
    <glyph glyph-name="Nacute" unicode="&#x143;" horiz-adv-x="732" 
d="M104 741h72l393 -625l-1 39v586h59v-741h-53l-410 656v-656h-60v741zM439 987q17 -4 31 -16.5t21 -26.5l-140 -136l-31 27z" />
    <glyph glyph-name="nacute" unicode="&#x144;" horiz-adv-x="575" 
d="M84 529h58v-92q27 48 73.5 76.5t106.5 28.5q81 0 130 -51.5t49 -144.5v-346h-59v343q0 68 -35.5 108t-97.5 40q-59 0 -103 -34.5t-62 -83.5v-373h-60v529zM357 797q18 -4 32 -15.5t21 -24.5l-133 -147l-31 23z" />
    <glyph glyph-name="uni0145" unicode="&#x145;" horiz-adv-x="732" 
d="M104 741h72l393 -625l-1 39v586h59v-741h-53l-410 656v-656h-60v741zM331 -217h-45q20 30 34 70t21 85h59q-8 -43 -26 -83.5t-43 -71.5z" />
    <glyph glyph-name="uni0146" unicode="&#x146;" horiz-adv-x="575" 
d="M84 529h58v-92q27 48 73.5 76.5t106.5 28.5q81 0 130 -51.5t49 -144.5v-346h-59v343q0 68 -35.5 108t-97.5 40q-59 0 -103 -34.5t-62 -83.5v-373h-60v529zM257 -217h-42q20 30 33.5 70t20.5 85h57q-8 -43 -26 -83.5t-43 -71.5z" />
    <glyph glyph-name="Ncaron" unicode="&#x147;" horiz-adv-x="732" 
d="M104 741h72l393 -625l-1 39v586h59v-741h-53l-410 656v-656h-60v741zM213 964l33 25l120 -121l120 121l33 -25l-123 -145h-60z" />
    <glyph glyph-name="ncaron" unicode="&#x148;" horiz-adv-x="575" 
d="M84 529h58v-92q27 48 73.5 76.5t106.5 28.5q81 0 130 -51.5t49 -144.5v-346h-59v343q0 68 -35.5 108t-97.5 40q-59 0 -103 -34.5t-62 -83.5v-373h-60v529zM144 778l32 24l121 -139l121 139l32 -24l-125 -164h-56z" />
    <glyph glyph-name="Eng" unicode="&#x14a;" horiz-adv-x="732" 
d="M627 -23q0 -100 -51.5 -152t-141.5 -52q-31 0 -61.5 6t-53.5 17l6 58q20 -11 50.5 -18t58.5 -7q61 0 98.5 38t37.5 124v15l-406 649v-655h-60v741h72l393 -625l-1 39v586h59v-764z" />
    <glyph glyph-name="eng" unicode="&#x14b;" horiz-adv-x="575" 
d="M84 529h58v-94q32 54 81.5 80.5t102.5 26.5q83 0 129 -51.5t46 -144.5v-404q0 -172 -141 -172q-36 0 -64 13l5 52q21 -14 55 -14q41 0 63.5 30t22.5 89v403q0 68 -33 108t-95 40q-51 0 -96.5 -30.5t-73.5 -86.5v-374h-60v529z" />
    <glyph glyph-name="Omacron" unicode="&#x14c;" horiz-adv-x="754" 
d="M69 379q0 111 35 195.5t103.5 132t169.5 47.5q102 0 170.5 -47.5t103 -132t34.5 -195.5q0 -116 -34.5 -204.5t-103 -138t-170.5 -49.5t-170.5 49.5t-103 138t-34.5 204.5zM618 379q0 99 -27.5 171t-81 111.5t-132.5 39.5q-78 0 -131.5 -39.5t-81.5 -111.5t-28 -171
q0 -103 28 -179t82 -118t131 -42q78 0 131.5 42t81.5 118t28 179zM230 903h294v-49h-294v49z" />
    <glyph glyph-name="omacron" unicode="&#x14d;" horiz-adv-x="597" 
d="M63 272q0 122 60.5 196t175.5 74q114 0 174.5 -74t60.5 -196q0 -130 -59.5 -207.5t-175.5 -77.5q-115 0 -175.5 77.5t-60.5 207.5zM473 272q0 103 -45.5 161.5t-128.5 58.5q-84 0 -129.5 -58.5t-45.5 -161.5q0 -109 46 -172.5t129 -63.5t128.5 63.5t45.5 172.5zM162 713
h274v-48h-274v48z" />
    <glyph glyph-name="Ohungarumlaut" unicode="&#x150;" horiz-adv-x="754" 
d="M69 379q0 111 35 195.5t103.5 132t169.5 47.5q102 0 170.5 -47.5t103 -132t34.5 -195.5q0 -116 -34.5 -204.5t-103 -138t-170.5 -49.5t-170.5 49.5t-103 138t-34.5 204.5zM618 379q0 99 -27.5 171t-81 111.5t-132.5 39.5q-78 0 -131.5 -39.5t-81.5 -111.5t-28 -171
q0 -103 28 -179t82 -118t131 -42q78 0 131.5 42t81.5 118t28 179zM383 987q34 -10 50 -39l-134 -141l-30 25zM548 987q34 -10 50 -39l-134 -141l-29 25z" />
    <glyph glyph-name="ohungarumlaut" unicode="&#x151;" horiz-adv-x="597" 
d="M63 272q0 122 60.5 196t175.5 74q114 0 174.5 -74t60.5 -196q0 -130 -59.5 -207.5t-175.5 -77.5q-115 0 -175.5 77.5t-60.5 207.5zM473 272q0 103 -45.5 161.5t-128.5 58.5q-84 0 -129.5 -58.5t-45.5 -161.5q0 -109 46 -172.5t129 -63.5t128.5 63.5t45.5 172.5zM427 800
q16 -1 32 -9t26 -19l-108 -164l-33 16zM278 800q15 -1 31.5 -9t26.5 -19l-108 -164l-33 16z" />
    <glyph glyph-name="OE" unicode="&#x152;" horiz-adv-x="1046" 
d="M660 53h352v-53h-415v133q-36 -68 -95 -107t-140 -39q-96 0 -161.5 49.5t-98.5 138t-33 204.5q0 111 33.5 195.5t98.5 132t161 47.5q81 0 140 -38t95 -104v129h403l-6 -53h-334v-267h272v-53h-272v-315zM538.5 614q-58.5 87 -171.5 87q-75 0 -126.5 -39.5t-78 -111.5
t-26.5 -171q0 -103 26.5 -179t78.5 -118t126 -42q75 0 126 42t77.5 118t26.5 179q0 148 -58.5 235z" />
    <glyph glyph-name="oe" unicode="&#x153;" horiz-adv-x="951" 
d="M697 542q91 0 142.5 -61.5t51.5 -179.5v-16.5t-1 -19.5h-358q3 -110 58 -168.5t144 -58.5q38 0 78 11t69 34l6 -60q-30 -16 -71 -26t-83 -10q-82 0 -141.5 37t-88.5 105q-26 -68 -79 -105t-128 -37q-74 0 -126.5 35t-79.5 98.5t-27 148.5q0 125 60.5 199t171.5 74
q75 0 127.5 -34.5t78.5 -97.5q26 61 76 96.5t120 35.5zM298 36q83 0 128.5 62t45.5 173q0 106 -45.5 164t-128.5 58t-128.5 -59t-45.5 -163q0 -108 46 -171.5t128 -63.5zM533 311h300v3q0 89 -36.5 135t-103.5 46q-70 0 -111 -49.5t-49 -134.5z" />
    <glyph glyph-name="Racute" unicode="&#x154;" horiz-adv-x="648" 
d="M104 741h179q75 0 135 -21.5t95 -66t35 -112.5q0 -80 -47 -128t-122 -64q63 -25 119 -108.5t120 -240.5h-69q-40 95 -74 158.5t-67.5 100.5t-72 53t-88.5 16h-79v-328h-64v741zM385 396.5q45 17.5 71.5 52.5t26.5 87t-26.5 86t-71.5 50.5t-101 16.5h-116v-310h116
q56 0 101 17.5zM389 987q17 -4 31 -16.5t21 -26.5l-140 -136l-31 27z" />
    <glyph glyph-name="racute" unicode="&#x155;" horiz-adv-x="393" 
d="M84 529h58v-115q26 60 72.5 94t106.5 34q11 0 20.5 -1t17.5 -3l-8 -64q-18 8 -41 8q-40 0 -73 -19t-57 -51t-36 -70v-342h-60v529zM292 797q18 -4 32 -15.5t21 -24.5l-133 -147l-31 23z" />
    <glyph glyph-name="Rcaron" unicode="&#x158;" horiz-adv-x="648" 
d="M104 741h179q75 0 135 -21.5t95 -66t35 -112.5q0 -80 -47 -128t-122 -64q63 -25 119 -108.5t120 -240.5h-69q-40 95 -74 158.5t-67.5 100.5t-72 53t-88.5 16h-79v-328h-64v741zM385 396.5q45 17.5 71.5 52.5t26.5 87t-26.5 86t-71.5 50.5t-101 16.5h-116v-310h116
q56 0 101 17.5zM163 964l33 25l120 -121l120 121l33 -25l-123 -145h-60z" />
    <glyph glyph-name="rcaron" unicode="&#x159;" horiz-adv-x="393" 
d="M84 529h58v-115q26 60 72.5 94t106.5 34q11 0 20.5 -1t17.5 -3l-8 -64q-18 8 -41 8q-40 0 -73 -19t-57 -51t-36 -70v-342h-60v529zM79 778l32 24l121 -139l121 139l32 -24l-125 -164h-56z" />
    <glyph glyph-name="Sacute" unicode="&#x15a;" horiz-adv-x="581" 
d="M267 -13q-56 0 -113.5 13.5t-107.5 42.5l8 64q50 -34 104.5 -50.5t107.5 -16.5q95 0 145.5 41t50.5 112q0 37 -15 64t-53 51t-109 50q-80 30 -126.5 60t-66 65.5t-19.5 78.5q0 59 30.5 102t83.5 66.5t122 23.5q55 0 102.5 -13t85.5 -35l-18 -58q-37 26 -78 39.5t-91 13.5
q-76 0 -125 -34.5t-49 -98.5q0 -33 17.5 -59t57.5 -48.5t109 -47.5q83 -30 127.5 -62.5t61.5 -70t17 -82.5q0 -95 -67.5 -153t-191.5 -58zM376 987q17 -4 31 -16.5t21 -26.5l-140 -136l-31 27z" />
    <glyph glyph-name="sacute" unicode="&#x15b;" horiz-adv-x="472" 
d="M213 -13q-44 0 -86.5 11t-71.5 29l8 61q32 -25 72 -38.5t79 -13.5q68 0 104.5 28t36.5 75q0 25 -11 43t-38.5 34t-79.5 34q-88 31 -123 65t-35 84q0 45 24 77t65 49t91 17q39 0 76 -10.5t65 -27.5l-18 -52q-53 41 -122 41q-53 0 -87.5 -23t-34.5 -67q0 -35 29.5 -57
t103.5 -48q61 -22 94 -45t46 -50.5t13 -61.5q0 -72 -54 -113t-146 -41zM300 797q18 -4 32 -15.5t21 -24.5l-133 -147l-31 23z" />
    <glyph glyph-name="Scedilla" unicode="&#x15e;" horiz-adv-x="581" 
d="M267 -13q-56 0 -113.5 13.5t-107.5 42.5l8 64q50 -34 104.5 -50.5t107.5 -16.5q95 0 145.5 41t50.5 112q0 37 -15 64t-53 51t-109 50q-80 30 -126.5 60t-66 65.5t-19.5 78.5q0 59 30.5 102t83.5 66.5t122 23.5q55 0 102.5 -13t85.5 -35l-18 -58q-37 26 -78 39.5t-91 13.5
q-76 0 -125 -34.5t-49 -98.5q0 -33 17.5 -59t57.5 -48.5t109 -47.5q83 -30 127.5 -62.5t61.5 -70t17 -82.5q0 -95 -67.5 -153t-191.5 -58zM266 6h45l-20 -75h2q48 0 76.5 -21t28.5 -59q0 -41 -32 -65.5t-91 -24.5q-21 0 -46 6t-39 14l6 47q13 -10 35 -17t44 -7q69 0 69 48
q0 43 -68 43q-21 0 -41 -5z" />
    <glyph glyph-name="scedilla" unicode="&#x15f;" horiz-adv-x="472" 
d="M213 -13q-44 0 -86.5 11t-71.5 29l8 61q32 -25 72 -38.5t79 -13.5q68 0 104.5 28t36.5 75q0 25 -11 43t-38.5 34t-79.5 34q-88 31 -123 65t-35 84q0 45 24 77t65 49t91 17q39 0 76 -10.5t65 -27.5l-18 -52q-53 41 -122 41q-53 0 -87.5 -23t-34.5 -67q0 -35 29.5 -57
t103.5 -48q61 -22 94 -45t46 -50.5t13 -61.5q0 -72 -54 -113t-146 -41zM222 4h44l-19 -73q51 -1 78 -22t27 -58q0 -42 -31 -66t-90 -24q-21 0 -46 6t-39 14l6 46q13 -10 35 -17t44 -7q70 0 70 49q0 44 -68 44q-19 0 -41 -5z" />
    <glyph glyph-name="Scaron" unicode="&#x160;" horiz-adv-x="581" 
d="M267 -13q-56 0 -113.5 13.5t-107.5 42.5l8 64q50 -34 104.5 -50.5t107.5 -16.5q95 0 145.5 41t50.5 112q0 37 -15 64t-53 51t-109 50q-80 30 -126.5 60t-66 65.5t-19.5 78.5q0 59 30.5 102t83.5 66.5t122 23.5q55 0 102.5 -13t85.5 -35l-18 -58q-37 26 -78 39.5t-91 13.5
q-76 0 -125 -34.5t-49 -98.5q0 -33 17.5 -59t57.5 -48.5t109 -47.5q83 -30 127.5 -62.5t61.5 -70t17 -82.5q0 -95 -67.5 -153t-191.5 -58zM150 964l33 25l120 -121l120 121l33 -25l-123 -145h-60z" />
    <glyph glyph-name="scaron" unicode="&#x161;" horiz-adv-x="472" 
d="M213 -13q-44 0 -86.5 11t-71.5 29l8 61q32 -25 72 -38.5t79 -13.5q68 0 104.5 28t36.5 75q0 25 -11 43t-38.5 34t-79.5 34q-88 31 -123 65t-35 84q0 45 24 77t65 49t91 17q39 0 76 -10.5t65 -27.5l-18 -52q-53 41 -122 41q-53 0 -87.5 -23t-34.5 -67q0 -35 29.5 -57
t103.5 -48q61 -22 94 -45t46 -50.5t13 -61.5q0 -72 -54 -113t-146 -41zM87 778l32 24l121 -139l121 139l32 -24l-125 -164h-56z" />
    <glyph glyph-name="uni0162" unicode="&#x162;" horiz-adv-x="572" 
d="M255 687h-230v54h522v-54h-230v-687h-62v687zM266 6h45l-20 -75h2q48 0 76.5 -21t28.5 -59q0 -41 -32 -65.5t-91 -24.5q-21 0 -46 6t-39 14l6 47q13 -10 35 -17t44 -7q69 0 69 48q0 43 -68 43q-21 0 -41 -5z" />
    <glyph glyph-name="uni0163" unicode="&#x163;" horiz-adv-x="401" 
d="M128 482h-94v47h94v120l59 28v-148h164v-47h-164v-325q0 -62 23 -90.5t78 -28.5q17 0 39 5t35 15l-6 -57q-17 -7 -40.5 -10.5t-43.5 -3.5q-73 0 -108.5 39t-35.5 120v336zM237 4h44l-19 -73q51 -1 78 -22t27 -58q0 -42 -31 -66t-90 -24q-21 0 -46 6t-39 14l6 46
q13 -10 35 -17t44 -7q70 0 70 49q0 44 -68 44q-19 0 -41 -5z" />
    <glyph glyph-name="Tcaron" unicode="&#x164;" horiz-adv-x="572" 
d="M255 687h-230v54h522v-54h-230v-687h-62v687zM133 964l33 25l120 -121l120 121l33 -25l-123 -145h-60z" />
    <glyph glyph-name="tcaron" unicode="&#x165;" horiz-adv-x="401" 
d="M128 482h-94v47h94v120l59 28v-148h164v-47h-164v-325q0 -62 23 -90.5t78 -28.5q17 0 39 5t35 15l-6 -57q-17 -7 -40.5 -10.5t-43.5 -3.5q-73 0 -108.5 39t-35.5 120v336zM290 761q14 6 30 6q15 0 30 -6l-38 -162h-34z" />
    <glyph glyph-name="Tbar" unicode="&#x166;" horiz-adv-x="572" 
d="M317 0h-62v354h-161v52h161v281h-230v54h522v-54h-230v-281h163v-52h-163v-354z" />
    <glyph glyph-name="tbar" unicode="&#x167;" horiz-adv-x="401" 
d="M128 482h-94v47h94v120l59 28v-148h164v-47h-164v-177h164v-43h-164v-105q0 -62 23 -90.5t78 -28.5q17 0 39 5t35 15l-6 -57q-17 -7 -40.5 -10.5t-43.5 -3.5q-73 0 -108.5 39t-35.5 120v116h-94v43h94v177z" />
    <glyph glyph-name="Utilde" unicode="&#x168;" horiz-adv-x="704" 
d="M610 252q0 -126 -67.5 -195.5t-189.5 -69.5q-123 0 -191 69.5t-68 195.5v489h64v-479q0 -221 195 -221q95 0 145.5 54t50.5 158v488h61v-489zM470 948l43 -10q-3 -50 -27 -79t-63 -29q-19 0 -37.5 8t-44.5 30q-23 20 -34 25.5t-25 5.5q-41 0 -47 -68l-43 10q3 50 27 78.5
t63 28.5q19 0 38 -8t44 -29q23 -19 34.5 -25.5t24.5 -6.5q41 0 47 69z" />
    <glyph glyph-name="utilde" unicode="&#x169;" horiz-adv-x="572" 
d="M428 529h59v-529h-57v92q-28 -49 -74.5 -77t-105.5 -28q-79 0 -127.5 51t-48.5 145v346h60v-343q0 -69 35 -108.5t94 -39.5q58 0 102 34t63 84v373zM213 750q19 0 37.5 -8t42.5 -30q22 -21 33 -27t24 -6q20 0 32.5 18.5t14.5 51.5l43 -10q-3 -50 -27 -78.5t-63 -28.5
q-19 0 -37.5 8t-42.5 30q-22 20 -33 26t-24 6q-20 0 -32.5 -18.5t-14.5 -51.5l-43 11q3 50 27 78.5t63 28.5z" />
    <glyph glyph-name="Umacron" unicode="&#x16a;" horiz-adv-x="704" 
d="M610 252q0 -126 -67.5 -195.5t-189.5 -69.5q-123 0 -191 69.5t-68 195.5v489h64v-479q0 -221 195 -221q95 0 145.5 54t50.5 158v488h61v-489zM205 903h294v-49h-294v49z" />
    <glyph glyph-name="umacron" unicode="&#x16b;" horiz-adv-x="572" 
d="M428 529h59v-529h-57v92q-28 -49 -74.5 -77t-105.5 -28q-79 0 -127.5 51t-48.5 145v346h60v-343q0 -69 35 -108.5t94 -39.5q58 0 102 34t63 84v373zM144 713h274v-48h-274v48z" />
    <glyph glyph-name="Uring" unicode="&#x16e;" horiz-adv-x="704" 
d="M610 252q0 -126 -67.5 -195.5t-189.5 -69.5q-123 0 -191 69.5t-68 195.5v489h64v-479q0 -221 195 -221q95 0 145.5 54t50.5 158v488h61v-489zM352 783q-46 0 -77 28t-31 70q0 44 31 72t77 28q47 0 77.5 -28t30.5 -72q0 -42 -30.5 -70t-77.5 -28zM352 944
q-28 0 -46.5 -17.5t-18.5 -45.5q0 -27 18.5 -44.5t46.5 -17.5q29 0 47 17.5t18 44.5q0 28 -18 45.5t-47 17.5z" />
    <glyph glyph-name="uring" unicode="&#x16f;" horiz-adv-x="572" 
d="M428 529h59v-529h-57v92q-28 -49 -74.5 -77t-105.5 -28q-79 0 -127.5 51t-48.5 145v346h60v-343q0 -69 35 -108.5t94 -39.5q58 0 102 34t63 84v373zM281 609q-46 0 -77 28.5t-31 72.5q0 45 31 73.5t77 28.5t77 -28.5t31 -73.5q0 -44 -31 -72.5t-77 -28.5zM281 775
q-28 0 -46.5 -18t-18.5 -47t18.5 -47t46.5 -18q29 0 47 18.5t18 46.5q0 29 -18 47t-47 18z" />
    <glyph glyph-name="Uhungarumlaut" unicode="&#x170;" horiz-adv-x="704" 
d="M610 252q0 -126 -67.5 -195.5t-189.5 -69.5q-123 0 -191 69.5t-68 195.5v489h64v-479q0 -221 195 -221q95 0 145.5 54t50.5 158v488h61v-489zM358 987q34 -10 50 -39l-134 -141l-30 25zM523 987q34 -10 50 -39l-134 -141l-29 25z" />
    <glyph glyph-name="uhungarumlaut" unicode="&#x171;" horiz-adv-x="572" 
d="M428 529h59v-529h-57v92q-28 -49 -74.5 -77t-105.5 -28q-79 0 -127.5 51t-48.5 145v346h60v-343q0 -69 35 -108.5t94 -39.5q58 0 102 34t63 84v373zM409 800q16 -1 32 -9t26 -19l-108 -164l-33 16zM260 800q15 -1 31.5 -9t26.5 -19l-108 -164l-33 16z" />
    <glyph glyph-name="Uogonek" unicode="&#x172;" horiz-adv-x="704" 
d="M610 252q0 -126 -67.5 -195.5t-189.5 -69.5q-123 0 -191 69.5t-68 195.5v489h64v-479q0 -221 195 -221q95 0 145.5 54t50.5 158v488h61v-489zM443 19l62 8q-64 -46 -94 -83.5t-30 -68.5q0 -20 12.5 -31.5t33.5 -11.5q31 0 53 18l6 -47q-14 -8 -32.5 -12.5t-35.5 -4.5
q-43 0 -67 21.5t-24 58.5q0 36 30.5 77t85.5 76z" />
    <glyph glyph-name="uogonek" unicode="&#x173;" horiz-adv-x="572" 
d="M428 529h59v-529h-57v92q-28 -49 -74.5 -77t-105.5 -28q-79 0 -127.5 51t-48.5 145v346h60v-343q0 -69 35 -108.5t94 -39.5q58 0 102 34t63 84v373zM448 12l39 -12q-52 -38 -76 -69t-24 -60q0 -19 13 -29.5t34 -10.5q15 0 29 4.5t24 13.5l6 -46q-13 -8 -32.5 -12.5
t-37.5 -4.5q-41 0 -64.5 20t-23.5 55q0 38 30 77.5t83 73.5z" />
    <glyph glyph-name="Wcircumflex" unicode="&#x174;" horiz-adv-x="1014" 
d="M507 614l-183 -616h-54q-58 185 -114.5 371t-111.5 372h68q46 -160 92 -319.5t94 -319.5l180 607h58l181 -611q47 162 95 322.5t94 320.5h63q-55 -186 -111 -372t-114 -371h-54zM477 977h60l123 -146l-33 -25l-120 121l-120 -121l-33 25z" />
    <glyph glyph-name="wcircumflex" unicode="&#x175;" horiz-adv-x="763" 
d="M382 435l-133 -437h-47q-87 266 -168 531h63q31 -110 64 -218.5t66 -216.5l128 426h53l129 -432q34 111 67 221t65 220h59q-81 -265 -168 -531h-46zM353 794h56l125 -164l-32 -24l-121 138l-121 -138l-32 24z" />
    <glyph glyph-name="Ycircumflex" unicode="&#x176;" horiz-adv-x="659" 
d="M362 295v-295h-62v297l-266 444h71l228 -390l225 390h67zM302 977h60l123 -146l-33 -25l-120 121l-120 -121l-33 25z" />
    <glyph glyph-name="ycircumflex" unicode="&#x177;" horiz-adv-x="525" 
d="M288 -2q-33 -82 -65 -132.5t-70 -73t-90 -22.5q-24 0 -44 4.5t-37 11.5l6 55q33 -20 74 -20q54 0 92 39.5t70 120.5l10 25q-54 130 -106.5 261t-103.5 262h63q44 -115 88 -229t89 -228q46 114 90 228.5t87 228.5h59q-52 -133 -104.5 -265t-107.5 -266zM229 794h56
l125 -164l-32 -24l-121 138l-121 -138l-32 24z" />
    <glyph glyph-name="Ydieresis" unicode="&#x178;" horiz-adv-x="659" 
d="M362 295v-295h-62v297l-266 444h71l228 -390l225 390h67zM186 889q0 21 13.5 35t32.5 14t32.5 -14t13.5 -35q0 -19 -13.5 -33.5t-32.5 -14.5t-32.5 14.5t-13.5 33.5zM387 889q0 21 13.5 35t32.5 14t32 -14t13 -35q0 -19 -13 -33.5t-32 -14.5t-32.5 14.5t-13.5 33.5z" />
    <glyph glyph-name="Zacute" unicode="&#x179;" horiz-adv-x="583" 
d="M450 687h-389l4 54h458v-49l-396 -638h401v-54h-474v49zM368 987q17 -4 31 -16.5t21 -26.5l-140 -136l-31 27z" />
    <glyph glyph-name="zacute" unicode="&#x17a;" horiz-adv-x="465" 
d="M114 47h307v-47h-377v43l301 438h-293v48h362v-43zM292 797q18 -4 32 -15.5t21 -24.5l-133 -147l-31 23z" />
    <glyph glyph-name="Zdotaccent" unicode="&#x17b;" horiz-adv-x="583" 
d="M450 687h-389l4 54h458v-49l-396 -638h401v-54h-474v49zM248 889q0 20 14 34t33 14q20 0 33.5 -14t13.5 -34q0 -21 -13.5 -35t-33.5 -14q-19 0 -33 14.5t-14 34.5z" />
    <glyph glyph-name="zdotaccent" unicode="&#x17c;" horiz-adv-x="465" 
d="M114 47h307v-47h-377v43l301 438h-293v48h362v-43zM187 701q0 20 13.5 34t32.5 14t32.5 -14t13.5 -34t-13.5 -34.5t-32.5 -14.5t-32.5 14.5t-13.5 34.5z" />
    <glyph glyph-name="Zcaron" unicode="&#x17d;" horiz-adv-x="583" 
d="M450 687h-389l4 54h458v-49l-396 -638h401v-54h-474v49zM142 964l33 25l120 -121l120 121l33 -25l-123 -145h-60z" />
    <glyph glyph-name="zcaron" unicode="&#x17e;" horiz-adv-x="465" 
d="M114 47h307v-47h-377v43l301 438h-293v48h362v-43zM79 778l32 24l121 -139l121 139l32 -24l-125 -164h-56z" />
    <glyph glyph-name="florin" unicode="&#x192;" horiz-adv-x="628" 
d="M295 482h-92v47h92v36q0 102 49 155t142 53q23 0 44 -3.5t35 -8.5l-6 -51q-23 13 -67 13q-137 0 -137 -152v-42h161v-47h-161v-504q0 -102 -49 -155t-142 -53q-23 0 -44 3.5t-35 8.5l6 52q25 -14 67 -14q137 0 137 152v510z" />
    <glyph glyph-name="uni0218" unicode="&#x218;" horiz-adv-x="581" 
d="M267 -13q-56 0 -113.5 13.5t-107.5 42.5l8 64q50 -34 104.5 -50.5t107.5 -16.5q95 0 145.5 41t50.5 112q0 37 -15 64t-53 51t-109 50q-80 30 -126.5 60t-66 65.5t-19.5 78.5q0 59 30.5 102t83.5 66.5t122 23.5q55 0 102.5 -13t85.5 -35l-18 -58q-37 26 -78 39.5t-91 13.5
q-76 0 -125 -34.5t-49 -98.5q0 -33 17.5 -59t57.5 -48.5t109 -47.5q83 -30 127.5 -62.5t61.5 -70t17 -82.5q0 -95 -67.5 -153t-191.5 -58zM251 -217h-45q20 30 34 70t21 85h59q-8 -43 -26 -83.5t-43 -71.5z" />
    <glyph glyph-name="uni0219" unicode="&#x219;" horiz-adv-x="472" 
d="M213 -13q-44 0 -86.5 11t-71.5 29l8 61q32 -25 72 -38.5t79 -13.5q68 0 104.5 28t36.5 75q0 25 -11 43t-38.5 34t-79.5 34q-88 31 -123 65t-35 84q0 45 24 77t65 49t91 17q39 0 76 -10.5t65 -27.5l-18 -52q-53 41 -122 41q-53 0 -87.5 -23t-34.5 -67q0 -35 29.5 -57
t103.5 -48q61 -22 94 -45t46 -50.5t13 -61.5q0 -72 -54 -113t-146 -41zM193 -217h-42q20 30 33.5 70t20.5 85h57q-8 -43 -26 -83.5t-43 -71.5z" />
    <glyph glyph-name="uni021A" unicode="&#x21a;" horiz-adv-x="572" 
d="M255 687h-230v54h522v-54h-230v-687h-62v687zM251 -217h-45q20 30 34 70t21 85h59q-8 -43 -26 -83.5t-43 -71.5z" />
    <glyph glyph-name="uni021B" unicode="&#x21b;" horiz-adv-x="401" 
d="M128 482h-94v47h94v120l59 28v-148h164v-47h-164v-325q0 -62 23 -90.5t78 -28.5q17 0 39 5t35 15l-6 -57q-17 -7 -40.5 -10.5t-43.5 -3.5q-73 0 -108.5 39t-35.5 120v336zM208 -217h-42q20 30 33.5 70t20.5 85h57q-8 -43 -26 -83.5t-43 -71.5z" />
    <glyph glyph-name="uni0237" unicode="&#x237;" horiz-adv-x="232" 
d="M86 529h59v-587q0 -85 -36 -128.5t-104 -43.5q-37 0 -65 13l5 52q21 -14 55 -14q41 0 63.5 30t22.5 89v589z" />
    <glyph glyph-name="circumflex" unicode="&#x2c6;" horiz-adv-x="560" 
d="M252 794h56l125 -164l-32 -24l-121 138l-121 -138l-32 24z" />
    <glyph glyph-name="caron" unicode="&#x2c7;" horiz-adv-x="560" 
d="M126 778l32 24l121 -139l121 139l32 -24l-125 -164h-56z" />
    <glyph glyph-name="uni02C9" unicode="&#x2c9;" horiz-adv-x="560" 
d="M143 713h274v-48h-274v48z" />
    <glyph glyph-name="uni02CB" unicode="&#x2cb;" horiz-adv-x="560" 
d="M214 757q7 13 21 24.5t32 15.5l110 -164l-31 -23z" />
    <glyph glyph-name="breve" unicode="&#x2d8;" horiz-adv-x="560" 
d="M280 621q-66 0 -103 38.5t-37 106.5h43q1 -49 26 -75.5t71 -26.5q47 0 71.5 26.5t25.5 75.5h43q0 -68 -37 -106.5t-103 -38.5z" />
    <glyph glyph-name="dotaccent" unicode="&#x2d9;" horiz-adv-x="560" 
d="M234 701q0 20 13.5 34t32.5 14t32.5 -14t13.5 -34t-13.5 -34.5t-32.5 -14.5t-32.5 14.5t-13.5 34.5z" />
    <glyph glyph-name="ring" unicode="&#x2da;" horiz-adv-x="560" 
d="M280 609q-46 0 -77 28.5t-31 72.5q0 45 31 73.5t77 28.5t77 -28.5t31 -73.5q0 -44 -31 -72.5t-77 -28.5zM280 775q-28 0 -46.5 -18t-18.5 -47t18.5 -47t46.5 -18q29 0 47 18.5t18 46.5q0 29 -18 47t-47 18z" />
    <glyph glyph-name="ogonek" unicode="&#x2db;" horiz-adv-x="560" 
d="M317 12l39 -12q-52 -38 -76 -69t-24 -60q0 -19 13 -29.5t34 -10.5q15 0 29 4.5t24 13.5l6 -46q-13 -8 -32.5 -12.5t-37.5 -4.5q-41 0 -64.5 20t-23.5 55q0 38 30 77.5t83 73.5z" />
    <glyph glyph-name="tilde" unicode="&#x2dc;" horiz-adv-x="560" 
d="M211 750q19 0 37.5 -8t42.5 -30q22 -21 33 -27t24 -6q20 0 32.5 18.5t14.5 51.5l43 -10q-3 -50 -27 -78.5t-63 -28.5q-19 0 -37.5 8t-42.5 30q-22 20 -33 26t-24 6q-20 0 -32.5 -18.5t-14.5 -51.5l-43 11q3 50 27 78.5t63 28.5z" />
    <glyph glyph-name="hungarumlaut" unicode="&#x2dd;" horiz-adv-x="560" 
d="M368 800q16 -1 32 -9t26 -19l-108 -164l-33 16zM219 800q15 -1 31.5 -9t26.5 -19l-108 -164l-33 16z" />
    <glyph glyph-name="gravecomb" unicode="&#x300;" horiz-adv-x="0" 
d="M-111 757q7 13 21 24.5t32 15.5l110 -164l-31 -23z" />
    <glyph glyph-name="acutecomb" unicode="&#x301;" horiz-adv-x="0" 
d="M59 797q18 -4 32 -15.5t21 -24.5l-133 -147l-31 23z" />
    <glyph glyph-name="uni0302" unicode="&#x302;" horiz-adv-x="0" 
d="M-28 794h56l125 -164l-32 -24l-121 138l-121 -138l-32 24z" />
    <glyph glyph-name="tildecomb" unicode="&#x303;" horiz-adv-x="0" 
d="M-68 750q19 0 37.5 -8t42.5 -30q22 -21 33 -27t24 -6q20 0 32.5 18.5t14.5 51.5l43 -10q-3 -50 -27 -78.5t-63 -28.5q-19 0 -37.5 8t-42.5 30q-22 20 -33 26t-24 6q-20 0 -32.5 -18.5t-14.5 -51.5l-43 11q3 50 27 78.5t63 28.5z" />
    <glyph glyph-name="uni0304" unicode="&#x304;" horiz-adv-x="0" 
d="M-137 713h274v-48h-274v48z" />
    <glyph glyph-name="uni0306" unicode="&#x306;" horiz-adv-x="0" 
d="M0 621q-66 0 -103 38.5t-37 106.5h43q1 -49 26 -75.5t71 -26.5q47 0 71.5 26.5t25.5 75.5h43q0 -68 -37 -106.5t-103 -38.5z" />
    <glyph glyph-name="uni0307" unicode="&#x307;" horiz-adv-x="0" 
d="M-46 701q0 20 13.5 34t32.5 14t32.5 -14t13.5 -34t-13.5 -34.5t-32.5 -14.5t-32.5 14.5t-13.5 34.5z" />
    <glyph glyph-name="uni0308" unicode="&#x308;" horiz-adv-x="0" 
d="M51 700q0 20 13 34t32 14q18 0 31.5 -14t13.5 -34q0 -19 -13.5 -33.5t-31.5 -14.5q-19 0 -32 14.5t-13 33.5zM-140 700q0 20 13.5 34t31.5 14t31.5 -14t13.5 -34q0 -19 -13.5 -33.5t-31.5 -14.5t-31.5 14.5t-13.5 33.5z" />
    <glyph glyph-name="uni030A" unicode="&#x30a;" horiz-adv-x="0" 
d="M0 609q-46 0 -77 28.5t-31 72.5q0 45 31 73.5t77 28.5t77 -28.5t31 -73.5q0 -44 -31 -72.5t-77 -28.5zM0 775q-28 0 -46.5 -18t-18.5 -47t18.5 -47t46.5 -18q29 0 47 18.5t18 46.5q0 29 -18 47t-47 18z" />
    <glyph glyph-name="uni030B" unicode="&#x30b;" horiz-adv-x="0" 
d="M128 800q16 -1 32 -9t26 -19l-108 -164l-33 16zM-21 800q15 -1 31.5 -9t26.5 -19l-108 -164l-33 16z" />
    <glyph glyph-name="uni030C" unicode="&#x30c;" horiz-adv-x="0" 
d="M-154 778l32 24l121 -139l121 139l32 -24l-125 -164h-56z" />
    <glyph glyph-name="uni0312" unicode="&#x312;" horiz-adv-x="0" 
d="M26 775h45q-19 -33 -30 -71t-15 -89h-60q8 91 60 160z" />
    <glyph glyph-name="uni0315" unicode="&#x315;" horiz-adv-x="0" 
d="M-24 761q15 6 30 6q16 0 31 -6l-40 -220h-36z" />
    <glyph glyph-name="dotbelowcomb" unicode="&#x323;" horiz-adv-x="0" 
d="M0 -90q19 0 32.5 -14.5t13.5 -34.5t-13.5 -34t-32.5 -14t-32.5 14t-13.5 34t13.5 34.5t32.5 14.5z" />
    <glyph glyph-name="uni0326" unicode="&#x326;" horiz-adv-x="0" 
d="M-36 -217h-42q20 30 33.5 70t20.5 85h57q-8 -43 -26 -83.5t-43 -71.5z" />
    <glyph glyph-name="uni0327" unicode="&#x327;" horiz-adv-x="0" 
d="M-7 4h44l-19 -73q51 -1 78 -22t27 -58q0 -42 -31 -66t-90 -24q-21 0 -46 6t-39 14l6 46q13 -10 35 -17t44 -7q70 0 70 49q0 44 -68 44q-19 0 -41 -5z" />
    <glyph glyph-name="uni0328" unicode="&#x328;" horiz-adv-x="0" 
d="M37 12l39 -12q-52 -38 -76 -69t-24 -60q0 -19 13 -29.5t34 -10.5q15 0 29 4.5t24 13.5l6 -46q-13 -8 -32.5 -12.5t-37.5 -4.5q-41 0 -64.5 20t-23.5 55q0 38 30 77.5t83 73.5z" />
    <glyph glyph-name="uni1E24" unicode="&#x1e24;" horiz-adv-x="732" 
d="M104 741h64v-319h397v319h62v-741h-62v369h-397v-369h-64v741zM319 -139q0 21 14 35t33 14q20 0 33.5 -14t13.5 -35q0 -20 -13.5 -34t-33.5 -14q-19 0 -33 14t-14 34z" />
    <glyph glyph-name="uni1E25" unicode="&#x1e25;" horiz-adv-x="575" 
d="M84 760h60v-319q27 46 73 73.5t105 27.5q81 0 130 -51.5t49 -144.5v-346h-59v343q0 68 -35.5 108t-97.5 40q-59 0 -103 -34.5t-62 -83.5v-373h-60v760zM293 -90q19 0 32.5 -14.5t13.5 -34.5t-13.5 -34t-32.5 -14t-32.5 14t-13.5 34t13.5 34.5t32.5 14.5z" />
    <glyph glyph-name="uni1E36" unicode="&#x1e36;" horiz-adv-x="526" 
d="M104 741h64v-687h333v-54h-397v741zM256 -139q0 21 14 35t33 14q20 0 33.5 -14t13.5 -35q0 -20 -13.5 -34t-33.5 -14q-19 0 -33 14t-14 34z" />
    <glyph glyph-name="uni1E37" unicode="&#x1e37;" horiz-adv-x="322" 
d="M84 760h60v-623q0 -52 19 -75t62 -23q39 0 68 21l-6 -57q-13 -6 -33 -10t-43 -4q-65 0 -96 34.5t-31 107.5v629zM187 -90q19 0 32.5 -14.5t13.5 -34.5t-13.5 -34t-32.5 -14t-32.5 14t-13.5 34t13.5 34.5t32.5 14.5z" />
    <glyph glyph-name="Wgrave" unicode="&#x1e80;" horiz-adv-x="1014" 
d="M507 614l-183 -616h-54q-58 185 -114.5 371t-111.5 372h68q46 -160 92 -319.5t94 -319.5l180 607h58l181 -611q47 162 95 322.5t94 320.5h63q-55 -186 -111 -372t-114 -371h-54zM382 944q8 14 21 26.5t31 16.5l119 -152l-31 -27z" />
    <glyph glyph-name="wgrave" unicode="&#x1e81;" horiz-adv-x="763" 
d="M382 435l-133 -437h-47q-87 266 -168 531h63q31 -110 64 -218.5t66 -216.5l128 426h53l129 -432q34 111 67 221t65 220h59q-81 -265 -168 -531h-46zM270 757q7 13 21 24.5t32 15.5l110 -164l-31 -23z" />
    <glyph glyph-name="Wacute" unicode="&#x1e82;" horiz-adv-x="1014" 
d="M507 614l-183 -616h-54q-58 185 -114.5 371t-111.5 372h68q46 -160 92 -319.5t94 -319.5l180 607h58l181 -611q47 162 95 322.5t94 320.5h63q-55 -186 -111 -372t-114 -371h-54zM580 987q17 -4 31 -16.5t21 -26.5l-140 -136l-31 27z" />
    <glyph glyph-name="wacute" unicode="&#x1e83;" horiz-adv-x="763" 
d="M382 435l-133 -437h-47q-87 266 -168 531h63q31 -110 64 -218.5t66 -216.5l128 426h53l129 -432q34 111 67 221t65 220h59q-81 -265 -168 -531h-46zM440 797q18 -4 32 -15.5t21 -24.5l-133 -147l-31 23z" />
    <glyph glyph-name="Wdieresis" unicode="&#x1e84;" horiz-adv-x="1014" 
d="M507 614l-183 -616h-54q-58 185 -114.5 371t-111.5 372h68q46 -160 92 -319.5t94 -319.5l180 607h58l181 -611q47 162 95 322.5t94 320.5h63q-55 -186 -111 -372t-114 -371h-54zM361 889q0 21 13.5 35t32.5 14t32.5 -14t13.5 -35q0 -19 -13.5 -33.5t-32.5 -14.5
t-32.5 14.5t-13.5 33.5zM562 889q0 21 13.5 35t32.5 14t32 -14t13 -35q0 -19 -13 -33.5t-32 -14.5t-32.5 14.5t-13.5 33.5z" />
    <glyph glyph-name="wdieresis" unicode="&#x1e85;" horiz-adv-x="763" 
d="M382 435l-133 -437h-47q-87 266 -168 531h63q31 -110 64 -218.5t66 -216.5l128 426h53l129 -432q34 111 67 221t65 220h59q-81 -265 -168 -531h-46zM432 700q0 20 13 34t32 14q18 0 31.5 -14t13.5 -34q0 -19 -13.5 -33.5t-31.5 -14.5q-19 0 -32 14.5t-13 33.5zM241 700
q0 20 13.5 34t31.5 14t31.5 -14t13.5 -34q0 -19 -13.5 -33.5t-31.5 -14.5t-31.5 14.5t-13.5 33.5z" />
    <glyph glyph-name="uni1E9E" unicode="&#x1e9e;" horiz-adv-x="716" 
d="M94 481q0 83 32 144t93 95t148 34q69 0 132 -17.5t110 -47.5v-2l-169 -260q82 -34 130.5 -67.5t69.5 -73t21 -91.5q0 -63 -29.5 -109.5t-82.5 -72.5t-126 -26q-43 0 -90.5 12t-87.5 34l7 64q83 -57 172 -57q83 0 127.5 40.5t44.5 109.5q0 44 -20 77t-72 64t-147 69v1
l169 262q-40 20 -77.5 28.5t-83.5 8.5q-101 0 -154 -61t-53 -168v-471h-64v481z" />
    <glyph glyph-name="Ygrave" unicode="&#x1ef2;" horiz-adv-x="659" 
d="M362 295v-295h-62v297l-266 444h71l228 -390l225 390h67zM207 944q8 14 21 26.5t31 16.5l119 -152l-31 -27z" />
    <glyph glyph-name="ygrave" unicode="&#x1ef3;" horiz-adv-x="525" 
d="M288 -2q-33 -82 -65 -132.5t-70 -73t-90 -22.5q-24 0 -44 4.5t-37 11.5l6 55q33 -20 74 -20q54 0 92 39.5t70 120.5l10 25q-54 130 -106.5 261t-103.5 262h63q44 -115 88 -229t89 -228q46 114 90 228.5t87 228.5h59q-52 -133 -104.5 -265t-107.5 -266zM146 757
q7 13 21 24.5t32 15.5l110 -164l-31 -23z" />
    <glyph glyph-name="uni2000" unicode="&#x2000;" horiz-adv-x="500" 
 />
    <glyph glyph-name="uni2001" unicode="&#x2001;" horiz-adv-x="1000" 
 />
    <glyph glyph-name="uni2002" unicode="&#x2002;" horiz-adv-x="500" 
 />
    <glyph glyph-name="uni2003" unicode="&#x2003;" horiz-adv-x="1000" 
 />
    <glyph glyph-name="uni2004" unicode="&#x2004;" horiz-adv-x="333" 
 />
    <glyph glyph-name="uni2005" unicode="&#x2005;" horiz-adv-x="250" 
 />
    <glyph glyph-name="uni2006" unicode="&#x2006;" horiz-adv-x="167" 
 />
    <glyph glyph-name="uni2007" unicode="&#x2007;" 
 />
    <glyph glyph-name="uni2008" unicode="&#x2008;" horiz-adv-x="248" 
 />
    <glyph glyph-name="uni2009" unicode="&#x2009;" horiz-adv-x="200" 
 />
    <glyph glyph-name="uni200A" unicode="&#x200a;" horiz-adv-x="62" 
 />
    <glyph glyph-name="uni200B" unicode="&#x200b;" horiz-adv-x="0" 
 />
    <glyph glyph-name="uni2010" unicode="&#x2010;" horiz-adv-x="290" 
d="M28 309h233v-54h-233v54z" />
    <glyph glyph-name="uni2011" unicode="&#x2011;" horiz-adv-x="290" 
d="M28 309h233v-54h-233v54z" />
    <glyph glyph-name="figuredash" unicode="&#x2012;" 
d="M25 300h600v-51h-600v51z" />
    <glyph glyph-name="endash" unicode="&#x2013;" horiz-adv-x="500" 
d="M0 300h500v-51h-500v51z" />
    <glyph glyph-name="emdash" unicode="&#x2014;" horiz-adv-x="1000" 
d="M0 300h1000v-51h-1000v51z" />
    <glyph glyph-name="uni2015" unicode="&#x2015;" horiz-adv-x="1000" 
d="M0 300h1000v-51h-1000v51z" />
    <glyph glyph-name="quoteleft" unicode="&#x2018;" horiz-adv-x="220" 
d="M132 760h34q-21 -34 -35 -73t-19 -76h2q18 0 31.5 -14.5t13.5 -35.5q0 -22 -13.5 -37t-34.5 -15q-19 0 -33.5 16.5t-14.5 47.5q1 42 19.5 94.5t49.5 92.5z" />
    <glyph glyph-name="quoteright" unicode="&#x2019;" horiz-adv-x="220" 
d="M88 509h-34q21 33 35.5 73t18.5 76h-2q-18 0 -31.5 14t-13.5 36t13.5 37t34.5 15q20 0 34 -16t14 -48q-1 -42 -19 -94.5t-50 -92.5z" />
    <glyph glyph-name="quotesinglbase" unicode="&#x201a;" horiz-adv-x="220" 
d="M88 -156h-34q21 33 35 72t19 76h-2q-18 0 -31.5 14.5t-13.5 36.5q0 23 13.5 37.5t34.5 14.5q20 0 34 -16t14 -48q-1 -42 -19 -94.5t-50 -92.5z" />
    <glyph glyph-name="quotedblleft" unicode="&#x201c;" horiz-adv-x="359" 
d="M132 760h34q-21 -34 -35 -73t-19 -76h2q18 0 31.5 -14.5t13.5 -35.5q0 -22 -13.5 -37t-34.5 -15q-19 0 -33.5 16.5t-14.5 47.5q1 42 19.5 94.5t49.5 92.5zM271 760h34q-21 -34 -35 -73t-19 -76h2q18 0 31.5 -14.5t13.5 -35.5q0 -22 -13.5 -37t-34.5 -15q-19 0 -33.5 16.5
t-14.5 47.5q1 42 19.5 94.5t49.5 92.5z" />
    <glyph glyph-name="quotedblright" unicode="&#x201d;" horiz-adv-x="359" 
d="M88 509h-34q21 33 35.5 73t18.5 76h-2q-18 0 -31.5 14t-13.5 36t13.5 37t34.5 15q20 0 34 -16t14 -48q-1 -42 -19 -94.5t-50 -92.5zM227 509h-34q21 33 35.5 73t18.5 76h-2q-18 0 -31.5 14t-13.5 36t13.5 37t34.5 15q20 0 34 -16t14 -48q-1 -42 -19 -94.5t-50 -92.5z" />
    <glyph glyph-name="quotedblbase" unicode="&#x201e;" horiz-adv-x="359" 
d="M88 -156h-34q21 33 35 72t19 76h-2q-18 0 -31.5 14.5t-13.5 36.5q0 23 13.5 37.5t34.5 14.5q20 0 34 -16t14 -48q-1 -42 -19 -94.5t-50 -92.5zM227 -156h-34q21 33 35 72t19 76h-2q-18 0 -31.5 14.5t-13.5 36.5q0 23 13.5 37.5t34.5 14.5q20 0 34 -16t14 -48
q-1 -42 -19 -94.5t-50 -92.5z" />
    <glyph glyph-name="dagger" unicode="&#x2020;" horiz-adv-x="503" 
d="M222 463h-191v53h191v244h59v-244h190v-53h-190v-571h-59v571z" />
    <glyph glyph-name="daggerdbl" unicode="&#x2021;" horiz-adv-x="503" 
d="M222 463h-191v53h191v244h59v-244h190v-53h-190v-274h190v-53h-190v-244h-59v244h-191v53h191v274z" />
    <glyph glyph-name="bullet" unicode="&#x2022;" horiz-adv-x="385" 
d="M192 157q-49 0 -81.5 32.5t-32.5 81.5q0 50 32.5 82.5t81.5 32.5q50 0 82.5 -32.5t32.5 -82.5q0 -49 -32.5 -81.5t-82.5 -32.5z" />
    <glyph glyph-name="ellipsis" unicode="&#x2026;" horiz-adv-x="1000" 
d="M118 43q0 23 14 37.5t34 14.5t34 -14.5t14 -37.5q0 -22 -14 -37t-34 -15t-34 15t-14 37zM452 43q0 23 14 37.5t34 14.5t34 -14.5t14 -37.5q0 -22 -14 -37t-34 -15t-34 15t-14 37zM786 43q0 23 14 37.5t34 14.5t34 -14.5t14 -37.5q0 -22 -14 -37t-34 -15t-34 15t-14 37z
" />
    <glyph glyph-name="perthousand" unicode="&#x2030;" horiz-adv-x="1204" 
d="M27 563q0 54 19.5 97t56 68.5t87.5 25.5t87 -25.5t55.5 -68.5t19.5 -97q0 -53 -19.5 -96.5t-55.5 -69t-87 -25.5t-87.5 25.5t-56 69t-19.5 96.5zM299 563q0 64 -29 105.5t-80 41.5t-80 -41.5t-29 -105.5t29 -105.5t80 -41.5t80 41.5t29 105.5zM645 741h61l-525 -741h-61z
M472 178q0 54 19.5 97t56 68.5t87.5 25.5t87 -25.5t55.5 -68.5t19.5 -97q0 -53 -19.5 -96.5t-55.5 -69t-87 -25.5t-87.5 25.5t-56 69t-19.5 96.5zM744 178q0 64 -29 105.5t-80 41.5t-80 -41.5t-29 -105.5t29 -105.5t80 -41.5t80 41.5t29 105.5zM852 178q0 54 19.5 97
t56 68.5t87.5 25.5t87 -25.5t55.5 -68.5t19.5 -97q0 -53 -19.5 -96.5t-55.5 -69t-87 -25.5t-87.5 25.5t-56 69t-19.5 96.5zM1124 178q0 64 -29 105.5t-80 41.5t-80 -41.5t-29 -105.5t29 -105.5t80 -41.5t80 41.5t29 105.5z" />
    <glyph glyph-name="minute" unicode="&#x2032;" horiz-adv-x="243" 
d="M112 752q16 8 36 8q18 0 31 -8l-77 -233h-38z" />
    <glyph glyph-name="second" unicode="&#x2033;" horiz-adv-x="388" 
d="M112 752q16 8 36 8q18 0 31 -8l-77 -233h-38zM256 752q16 8 36 8q18 0 31 -8l-77 -233h-38z" />
    <glyph glyph-name="guilsinglleft" unicode="&#x2039;" horiz-adv-x="360" 
d="M226 493h61l-162 -221l162 -219h-61l-167 219z" />
    <glyph glyph-name="guilsinglright" unicode="&#x203a;" horiz-adv-x="360" 
d="M235 273l-162 220h61l167 -220l-167 -220h-61z" />
    <glyph glyph-name="fraction" unicode="&#x2044;" horiz-adv-x="66" 
d="M265 741h61l-525 -741h-61z" />
    <glyph glyph-name="uni2070" unicode="&#x2070;" horiz-adv-x="429" 
d="M63 665q0 94 38 144t114 50q74 0 112 -50t38 -144t-38.5 -145t-111.5 -51q-74 0 -113 51t-39 145zM115 665q0 -155 100 -155q99 0 99 155q0 154 -99 154q-100 0 -100 -154z" />
    <glyph glyph-name="uni2074" unicode="&#x2074;" horiz-adv-x="402" 
d="M261 851h50v-248h69l-3 -39h-66v-88h-49v88h-242v31zM78 603h184v195z" />
    <glyph glyph-name="uni2075" unicode="&#x2075;" horiz-adv-x="378" 
d="M97 851h210l-5 -39h-164l-12 -99q24 7 54 7q64 0 102 -33t38 -88q0 -59 -44.5 -94.5t-115.5 -35.5q-62 0 -112 26l4 44q44 -29 103 -29q50 0 81.5 23t31.5 66q0 38 -28 61.5t-82 23.5q-40 0 -84 -14z" />
    <glyph glyph-name="uni2076" unicode="&#x2076;" horiz-adv-x="413" 
d="M333 843l-8 -42q-19 10 -38 14t-36 4q-47 0 -76 -21t-43 -55.5t-16 -75.5q16 27 46 42t65 15q56 0 93 -34t37 -90q0 -58 -38.5 -94.5t-102.5 -36.5q-70 0 -111.5 46.5t-41.5 131.5q0 107 52.5 159.5t133.5 52.5q47 0 84 -16zM147 538q26 -28 69 -28q39 0 64.5 24t25.5 63
q0 40 -26.5 64.5t-64.5 24.5q-36 0 -64.5 -20.5t-34.5 -53.5q5 -46 31 -74z" />
    <glyph glyph-name="uni2077" unicode="&#x2077;" horiz-adv-x="351" 
d="M275 812h-239l4 39h289l-4 -38q-52 -76 -85.5 -131.5t-53.5 -103.5t-34 -102h-55q15 53 36.5 102.5t55.5 105.5t86 128z" />
    <glyph glyph-name="uni2078" unicode="&#x2078;" horiz-adv-x="426" 
d="M212 859q58 0 95.5 -27t37.5 -65q0 -58 -91 -92q54 -16 80.5 -39.5t26.5 -58.5q0 -47 -42.5 -77.5t-107.5 -30.5t-106 30t-41 74q0 36 27.5 61.5t77.5 40.5q-46 14 -67.5 37.5t-21.5 52.5q0 39 37.5 66.5t94.5 27.5zM212 509q43 0 70 19.5t27 50.5q0 26 -22.5 45
t-77.5 32q-43 -12 -68 -31t-25 -48q0 -31 27 -49.5t69 -18.5zM128 762q0 -45 89 -70q81 23 81 71q0 25 -24 41.5t-61 16.5t-61 -16.5t-24 -42.5z" />
    <glyph glyph-name="uni2079" unicode="&#x2079;" horiz-adv-x="413" 
d="M77 488l4 45q20 -13 41.5 -18t40.5 -5q63 0 97 41.5t37 111.5q-16 -26 -45 -40.5t-65 -14.5q-58 0 -94.5 34t-36.5 89q0 56 40 92t104 36q69 0 109.5 -47.5t40.5 -133.5q0 -100 -51 -154.5t-134 -54.5q-50 0 -88 19zM297 713q-4 47 -29 76.5t-68 29.5q-40 0 -66 -24
t-26 -63q0 -37 25.5 -61t67.5 -24q35 0 62 18t34 48z" />
    <glyph glyph-name="uni2080" unicode="&#x2080;" horiz-adv-x="429" 
d="M63 79q0 94 38 144t114 50q74 0 112 -50t38 -144t-38.5 -145t-111.5 -51q-74 0 -113 51t-39 145zM115 79q0 -155 100 -155q99 0 99 155q0 154 -99 154q-100 0 -100 -154z" />
    <glyph glyph-name="uni2081" unicode="&#x2081;" horiz-adv-x="380" 
d="M221 -67h100v-43h-255v43h107v280l-99 -47l-4 43l116 56h35v-332z" />
    <glyph glyph-name="uni2082" unicode="&#x2082;" horiz-adv-x="388" 
d="M188 69q45 28 64 50.5t19 47.5q0 30 -24.5 48t-65.5 18q-63 0 -113 -40l-3 45q53 35 123 35q61 0 97 -29.5t36 -76.5q0 -33 -22 -61.5t-77 -62.5q-52 -31 -75.5 -56t-33.5 -57h220l-4 -40h-273q2 56 33 96.5t99 82.5z" />
    <glyph glyph-name="uni2083" unicode="&#x2083;" horiz-adv-x="372" 
d="M242 226h-188l4 39h242l-4 -34l-115 -114q61 0 97 -29t36 -79q0 -57 -45 -91.5t-116 -34.5q-62 0 -114 26l4 44q49 -29 107 -29q50 0 81 23t31 63q0 37 -27 56.5t-70 19.5q-29 0 -44 -6v25z" />
    <glyph glyph-name="uni2084" unicode="&#x2084;" horiz-adv-x="402" 
d="M261 265h50v-248h69l-3 -39h-66v-88h-49v88h-242v31zM78 17h184v195z" />
    <glyph glyph-name="uni2085" unicode="&#x2085;" horiz-adv-x="378" 
d="M97 265h210l-5 -39h-164l-12 -99q24 7 54 7q64 0 102 -33t38 -88q0 -59 -44.5 -94.5t-115.5 -35.5q-62 0 -112 26l4 44q44 -29 103 -29q50 0 81.5 23t31.5 66q0 38 -28 61.5t-82 23.5q-40 0 -84 -14z" />
    <glyph glyph-name="uni2086" unicode="&#x2086;" horiz-adv-x="413" 
d="M333 257l-8 -42q-19 10 -38 14t-36 4q-47 0 -76 -21t-43 -55.5t-16 -75.5q16 27 46 42t65 15q56 0 93 -34t37 -90q0 -58 -38.5 -94.5t-102.5 -36.5q-70 0 -111.5 46.5t-41.5 131.5q0 107 52.5 159.5t133.5 52.5q47 0 84 -16zM147 -48q26 -28 69 -28q39 0 64.5 24t25.5 63
q0 40 -26.5 64.5t-64.5 24.5q-36 0 -64.5 -20.5t-34.5 -53.5q5 -46 31 -74z" />
    <glyph glyph-name="uni2087" unicode="&#x2087;" horiz-adv-x="351" 
d="M275 226h-239l4 39h289l-4 -38q-52 -76 -85.5 -131.5t-53.5 -103.5t-34 -102h-55q15 53 36.5 102.5t55.5 105.5t86 128z" />
    <glyph glyph-name="uni2088" unicode="&#x2088;" horiz-adv-x="426" 
d="M212 273q58 0 95.5 -27t37.5 -65q0 -58 -91 -92q54 -16 80.5 -39.5t26.5 -58.5q0 -47 -42.5 -77.5t-107.5 -30.5t-106 30t-41 74q0 36 27.5 61.5t77.5 40.5q-46 14 -67.5 37.5t-21.5 52.5q0 39 37.5 66.5t94.5 27.5zM212 -77q43 0 70 19.5t27 50.5q0 26 -22.5 45
t-77.5 32q-43 -12 -68 -31t-25 -48q0 -31 27 -49.5t69 -18.5zM128 176q0 -45 89 -70q81 23 81 71q0 25 -24 41.5t-61 16.5t-61 -16.5t-24 -42.5z" />
    <glyph glyph-name="uni2089" unicode="&#x2089;" horiz-adv-x="413" 
d="M77 -98l4 45q20 -13 41.5 -18t40.5 -5q63 0 97 41.5t37 111.5q-16 -26 -45 -40.5t-65 -14.5q-58 0 -94.5 34t-36.5 89q0 56 40 92t104 36q69 0 109.5 -47.5t40.5 -133.5q0 -100 -51 -154.5t-134 -54.5q-50 0 -88 19zM297 127q-4 47 -29 76.5t-68 29.5q-40 0 -66 -24
t-26 -63q0 -37 25.5 -61t67.5 -24q35 0 62 18t34 48z" />
    <glyph glyph-name="Euro" unicode="&#x20ac;" 
d="M106 266h-88v53h81q-2 25 -2 52q0 32 3 62h-82v52h90q25 126 104.5 197.5t195.5 71.5q104 0 186 -55l-18 -58q-43 32 -82.5 45.5t-83.5 13.5q-92 0 -154 -56.5t-84 -158.5h352l-15 -52h-345q-3 -29 -3 -60q0 -28 2 -54h311l-15 -53h-288q20 -107 83 -166.5t159 -59.5
q47 0 94.5 14.5t80.5 43.5l7 -64q-34 -22 -84.5 -34.5t-102.5 -12.5q-121 0 -200.5 74t-101.5 205z" />
    <glyph glyph-name="uni20B9" unicode="&#x20b9;" 
d="M99 322v47h131q85 0 137 35.5t60 99.5h-328v51h328q-9 63 -60 98.5t-136 35.5h-132v52h490l-15 -52h-172q80 -44 91 -134h96l-15 -51h-81q-9 -86 -76 -135t-178 -49h-54l317 -320h-82z" />
    <glyph glyph-name="uni20BA" unicode="&#x20ba;" 
d="M162 294l-104 -63v56l104 63v113l-104 -62v56l104 63v221h62v-184l146 88v-57l-146 -88v-113l146 88v-56l-146 -88v-277h53q122 0 180 64.5t70 176.5l59 -9q-8 -85 -44.5 -149.5t-102 -100.5t-162.5 -36h-115v294z" />
    <glyph glyph-name="uni20BD" unicode="&#x20bd;" 
d="M124 741h182q78 0 138.5 -23.5t94.5 -70.5t34 -118t-34 -118.5t-94.5 -70.5t-138.5 -23h-118v-113h231l-15 -52h-216v-152h-64v152h-103v52h103v113h-103v51h103v373zM305 368q92 0 147 39.5t55 121.5q0 81 -55 120.5t-147 39.5h-117v-321h117z" />
    <glyph glyph-name="trademark" unicode="&#x2122;" horiz-adv-x="746" 
d="M347 741h51l133 -273l133 273h49l10 -367h-47l-6 287l-123 -250h-36l-118 245l-7 -282h-48zM178 374h-49v325h-109v42h267v-42h-109v-325z" />
    <glyph glyph-name="uni2150" unicode="&#x2150;" horiz-adv-x="797" 
d="M221 409h100v-43h-255v43h107v280l-99 -47l-4 43l116 56h35v-332zM634 741h61l-525 -741h-61zM721 336h-239l4 39h289l-4 -38q-52 -76 -85.5 -131.5t-53.5 -103.5t-34 -102h-55q15 53 36.5 102.5t55.5 105.5t86 128z" />
    <glyph glyph-name="uni2151" unicode="&#x2151;" horiz-adv-x="859" 
d="M221 409h100v-43h-255v43h107v280l-99 -47l-4 43l116 56h35v-332zM657 741h61l-525 -741h-61zM523 12l4 45q20 -13 41.5 -18t40.5 -5q63 0 97 41.5t37 111.5q-16 -26 -45 -40.5t-65 -14.5q-58 0 -94.5 34t-36.5 89q0 56 40 92t104 36q69 0 109.5 -47.5t40.5 -133.5
q0 -100 -51 -154.5t-134 -54.5q-50 0 -88 19zM743 237q-4 47 -29 76.5t-68 29.5q-40 0 -66 -24t-26 -63q0 -37 25.5 -61t67.5 -24q35 0 62 18t34 48z" />
    <glyph glyph-name="uni2153" unicode="&#x2153;" horiz-adv-x="818" 
d="M221 409h100v-43h-255v43h107v280l-99 -47l-4 43l116 56h35v-332zM645 741h61l-525 -741h-61zM688 336h-188l4 39h242l-4 -34l-115 -114q61 0 97 -29t36 -79q0 -57 -45 -91.5t-116 -34.5q-62 0 -114 26l4 44q49 -29 107 -29q50 0 81 23t31 63q0 37 -27 56.5t-70 19.5
q-29 0 -44 -6v25z" />
    <glyph glyph-name="uni2154" unicode="&#x2154;" horiz-adv-x="826" 
d="M188 545q45 28 64 50.5t19 47.5q0 30 -24.5 48t-65.5 18q-63 0 -113 -40l-3 45q53 35 123 35q61 0 97 -29.5t36 -76.5q0 -33 -22 -61.5t-77 -62.5q-52 -31 -75.5 -56t-33.5 -57h220l-4 -40h-273q2 56 33 96.5t99 82.5zM653 741h61l-525 -741h-61zM696 336h-188l4 39h242
l-4 -34l-115 -114q61 0 97 -29t36 -79q0 -57 -45 -91.5t-116 -34.5q-62 0 -114 26l4 44q49 -29 107 -29q50 0 81 23t31 63q0 37 -27 56.5t-70 19.5q-29 0 -44 -6v25z" />
    <glyph glyph-name="uni2155" unicode="&#x2155;" horiz-adv-x="824" 
d="M221 409h100v-43h-255v43h107v280l-99 -47l-4 43l116 56h35v-332zM651 741h61l-525 -741h-61zM543 375h210l-5 -39h-164l-12 -99q24 7 54 7q64 0 102 -33t38 -88q0 -59 -44.5 -94.5t-115.5 -35.5q-62 0 -112 26l4 44q44 -29 103 -29q50 0 81.5 23t31.5 66q0 38 -28 61.5
t-82 23.5q-40 0 -84 -14z" />
    <glyph glyph-name="uni2156" unicode="&#x2156;" horiz-adv-x="832" 
d="M188 545q45 28 64 50.5t19 47.5q0 30 -24.5 48t-65.5 18q-63 0 -113 -40l-3 45q53 35 123 35q61 0 97 -29.5t36 -76.5q0 -33 -22 -61.5t-77 -62.5q-52 -31 -75.5 -56t-33.5 -57h220l-4 -40h-273q2 56 33 96.5t99 82.5zM659 741h61l-525 -741h-61zM551 375h210l-5 -39
h-164l-12 -99q24 7 54 7q64 0 102 -33t38 -88q0 -59 -44.5 -94.5t-115.5 -35.5q-62 0 -112 26l4 44q44 -29 103 -29q50 0 81.5 23t31.5 66q0 38 -28 61.5t-82 23.5q-40 0 -84 -14z" />
    <glyph glyph-name="uni2157" unicode="&#x2157;" horiz-adv-x="816" 
d="M242 702h-188l4 39h242l-4 -34l-115 -114q61 0 97 -29t36 -79q0 -57 -45 -91.5t-116 -34.5q-62 0 -114 26l4 44q49 -29 107 -29q50 0 81 23t31 63q0 37 -27 56.5t-70 19.5q-29 0 -44 -6v25zM627 741h61l-525 -741h-61zM535 375h210l-5 -39h-164l-12 -99q24 7 54 7
q64 0 102 -33t38 -88q0 -59 -44.5 -94.5t-115.5 -35.5q-62 0 -112 26l4 44q44 -29 103 -29q50 0 81.5 23t31.5 66q0 38 -28 61.5t-82 23.5q-40 0 -84 -14z" />
    <glyph glyph-name="uni2158" unicode="&#x2158;" horiz-adv-x="847" 
d="M261 741h50v-248h69l-3 -39h-66v-88h-49v88h-242v31zM78 493h184v195zM669 741h61l-525 -741h-61zM565 375h210l-5 -39h-164l-12 -99q24 7 54 7q64 0 102 -33t38 -88q0 -59 -44.5 -94.5t-115.5 -35.5q-62 0 -112 26l4 44q44 -29 103 -29q50 0 81.5 23t31.5 66
q0 38 -28 61.5t-82 23.5q-40 0 -84 -14z" />
    <glyph glyph-name="uni2159" unicode="&#x2159;" horiz-adv-x="859" 
d="M221 409h100v-43h-255v43h107v280l-99 -47l-4 43l116 56h35v-332zM661 741h61l-525 -741h-61zM779 367l-8 -42q-19 10 -38 14t-36 4q-47 0 -76 -21t-43 -55.5t-16 -75.5q16 27 46 42t65 15q56 0 93 -34t37 -90q0 -58 -38.5 -94.5t-102.5 -36.5q-70 0 -111.5 46.5
t-41.5 131.5q0 107 52.5 159.5t133.5 52.5q47 0 84 -16zM593 62q26 -28 69 -28q39 0 64.5 24t25.5 63q0 40 -26.5 64.5t-64.5 24.5q-36 0 -64.5 -20.5t-34.5 -53.5q5 -46 31 -74z" />
    <glyph glyph-name="uni215A" unicode="&#x215a;" horiz-adv-x="857" 
d="M97 741h210l-5 -39h-164l-12 -99q24 7 54 7q64 0 102 -33t38 -88q0 -59 -44.5 -94.5t-115.5 -35.5q-62 0 -112 26l4 44q44 -29 103 -29q50 0 81.5 23t31.5 66q0 38 -28 61.5t-82 23.5q-40 0 -84 -14zM649 741h61l-525 -741h-61zM777 367l-8 -42q-19 10 -38 14t-36 4
q-47 0 -76 -21t-43 -55.5t-16 -75.5q16 27 46 42t65 15q56 0 93 -34t37 -90q0 -58 -38.5 -94.5t-102.5 -36.5q-70 0 -111.5 46.5t-41.5 131.5q0 107 52.5 159.5t133.5 52.5q47 0 84 -16zM591 62q26 -28 69 -28q39 0 64.5 24t25.5 63q0 40 -26.5 64.5t-64.5 24.5
q-36 0 -64.5 -20.5t-34.5 -53.5q5 -46 31 -74z" />
    <glyph glyph-name="oneeighth" unicode="&#x215b;" horiz-adv-x="871" 
d="M221 409h100v-43h-255v43h107v280l-99 -47l-4 43l116 56h35v-332zM661 741h61l-525 -741h-61zM658 383q58 0 95.5 -27t37.5 -65q0 -58 -91 -92q54 -16 80.5 -39.5t26.5 -58.5q0 -47 -42.5 -77.5t-107.5 -30.5t-106 30t-41 74q0 36 27.5 61.5t77.5 40.5q-46 14 -67.5 37.5
t-21.5 52.5q0 39 37.5 66.5t94.5 27.5zM658 33q43 0 70 19.5t27 50.5q0 26 -22.5 45t-77.5 32q-43 -12 -68 -31t-25 -48q0 -31 27 -49.5t69 -18.5zM574 286q0 -45 89 -70q81 23 81 71q0 25 -24 41.5t-61 16.5t-61 -16.5t-24 -42.5z" />
    <glyph glyph-name="threeeighths" unicode="&#x215c;" horiz-adv-x="863" 
d="M242 702h-188l4 39h242l-4 -34l-115 -114q61 0 97 -29t36 -79q0 -57 -45 -91.5t-116 -34.5q-62 0 -114 26l4 44q49 -29 107 -29q50 0 81 23t31 63q0 37 -27 56.5t-70 19.5q-29 0 -44 -6v25zM637 741h61l-525 -741h-61zM650 383q58 0 95.5 -27t37.5 -65q0 -58 -91 -92
q54 -16 80.5 -39.5t26.5 -58.5q0 -47 -42.5 -77.5t-107.5 -30.5t-106 30t-41 74q0 36 27.5 61.5t77.5 40.5q-46 14 -67.5 37.5t-21.5 52.5q0 39 37.5 66.5t94.5 27.5zM650 33q43 0 70 19.5t27 50.5q0 26 -22.5 45t-77.5 32q-43 -12 -68 -31t-25 -48q0 -31 27 -49.5t69 -18.5
zM566 286q0 -45 89 -70q81 23 81 71q0 25 -24 41.5t-61 16.5t-61 -16.5t-24 -42.5z" />
    <glyph glyph-name="fiveeighths" unicode="&#x215d;" horiz-adv-x="870" 
d="M97 741h210l-5 -39h-164l-12 -99q24 7 54 7q64 0 102 -33t38 -88q0 -59 -44.5 -94.5t-115.5 -35.5q-62 0 -112 26l4 44q44 -29 103 -29q50 0 81.5 23t31.5 66q0 38 -28 61.5t-82 23.5q-40 0 -84 -14zM643 741h61l-525 -741h-61zM656 383q58 0 95.5 -27t37.5 -65
q0 -58 -91 -92q54 -16 80.5 -39.5t26.5 -58.5q0 -47 -42.5 -77.5t-107.5 -30.5t-106 30t-41 74q0 36 27.5 61.5t77.5 40.5q-46 14 -67.5 37.5t-21.5 52.5q0 39 37.5 66.5t94.5 27.5zM656 33q43 0 70 19.5t27 50.5q0 26 -22.5 45t-77.5 32q-43 -12 -68 -31t-25 -48
q0 -31 27 -49.5t69 -18.5zM572 286q0 -45 89 -70q81 23 81 71q0 25 -24 41.5t-61 16.5t-61 -16.5t-24 -42.5z" />
    <glyph glyph-name="seveneighths" unicode="&#x215e;" horiz-adv-x="821" 
d="M275 702h-239l4 39h289l-4 -38q-52 -76 -85.5 -131.5t-53.5 -103.5t-34 -102h-55q15 53 36.5 102.5t55.5 105.5t86 128zM595 741h61l-525 -741h-61zM607 383q58 0 95.5 -27t37.5 -65q0 -58 -91 -92q54 -16 80.5 -39.5t26.5 -58.5q0 -47 -42.5 -77.5t-107.5 -30.5t-106 30
t-41 74q0 36 27.5 61.5t77.5 40.5q-46 14 -67.5 37.5t-21.5 52.5q0 39 37.5 66.5t94.5 27.5zM607 33q43 0 70 19.5t27 50.5q0 26 -22.5 45t-77.5 32q-43 -12 -68 -31t-25 -48q0 -31 27 -49.5t69 -18.5zM523 286q0 -45 89 -70q81 23 81 71q0 25 -24 41.5t-61 16.5t-61 -16.5
t-24 -42.5z" />
    <glyph glyph-name="arrowleft" unicode="&#x2190;" horiz-adv-x="915" 
d="M80 370l341 313l47 -52l-260 -229l627 4v-72l-627 4l260 -229l-47 -52z" />
    <glyph glyph-name="arrowup" unicode="&#x2191;" horiz-adv-x="786" 
d="M431 -8h-76l4 627l-227 -260l-52 47l313 342l313 -342l-52 -47l-227 260z" />
    <glyph glyph-name="arrowright" unicode="&#x2192;" horiz-adv-x="915" 
d="M835 370l-341 -313l-47 52l260 229l-627 -4v72l627 -4l-260 229l47 52z" />
    <glyph glyph-name="arrowdown" unicode="&#x2193;" horiz-adv-x="786" 
d="M355 748h76l-4 -627l227 260l52 -47l-313 -342l-313 342l52 47l227 -260z" />
    <glyph glyph-name="partialdiff" unicode="&#x2202;" 
d="M478.5 122q-39.5 -63 -95 -99t-124.5 -36q-85 0 -132 56t-47 151q0 61 18.5 120.5t53.5 108t84 77.5t109 29q90 0 151 -65q-2 68 -20.5 116t-56 82t-98.5 59l28 46q76 -32 122 -75.5t67 -105t21 -149.5q0 -90 -20.5 -171t-60 -144zM474.5 264q18.5 66 21.5 140
q-58 75 -141 75q-48 0 -87 -24t-67 -64.5t-43.5 -91.5t-15.5 -105q0 -73 30 -113.5t87 -40.5q51 0 93 29t73 79t49.5 116z" />
    <glyph glyph-name="uni2206" unicode="&#x2206;" horiz-adv-x="684" 
d="M308 741h66l275 -691v-50h-615v50zM340 676l-243 -622h485z" />
    <glyph glyph-name="product" unicode="&#x220f;" horiz-adv-x="667" 
d="M80 741h507v-849h-61v795h-386v-795h-60v849z" />
    <glyph glyph-name="summation" unicode="&#x2211;" 
d="M279 329l-219 365v47h486l-6 -52h-412l214 -358l-220 -388h431v-52h-495v45z" />
    <glyph glyph-name="minus" unicode="&#x2212;" 
d="M87 371h476v-52h-476v52z" />
    <glyph glyph-name="uni2215" unicode="&#x2215;" horiz-adv-x="605" 
d="M535 741h61l-525 -741h-61z" />
    <glyph glyph-name="uni2219" unicode="&#x2219;" horiz-adv-x="248" 
d="M76 370q0 23 14 37.5t34 14.5t34 -14.5t14 -37.5q0 -22 -14 -37t-34 -15t-34 15t-14 37z" />
    <glyph glyph-name="radical" unicode="&#x221a;" 
d="M327 0h-62l-136 326h-81v52h121l127 -316l245 679h60z" />
    <glyph glyph-name="infinity" unicode="&#x221e;" horiz-adv-x="700" 
d="M499 191q-48 0 -85 28t-61 73q-27 -48 -66.5 -74.5t-87.5 -26.5q-64 0 -104.5 42.5t-40.5 109.5q0 46 19 81.5t52.5 56t75.5 20.5q48 0 85 -28t62 -73q27 48 66.5 74.5t87.5 26.5q64 0 104 -42t40 -110q0 -69 -41 -113.5t-106 -44.5zM427.5 266.5q32.5 -27.5 69.5 -27.5
q41 0 68 30.5t27 78.5q0 46 -25 75.5t-66 29.5q-39 0 -72 -29.5t-54 -81.5q20 -48 52.5 -75.5zM273 425.5q-32 27.5 -69 27.5q-41 0 -68 -30.5t-27 -78.5q0 -46 25 -75.5t66 -29.5q38 0 71.5 29.5t53.5 82.5q-20 47 -52 74.5z" />
    <glyph glyph-name="integral" unicode="&#x222b;" 
d="M295 565q0 102 49 155t142 53q23 0 44 -3.5t35 -8.5l-6 -51q-23 13 -67 13q-137 0 -137 -152v-593q0 -102 -49 -155t-142 -53q-23 0 -44 3.5t-35 8.5l6 52q25 -14 67 -14q137 0 137 152v593z" />
    <glyph glyph-name="approxequal" unicode="&#x2248;" 
d="M445 378q-20 0 -38 5t-38.5 18.5t-51.5 36.5q-32 25 -51 38t-31.5 18t-25.5 5q-34 0 -52.5 -28t-26.5 -90l-55 13q9 74 43.5 117.5t86.5 43.5q21 0 38.5 -5t38.5 -17.5t51 -36.5q32 -25 51 -38.5t31.5 -18t25.5 -4.5q34 0 53 28t26 89l55 -13q-9 -74 -43.5 -117.5
t-86.5 -43.5zM445 136q-20 0 -38 5t-38.5 18.5t-51.5 36.5q-32 25 -51 38t-31.5 18t-25.5 5q-34 0 -52.5 -28t-26.5 -90l-55 13q9 74 43.5 117.5t86.5 43.5q21 0 38.5 -5t38.5 -17.5t51 -36.5q32 -25 51 -38.5t31.5 -18t25.5 -4.5q34 0 53 28t26 89l55 -13
q-9 -74 -43.5 -117.5t-86.5 -43.5z" />
    <glyph glyph-name="notequal" unicode="&#x2260;" 
d="M316 244h247v-52h-267l-51 -136l-51 19l44 117h-151v52h171l76 201h-247v52h267l51 136l51 -19l-44 -117h151v-52h-171z" />
    <glyph glyph-name="lessequal" unicode="&#x2264;" 
d="M87 392v44l476 207v-57l-406 -172l406 -172v-57zM87 94h476v-52h-476v52z" />
    <glyph glyph-name="greaterequal" unicode="&#x2265;" 
d="M563 436v-44l-476 -207v57l406 172l-406 172v57zM87 94h476v-52h-476v52z" />
    <glyph glyph-name="midlinehorizontalellipsis" unicode="&#x22ef;" horiz-adv-x="874" 
d="M80 370q0 30 17.5 50.5t45.5 20.5t45.5 -20.5t17.5 -50.5t-17.5 -50.5t-45.5 -20.5t-45.5 20.5t-17.5 50.5zM374 370q0 30 17.5 50.5t45.5 20.5t45.5 -20.5t17.5 -50.5t-17.5 -50.5t-45.5 -20.5t-45.5 20.5t-17.5 50.5zM668 370q0 30 17.5 50.5t45.5 20.5t45.5 -20.5
t17.5 -50.5t-17.5 -50.5t-45.5 -20.5t-45.5 20.5t-17.5 50.5z" />
    <glyph glyph-name="upArrowHead" unicode="&#x2303;" horiz-adv-x="734" 
d="M654 239l-52 -50l-236 259l-234 -259l-52 50l287 313z" />
    <glyph glyph-name="downArrowHead" unicode="&#x2304;" horiz-adv-x="734" 
d="M80 502l52 50l236 -259l234 259l52 -50l-287 -313z" />
    <glyph glyph-name="lozenge" unicode="&#x25ca;" 
d="M66 379l235 377h51l233 -377l-233 -379h-51zM520 378l-194 316l-194 -316l194 -316z" />
    <glyph glyph-name="heavenTrigram" unicode="&#x2630;" horiz-adv-x="656" 
d="M576 150h-496v67h496v-67zM576 337h-496v67h496v-67zM576 524h-496v67h496v-67z" />
    <glyph glyph-name="checkmark" unicode="&#x2713;" horiz-adv-x="703" 
d="M568 611l55 -44l-342 -437l-201 184l49 54l145 -138z" />
    <glyph glyph-name="ballotX" unicode="&#x2717;" horiz-adv-x="618" 
d="M129 141l-49 49l182 180l-182 180l49 49l180 -182l180 182l49 -49l-182 -180l182 -180l-49 -49l-180 182z" />
    <glyph glyph-name="anglebracketleft" unicode="&#x27e8;" horiz-adv-x="510" 
d="M80 370l303 277l47 -52l-246 -225l246 -225l-47 -52z" />
    <glyph glyph-name="anglebracketright" unicode="&#x27e9;" horiz-adv-x="510" 
d="M430 370l-303 -277l-47 52l246 225l-246 225l47 52z" />
    <glyph glyph-name="clockwiseGappedCircleArrow" unicode="&#x27f3;" horiz-adv-x="743" 
d="M80 371q0 83 38.5 148t105 103t150.5 38q56 0 112.5 -23.5t97.5 -64.5l77 80v-206h-206l82 78q-31 33 -75 53t-88 20q-62 0 -112.5 -30t-80 -81t-29.5 -115t29.5 -115.5t80 -81.5t112.5 -30q50 0 95 22.5t77.5 61.5t43.5 87h73q-13 -66 -56 -119t-104 -84t-129 -31
q-84 0 -150.5 38t-105 103.5t-38.5 148.5z" />
    <glyph glyph-name="blackMediumUpTriangleCentred" unicode="&#x2bc5;" horiz-adv-x="663" 
d="M583 232h-503l251 276z" />
    <glyph glyph-name="blackMediumDownTriangleCentred" unicode="&#x2bc6;" horiz-adv-x="663" 
d="M80 508h503l-251 -276z" />
    <glyph glyph-name="blackMediumLeftTriangleCentred" unicode="&#x2bc7;" horiz-adv-x="435" 
d="M355 118l-275 253l275 252v-505z" />
    <glyph glyph-name="blackMediumRightTriangleCentred" unicode="&#x2bc8;" horiz-adv-x="435" 
d="M80 118v505l275 -252z" />
    <glyph glyph-name="uniFB00" unicode="&#xfb00;" horiz-adv-x="750" 
d="M137 482h-93v47h93v39q0 98 49.5 151.5t137.5 53.5q45 0 75 -12l-5 -53q-23 14 -64 14q-64 0 -99 -38t-35 -114v-41h289v39q0 98 50 151.5t137 53.5q45 0 76 -12l-6 -53q-23 14 -64 14q-64 0 -98.5 -38t-34.5 -114v-41h161v-47h-161v-482h-60v482h-289v-482h-59v482z" />
    <glyph glyph-name="uniFB01" unicode="&#xfb01;" horiz-adv-x="631" 
d="M137 482h-93v47h93v39q0 98 48 151.5t136 53.5q20 0 37.5 -2.5t32.5 -7.5l-6 -54q-21 13 -60 13q-129 0 -129 -152v-41h161v-47h-161v-482h-59v482zM485 482h-144v47h203v-529h-59v482zM469 701q0 20 13.5 34t32.5 14t32.5 -14t13.5 -34t-13.5 -34.5t-32.5 -14.5
t-32.5 14.5t-13.5 34.5z" />
    <glyph glyph-name="uniFB02" unicode="&#xfb02;" horiz-adv-x="714" 
d="M137 482h-93v47h93v39q0 98 48 151.5t136 53.5q20 0 37.5 -2.5t32.5 -7.5l-6 -54q-21 13 -60 13q-129 0 -129 -152v-41h161v-47h-161v-482h-59v482zM476 760h60v-623q0 -52 19 -75t62 -23q39 0 68 21l-6 -57q-13 -6 -33 -10t-43 -4q-65 0 -96 34.5t-31 107.5v629z" />
    <glyph glyph-name="uniFB03" unicode="&#xfb03;" horiz-adv-x="979" 
d="M137 482h-93v47h93v39q0 98 49.5 151.5t137.5 53.5q45 0 75 -12l-5 -53q-23 14 -64 14q-64 0 -99 -38t-35 -114v-41h289v39q0 98 48 151.5t136 53.5q20 0 38 -2.5t33 -7.5l-6 -54q-23 13 -61 13q-128 0 -128 -152v-41h161v-47h-161v-482h-60v482h-289v-482h-59v482z
M834 482h-144v47h203v-529h-59v482zM818 701q0 20 13.5 34t32.5 14t32.5 -14t13.5 -34t-13.5 -34.5t-32.5 -14.5t-32.5 14.5t-13.5 34.5z" />
    <glyph glyph-name="uniFB04" unicode="&#xfb04;" horiz-adv-x="1063" 
d="M137 482h-93v47h93v39q0 98 49.5 151.5t137.5 53.5q45 0 75 -12l-5 -53q-23 14 -64 14q-64 0 -99 -38t-35 -114v-41h289v39q0 98 48 151.5t136 53.5q20 0 38 -2.5t33 -7.5l-6 -54q-23 13 -61 13q-128 0 -128 -152v-41h161v-47h-161v-482h-60v482h-289v-482h-59v482z
M825 760h60v-623q0 -52 19 -75t62 -23q39 0 68 21l-6 -57q-13 -6 -33 -10t-43 -4q-65 0 -96 34.5t-31 107.5v629z" />
    <glyph glyph-name="ellipsis.vert" unicode="&#xfe19;" horiz-adv-x="366" orientation="v" 
d="M183 575q-28 0 -45.5 20.5t-17.5 50.5t17.5 50.5t45.5 20.5t45.5 -20.5t17.5 -50.5t-17.5 -50.5t-45.5 -20.5zM183 24q-28 0 -45.5 20.5t-17.5 50.5t17.5 50.5t45.5 20.5t45.5 -20.5t17.5 -50.5t-17.5 -50.5t-45.5 -20.5zM183 300q-28 0 -45.5 20.5t-17.5 50.5t17.5 50.5
t45.5 20.5t45.5 -20.5t17.5 -50.5t-17.5 -50.5t-45.5 -20.5z" />
    <glyph glyph-name="uniFEFF" unicode="&#xfeff;" horiz-adv-x="0" 
 />
    <glyph glyph-name="dotlessexclam" horiz-adv-x="248" 
d="M84 743q5 6 16 11.5t24 5.5t24 -5.5t16 -11.5l-18 -540h-45z" />
    <glyph glyph-name="dotlessquestion" horiz-adv-x="460" 
d="M305 360q-49 -46 -67.5 -81t-20.5 -76h-46q-2 34 5.5 62t28.5 58.5t61 70.5q47 47 69.5 86.5t22.5 81.5q0 68 -40.5 103.5t-105.5 35.5q-101 0 -175 -80l-6 70q37 29 85.5 46t101.5 17q59 0 105 -23t72 -65t26 -101q0 -49 -26 -96.5t-90 -108.5z" />
    <glyph glyph-name="zero.pnum" horiz-adv-x="706" 
d="M93 370q0 186 66 285t194 99q129 0 194.5 -99t65.5 -285q0 -183 -66.5 -283t-193.5 -100t-193.5 100t-66.5 283zM551 370q0 163 -49 247t-149 84q-99 0 -148.5 -84t-49.5 -247q0 -161 50 -245.5t148 -84.5t148 84.5t50 245.5z" />
    <glyph glyph-name="one.pnum" horiz-adv-x="423" 
d="M228 674l-185 -100l-5 58l205 110h45v-742h-60v674z" />
    <glyph glyph-name="two.pnum" horiz-adv-x="597" 
d="M353 322q-75 -55 -120.5 -98t-68 -83t-29.5 -87h405l-6 -54h-472q2 56 16 101t43 85t74.5 81.5t111.5 90.5q80 59 114 104t34 96q0 64 -46 103t-123 39q-57 0 -109 -21t-93 -59l-6 67q41 30 97 48.5t117 18.5q68 0 118.5 -25t78.5 -69t28 -103q0 -64 -37.5 -117
t-126.5 -118z" />
    <glyph glyph-name="three.pnum" horiz-adv-x="588" 
d="M406 688h-336l6 53h411l-5 -47l-220 -248q11 1 23 1q105 0 165.5 -57.5t60.5 -153.5q0 -74 -34 -130t-95.5 -87.5t-146.5 -31.5q-50 0 -100.5 12.5t-91.5 37.5l6 64q40 -29 89 -44.5t93 -15.5q101 0 159 53t58 141q0 83 -50 124.5t-132 41.5q-24 0 -44.5 -4t-36.5 -9v45z
" />
    <glyph glyph-name="four.pnum" horiz-adv-x="632" 
d="M424 741h60v-512h107l-4 -52h-103v-177h-59v177h-385v42zM112 229h313v425z" />
    <glyph glyph-name="five.pnum" horiz-adv-x="597" 
d="M144 741h354l-5 -53h-297l-25 -223q47 19 105 19q78 0 132.5 -30t83 -83.5t28.5 -125.5q0 -78 -34 -136t-95.5 -90t-143.5 -32q-111 0 -193 50l6 64q40 -28 87.5 -44t98.5 -16q95 0 152.5 54t57.5 148q0 87 -51 138t-151 51q-39 0 -76.5 -7.5t-73.5 -21.5z" />
    <glyph glyph-name="six.pnum" horiz-adv-x="669" 
d="M556 724l-16 -58q-31 19 -65 26.5t-63 7.5q-69 0 -116.5 -28t-77 -76t-44.5 -108t-18 -123q28 55 82 87.5t123 32.5q68 0 120 -30.5t81.5 -86t29.5 -131.5q0 -73 -29.5 -129.5t-82.5 -88.5t-125 -32q-82 0 -141 42t-90.5 118t-31.5 177q0 148 42 243t114.5 141t165.5 46
q42 0 78 -8t64 -22zM529 233q0 92 -49 146t-129 54q-50 0 -91 -22t-68.5 -60t-35.5 -87q11 -100 63 -161.5t136 -61.5q80 0 127 53t47 139z" />
    <glyph glyph-name="seven.pnum" horiz-adv-x="567" 
d="M326 312.5q-38 -80.5 -64.5 -157t-46.5 -155.5h-69q21 77 48.5 153.5t65 158.5t89 174t121.5 201h-438l5 54h508l-5 -50q-71 -112 -123.5 -205t-90.5 -173.5z" />
    <glyph glyph-name="eight.pnum" horiz-adv-x="663" 
d="M330 754q66 0 117 -23t80 -62.5t29 -90.5q0 -116 -161 -181q98 -36 144 -85.5t46 -116.5q0 -60 -33 -107t-90.5 -74t-132.5 -27q-74 0 -130.5 26t-88.5 71t-32 102q0 71 47.5 124t137.5 84q-157 61 -157 179q0 52 29 92.5t80 64.5t115 24zM231.5 58q42.5 -19 97.5 -19
q56 0 98.5 19.5t67 54.5t24.5 79q0 59 -44.5 101t-151.5 79q-88 -29 -134.5 -76t-46.5 -109q0 -43 23.5 -76.5t66 -52.5zM189.5 640.5q-20.5 -29.5 -20.5 -67.5q0 -52 40 -88.5t131 -68.5q153 58 153 157q0 57 -45 94t-118 37q-47 0 -83.5 -17t-57 -46.5z" />
    <glyph glyph-name="nine.pnum" horiz-adv-x="669" 
d="M113 28l6 65q35 -27 74.5 -39.5t74.5 -12.5q66 0 112 28.5t74.5 77t42.5 109t17 125.5q-29 -54 -83.5 -85.5t-122.5 -31.5q-67 0 -119.5 30t-82 84t-29.5 127t31 129t86 88t127 32q82 0 139 -43t87 -120t30 -178q0 -148 -41 -242t-110 -139t-154 -45q-42 0 -83.5 10
t-75.5 31zM140 508q0 -88 49 -140t129 -52q48 0 89 21t69 57t37 82q-11 100 -60.5 162t-131.5 62t-131.5 -53t-49.5 -139z" />
    <glyph glyph-name="zero.dnom" horiz-adv-x="429" 
d="M63 189q0 94 38 144t114 50q74 0 112 -50t38 -144t-38.5 -145t-111.5 -51q-74 0 -113 51t-39 145zM115 189q0 -155 100 -155q99 0 99 155q0 154 -99 154q-100 0 -100 -154z" />
    <glyph glyph-name="one.dnom" horiz-adv-x="380" 
d="M221 43h100v-43h-255v43h107v280l-99 -47l-4 43l116 56h35v-332z" />
    <glyph glyph-name="two.dnom" horiz-adv-x="388" 
d="M188 179q45 28 64 50.5t19 47.5q0 30 -24.5 48t-65.5 18q-63 0 -113 -40l-3 45q53 35 123 35q61 0 97 -29.5t36 -76.5q0 -33 -22 -61.5t-77 -62.5q-52 -31 -75.5 -56t-33.5 -57h220l-4 -40h-273q2 56 33 96.5t99 82.5z" />
    <glyph glyph-name="three.dnom" horiz-adv-x="372" 
d="M242 336h-188l4 39h242l-4 -34l-115 -114q61 0 97 -29t36 -79q0 -57 -45 -91.5t-116 -34.5q-62 0 -114 26l4 44q49 -29 107 -29q50 0 81 23t31 63q0 37 -27 56.5t-70 19.5q-29 0 -44 -6v25z" />
    <glyph glyph-name="four.dnom" horiz-adv-x="402" 
d="M261 375h50v-248h69l-3 -39h-66v-88h-49v88h-242v31zM78 127h184v195z" />
    <glyph glyph-name="five.dnom" horiz-adv-x="378" 
d="M97 375h210l-5 -39h-164l-12 -99q24 7 54 7q64 0 102 -33t38 -88q0 -59 -44.5 -94.5t-115.5 -35.5q-62 0 -112 26l4 44q44 -29 103 -29q50 0 81.5 23t31.5 66q0 38 -28 61.5t-82 23.5q-40 0 -84 -14z" />
    <glyph glyph-name="six.dnom" horiz-adv-x="413" 
d="M333 367l-8 -42q-19 10 -38 14t-36 4q-47 0 -76 -21t-43 -55.5t-16 -75.5q16 27 46 42t65 15q56 0 93 -34t37 -90q0 -58 -38.5 -94.5t-102.5 -36.5q-70 0 -111.5 46.5t-41.5 131.5q0 107 52.5 159.5t133.5 52.5q47 0 84 -16zM147 62q26 -28 69 -28q39 0 64.5 24t25.5 63
q0 40 -26.5 64.5t-64.5 24.5q-36 0 -64.5 -20.5t-34.5 -53.5q5 -46 31 -74z" />
    <glyph glyph-name="seven.dnom" horiz-adv-x="351" 
d="M275 336h-239l4 39h289l-4 -38q-52 -76 -85.5 -131.5t-53.5 -103.5t-34 -102h-55q15 53 36.5 102.5t55.5 105.5t86 128z" />
    <glyph glyph-name="eight.dnom" horiz-adv-x="426" 
d="M212 383q58 0 95.5 -27t37.5 -65q0 -58 -91 -92q54 -16 80.5 -39.5t26.5 -58.5q0 -47 -42.5 -77.5t-107.5 -30.5t-106 30t-41 74q0 36 27.5 61.5t77.5 40.5q-46 14 -67.5 37.5t-21.5 52.5q0 39 37.5 66.5t94.5 27.5zM212 33q43 0 70 19.5t27 50.5q0 26 -22.5 45t-77.5 32
q-43 -12 -68 -31t-25 -48q0 -31 27 -49.5t69 -18.5zM128 286q0 -45 89 -70q81 23 81 71q0 25 -24 41.5t-61 16.5t-61 -16.5t-24 -42.5z" />
    <glyph glyph-name="nine.dnom" horiz-adv-x="413" 
d="M77 12l4 45q20 -13 41.5 -18t40.5 -5q63 0 97 41.5t37 111.5q-16 -26 -45 -40.5t-65 -14.5q-58 0 -94.5 34t-36.5 89q0 56 40 92t104 36q69 0 109.5 -47.5t40.5 -133.5q0 -100 -51 -154.5t-134 -54.5q-50 0 -88 19zM297 237q-4 47 -29 76.5t-68 29.5q-40 0 -66 -24
t-26 -63q0 -37 25.5 -61t67.5 -24q35 0 62 18t34 48z" />
    <glyph glyph-name="zero.numr" horiz-adv-x="429" 
d="M63 555q0 94 38 144t114 50q74 0 112 -50t38 -144t-38.5 -145t-111.5 -51q-74 0 -113 51t-39 145zM115 555q0 -155 100 -155q99 0 99 155q0 154 -99 154q-100 0 -100 -154z" />
    <glyph glyph-name="one.numr" horiz-adv-x="380" 
d="M221 409h100v-43h-255v43h107v280l-99 -47l-4 43l116 56h35v-332z" />
    <glyph glyph-name="two.numr" horiz-adv-x="388" 
d="M188 545q45 28 64 50.5t19 47.5q0 30 -24.5 48t-65.5 18q-63 0 -113 -40l-3 45q53 35 123 35q61 0 97 -29.5t36 -76.5q0 -33 -22 -61.5t-77 -62.5q-52 -31 -75.5 -56t-33.5 -57h220l-4 -40h-273q2 56 33 96.5t99 82.5z" />
    <glyph glyph-name="three.numr" horiz-adv-x="372" 
d="M242 702h-188l4 39h242l-4 -34l-115 -114q61 0 97 -29t36 -79q0 -57 -45 -91.5t-116 -34.5q-62 0 -114 26l4 44q49 -29 107 -29q50 0 81 23t31 63q0 37 -27 56.5t-70 19.5q-29 0 -44 -6v25z" />
    <glyph glyph-name="four.numr" horiz-adv-x="402" 
d="M261 741h50v-248h69l-3 -39h-66v-88h-49v88h-242v31zM78 493h184v195z" />
    <glyph glyph-name="five.numr" horiz-adv-x="378" 
d="M97 741h210l-5 -39h-164l-12 -99q24 7 54 7q64 0 102 -33t38 -88q0 -59 -44.5 -94.5t-115.5 -35.5q-62 0 -112 26l4 44q44 -29 103 -29q50 0 81.5 23t31.5 66q0 38 -28 61.5t-82 23.5q-40 0 -84 -14z" />
    <glyph glyph-name="six.numr" horiz-adv-x="413" 
d="M333 733l-8 -42q-19 10 -38 14t-36 4q-47 0 -76 -21t-43 -55.5t-16 -75.5q16 27 46 42t65 15q56 0 93 -34t37 -90q0 -58 -38.5 -94.5t-102.5 -36.5q-70 0 -111.5 46.5t-41.5 131.5q0 107 52.5 159.5t133.5 52.5q47 0 84 -16zM147 428q26 -28 69 -28q39 0 64.5 24t25.5 63
q0 40 -26.5 64.5t-64.5 24.5q-36 0 -64.5 -20.5t-34.5 -53.5q5 -46 31 -74z" />
    <glyph glyph-name="seven.numr" horiz-adv-x="351" 
d="M275 702h-239l4 39h289l-4 -38q-52 -76 -85.5 -131.5t-53.5 -103.5t-34 -102h-55q15 53 36.5 102.5t55.5 105.5t86 128z" />
    <glyph glyph-name="eight.numr" horiz-adv-x="426" 
d="M212 749q58 0 95.5 -27t37.5 -65q0 -58 -91 -92q54 -16 80.5 -39.5t26.5 -58.5q0 -47 -42.5 -77.5t-107.5 -30.5t-106 30t-41 74q0 36 27.5 61.5t77.5 40.5q-46 14 -67.5 37.5t-21.5 52.5q0 39 37.5 66.5t94.5 27.5zM212 399q43 0 70 19.5t27 50.5q0 26 -22.5 45
t-77.5 32q-43 -12 -68 -31t-25 -48q0 -31 27 -49.5t69 -18.5zM128 652q0 -45 89 -70q81 23 81 71q0 25 -24 41.5t-61 16.5t-61 -16.5t-24 -42.5z" />
    <glyph glyph-name="nine.numr" horiz-adv-x="413" 
d="M77 378l4 45q20 -13 41.5 -18t40.5 -5q63 0 97 41.5t37 111.5q-16 -26 -45 -40.5t-65 -14.5q-58 0 -94.5 34t-36.5 89q0 56 40 92t104 36q69 0 109.5 -47.5t40.5 -133.5q0 -100 -51 -154.5t-134 -54.5q-50 0 -88 19zM297 603q-4 47 -29 76.5t-68 29.5q-40 0 -66 -24
t-26 -63q0 -37 25.5 -61t67.5 -24q35 0 62 18t34 48z" />
    <glyph glyph-name="zero.percent" horiz-adv-x="380" 
d="M27 178q0 54 19.5 97t56 68.5t87.5 25.5t87 -25.5t55.5 -68.5t19.5 -97q0 -53 -19.5 -96.5t-55.5 -69t-87 -25.5t-87.5 25.5t-56 69t-19.5 96.5zM299 178q0 64 -29 105.5t-80 41.5t-80 -41.5t-29 -105.5t29 -105.5t80 -41.5t80 41.5t29 105.5z" />
    <glyph glyph-name="two_fraction_seven" horiz-adv-x="805" 
d="M188 545q45 28 64 50.5t19 47.5q0 30 -24.5 48t-65.5 18q-63 0 -113 -40l-3 45q53 35 123 35q61 0 97 -29.5t36 -76.5q0 -33 -22 -61.5t-77 -62.5q-52 -31 -75.5 -56t-33.5 -57h220l-4 -40h-273q2 56 33 96.5t99 82.5zM642 741h61l-525 -741h-61zM729 336h-239l4 39h289
l-4 -38q-52 -76 -85.5 -131.5t-53.5 -103.5t-34 -102h-55q15 53 36.5 102.5t55.5 105.5t86 128z" />
    <glyph glyph-name="three_fraction_seven" horiz-adv-x="789" 
d="M242 702h-188l4 39h242l-4 -34l-115 -114q61 0 97 -29t36 -79q0 -57 -45 -91.5t-116 -34.5q-62 0 -114 26l4 44q49 -29 107 -29q50 0 81 23t31 63q0 37 -27 56.5t-70 19.5q-29 0 -44 -6v25zM608 741h61l-525 -741h-61zM713 336h-239l4 39h289l-4 -38
q-52 -76 -85.5 -131.5t-53.5 -103.5t-34 -102h-55q15 53 36.5 102.5t55.5 105.5t86 128z" />
    <glyph glyph-name="four_fraction_seven" horiz-adv-x="820" 
d="M261 741h50v-248h69l-3 -39h-66v-88h-49v88h-242v31zM78 493h184v195zM653 741h61l-525 -741h-61zM743 336h-239l4 39h289l-4 -38q-52 -76 -85.5 -131.5t-53.5 -103.5t-34 -102h-55q15 53 36.5 102.5t55.5 105.5t86 128z" />
    <glyph glyph-name="five_fraction_seven" horiz-adv-x="795" 
d="M97 741h210l-5 -39h-164l-12 -99q24 7 54 7q64 0 102 -33t38 -88q0 -59 -44.5 -94.5t-115.5 -35.5q-62 0 -112 26l4 44q44 -29 103 -29q50 0 81.5 23t31.5 66q0 38 -28 61.5t-82 23.5q-40 0 -84 -14zM614 741h61l-525 -741h-61zM719 336h-239l4 39h289l-4 -38
q-52 -76 -85.5 -131.5t-53.5 -103.5t-34 -102h-55q15 53 36.5 102.5t55.5 105.5t86 128z" />
    <glyph glyph-name="six_fraction_seven" horiz-adv-x="830" 
d="M333 733l-8 -42q-19 10 -38 14t-36 4q-47 0 -76 -21t-43 -55.5t-16 -75.5q16 27 46 42t65 15q56 0 93 -34t37 -90q0 -58 -38.5 -94.5t-102.5 -36.5q-70 0 -111.5 46.5t-41.5 131.5q0 107 52.5 159.5t133.5 52.5q47 0 84 -16zM147 428q26 -28 69 -28q39 0 64.5 24t25.5 63
q0 40 -26.5 64.5t-64.5 24.5q-36 0 -64.5 -20.5t-34.5 -53.5q5 -46 31 -74zM649 741h61l-525 -741h-61zM754 336h-239l4 39h289l-4 -38q-52 -76 -85.5 -131.5t-53.5 -103.5t-34 -102h-55q15 53 36.5 102.5t55.5 105.5t86 128z" />
    <glyph glyph-name="two_fraction_nine" horiz-adv-x="867" 
d="M188 545q45 28 64 50.5t19 47.5q0 30 -24.5 48t-65.5 18q-63 0 -113 -40l-3 45q53 35 123 35q61 0 97 -29.5t36 -76.5q0 -33 -22 -61.5t-77 -62.5q-52 -31 -75.5 -56t-33.5 -57h220l-4 -40h-273q2 56 33 96.5t99 82.5zM667 741h61l-525 -741h-61zM531 12l4 45
q20 -13 41.5 -18t40.5 -5q63 0 97 41.5t37 111.5q-16 -26 -45 -40.5t-65 -14.5q-58 0 -94.5 34t-36.5 89q0 56 40 92t104 36q69 0 109.5 -47.5t40.5 -133.5q0 -100 -51 -154.5t-134 -54.5q-50 0 -88 19zM751 237q-4 47 -29 76.5t-68 29.5q-40 0 -66 -24t-26 -63
q0 -37 25.5 -61t67.5 -24q35 0 62 18t34 48z" />
    <glyph glyph-name="four_fraction_nine" horiz-adv-x="882" 
d="M261 741h50v-248h69l-3 -39h-66v-88h-49v88h-242v31zM78 493h184v195zM677 741h61l-525 -741h-61zM545 12l4 45q20 -13 41.5 -18t40.5 -5q63 0 97 41.5t37 111.5q-16 -26 -45 -40.5t-65 -14.5q-58 0 -94.5 34t-36.5 89q0 56 40 92t104 36q69 0 109.5 -47.5t40.5 -133.5
q0 -100 -51 -154.5t-134 -54.5q-50 0 -88 19zM765 237q-4 47 -29 76.5t-68 29.5q-40 0 -66 -24t-26 -63q0 -37 25.5 -61t67.5 -24q35 0 62 18t34 48z" />
    <glyph glyph-name="five_fraction_nine" horiz-adv-x="857" 
d="M97 741h210l-5 -39h-164l-12 -99q24 7 54 7q64 0 102 -33t38 -88q0 -59 -44.5 -94.5t-115.5 -35.5q-62 0 -112 26l4 44q44 -29 103 -29q50 0 81.5 23t31.5 66q0 38 -28 61.5t-82 23.5q-40 0 -84 -14zM643 741h61l-525 -741h-61zM521 12l4 45q20 -13 41.5 -18t40.5 -5
q63 0 97 41.5t37 111.5q-16 -26 -45 -40.5t-65 -14.5q-58 0 -94.5 34t-36.5 89q0 56 40 92t104 36q69 0 109.5 -47.5t40.5 -133.5q0 -100 -51 -154.5t-134 -54.5q-50 0 -88 19zM741 237q-4 47 -29 76.5t-68 29.5q-40 0 -66 -24t-26 -63q0 -37 25.5 -61t67.5 -24q35 0 62 18
t34 48z" />
    <glyph glyph-name="seven_fraction_nine" horiz-adv-x="809" 
d="M275 702h-239l4 39h289l-4 -38q-52 -76 -85.5 -131.5t-53.5 -103.5t-34 -102h-55q15 53 36.5 102.5t55.5 105.5t86 128zM595 741h61l-525 -741h-61zM472 12l4 45q20 -13 41.5 -18t40.5 -5q63 0 97 41.5t37 111.5q-16 -26 -45 -40.5t-65 -14.5q-58 0 -94.5 34t-36.5 89
q0 56 40 92t104 36q69 0 109.5 -47.5t40.5 -133.5q0 -100 -51 -154.5t-134 -54.5q-50 0 -88 19zM692 237q-4 47 -29 76.5t-68 29.5q-40 0 -66 -24t-26 -63q0 -37 25.5 -61t67.5 -24q35 0 62 18t34 48z" />
    <glyph glyph-name="eight_fraction_nine" horiz-adv-x="905" 
d="M212 749q58 0 95.5 -27t37.5 -65q0 -58 -91 -92q54 -16 80.5 -39.5t26.5 -58.5q0 -47 -42.5 -77.5t-107.5 -30.5t-106 30t-41 74q0 36 27.5 61.5t77.5 40.5q-46 14 -67.5 37.5t-21.5 52.5q0 39 37.5 66.5t94.5 27.5zM212 399q43 0 70 19.5t27 50.5q0 26 -22.5 45
t-77.5 32q-43 -12 -68 -31t-25 -48q0 -31 27 -49.5t69 -18.5zM128 652q0 -45 89 -70q81 23 81 71q0 25 -24 41.5t-61 16.5t-61 -16.5t-24 -42.5zM691 741h61l-525 -741h-61zM568 12l4 45q20 -13 41.5 -18t40.5 -5q63 0 97 41.5t37 111.5q-16 -26 -45 -40.5t-65 -14.5
q-58 0 -94.5 34t-36.5 89q0 56 40 92t104 36q69 0 109.5 -47.5t40.5 -133.5q0 -100 -51 -154.5t-134 -54.5q-50 0 -88 19zM788 237q-4 47 -29 76.5t-68 29.5q-40 0 -66 -24t-26 -63q0 -37 25.5 -61t67.5 -24q35 0 62 18t34 48z" />
    <glyph glyph-name="hyphen.case" horiz-adv-x="290" 
d="M28 399h233v-54h-233v54z" />
    <glyph glyph-name="endash.case" horiz-adv-x="500" 
d="M0 399h500v-51h-500v51z" />
    <glyph glyph-name="emdash.case" horiz-adv-x="1000" 
d="M0 399h1000v-51h-1000v51z" />
    <glyph glyph-name="parenleft.case" horiz-adv-x="311" 
d="M95 371q0 93 19.5 181t51.5 166.5t68 140.5h56q-36 -63 -66 -142t-48.5 -167.5t-18.5 -178.5t18.5 -178.5t48.5 -168t66 -142.5h-56q-36 63 -68 141t-51.5 166.5t-19.5 181.5z" />
    <glyph glyph-name="parenright.case" horiz-adv-x="311" 
d="M155 371q0 90 -18.5 178.5t-49 167.5t-66.5 142h56q37 -62 68.5 -140.5t51 -166.5t19.5 -181t-19.5 -181.5t-51 -166.5t-68.5 -141h-56q36 63 66.5 142.5t49 168t18.5 178.5z" />
    <glyph glyph-name="slash.case" horiz-adv-x="424" 
d="M355 859h57l-343 -977h-57z" />
    <glyph glyph-name="backslash.case" horiz-adv-x="424" 
d="M12 859h57l343 -977h-57z" />
    <glyph glyph-name="bracketleft.case" horiz-adv-x="323" 
d="M116 859h176v-47h-116v-883h116v-47h-176v977z" />
    <glyph glyph-name="bracketright.case" horiz-adv-x="323" 
d="M206 -118h-176v47h117v883h-117v47h176v-977z" />
    <glyph glyph-name="braceleft.case" horiz-adv-x="323" 
d="M176 488q0 -47 -16 -74.5t-56 -42.5q40 -16 56 -43t16 -75v-222q0 -51 26 -76t69 -25h21v-48h-23q-85 0 -119 44t-34 114v217q0 47 -18.5 66t-70.5 25v45q52 6 70.5 25t18.5 66v217q0 70 34 114t119 44h23v-48h-21q-43 0 -69 -25t-26 -76v-222z" />
    <glyph glyph-name="braceright.case" horiz-adv-x="323" 
d="M147 253q0 47 16 74.5t56 42.5q-40 16 -56 43t-16 75v222q0 51 -26 76t-70 25h-21v48h24q85 0 118.5 -44t33.5 -114v-217q0 -47 19 -66t70 -25v-45q-51 -6 -70 -25t-19 -66v-217q0 -70 -33.5 -114t-118.5 -44h-24v48h21q44 0 70 25t26 76v222z" />
    <glyph glyph-name="bullet.case" horiz-adv-x="385" 
d="M192 256q-49 0 -81.5 32.5t-32.5 81.5q0 50 32.5 82.5t81.5 32.5q50 0 82.5 -32.5t32.5 -82.5q0 -49 -32.5 -81.5t-82.5 -32.5z" />
    <glyph glyph-name="guilsinglleft.case" horiz-adv-x="360" 
d="M226 592h61l-162 -221l162 -219h-61l-167 219z" />
    <glyph glyph-name="guilsinglright.case" horiz-adv-x="360" 
d="M235 372l-162 220h61l167 -220l-167 -220h-61z" />
    <glyph glyph-name="guillemotleft.case" horiz-adv-x="560" 
d="M426 592h61l-162 -221l162 -219h-61l-167 219zM226 592h61l-162 -221l162 -219h-61l-167 219z" />
    <glyph glyph-name="guillemotright.case" horiz-adv-x="560" 
d="M435 372l-162 220h61l167 -220l-167 -220h-61zM235 372l-162 220h61l167 -220l-167 -220h-61z" />
    <glyph glyph-name="at.case" horiz-adv-x="976" 
d="M616 -19l7 -59q-39 -19 -85 -28.5t-95 -9.5q-114 0 -197.5 46t-129 129.5t-45.5 196.5q0 103 36.5 192t101.5 156.5t151 105.5t186 38q107 0 188 -44t127 -124t46 -188q0 -84 -27.5 -152.5t-74 -109t-104.5 -40.5q-50 0 -80 28t-32 84q-23 -56 -66.5 -85t-94.5 -29
q-67 0 -107.5 47t-40.5 129q0 55 18.5 105t50 89.5t72 62t83.5 22.5q40 0 72.5 -20t49.5 -55l13 55h52l-9 -35q-22 -88 -34 -152.5t-12 -105.5q0 -44 17.5 -68t49.5 -24q40 0 72.5 32.5t52 89t19.5 127.5q0 98 -37.5 168t-105.5 108t-160 38q-87 0 -162.5 -34t-131.5 -94.5
t-87.5 -140.5t-31.5 -173q0 -100 37.5 -173.5t107 -114t163.5 -40.5q50 0 96.5 13t80.5 37zM530 178.5q43 44.5 61 127.5l22 104q-9 38 -38.5 62.5t-68.5 24.5q-44 0 -83 -32t-63 -84.5t-24 -115.5q0 -62 26.5 -96.5t74.5 -34.5q50 0 93 44.5z" />
    <glyph glyph-name="periodcentered.case" horiz-adv-x="248" 
d="M76 370q0 23 14 37.5t34 14.5t34 -14.5t14 -37.5q0 -22 -14 -37t-34 -15t-34 15t-14 37z" />
    <glyph glyph-name="periodcentered.loclCAT" horiz-adv-x="110" 
d="M-40 336q0 23 14 37.5t34 14.5t34 -14.5t14 -37.5q0 -22 -14 -37t-34 -15t-34 15t-14 37z" />
    <glyph glyph-name="periodcentered.loclCAT.cap" horiz-adv-x="0" 
d="M-179 397q0 23 14 37.5t34 14.5t34 -14.5t14 -37.5q0 -22 -14 -37t-34 -15t-34 15t-14 37z" />
    <glyph glyph-name="IJacute" horiz-adv-x="699" 
d="M104 741h64v-741h-64v741zM605 191q0 -100 -51.5 -152t-141.5 -52q-30 0 -57.5 6.5t-49.5 16.5l7 59q18 -12 44 -19t51 -7q60 0 98 38.5t38 123.5v536h62v-550zM646 987q17 -4 31 -16.5t21 -26.5l-140 -136l-31 27zM208 987q17 -4 31 -16.5t21 -26.5l-140 -136l-31 27z
" />
    <glyph glyph-name="f.short" horiz-adv-x="393" 
d="M137 482h-93v47h93v39q0 98 48 151.5t136 53.5q20 0 37.5 -2.5t32.5 -7.5l-6 -54q-21 13 -60 13q-129 0 -129 -152v-41h161v-47h-161v-482h-59v482z" />
    <glyph glyph-name="f_f.short" horiz-adv-x="742" 
d="M137 482h-93v47h93v39q0 98 49.5 151.5t137.5 53.5q45 0 75 -12l-5 -53q-23 14 -64 14q-64 0 -99 -38t-35 -114v-41h289v39q0 98 48 151.5t136 53.5q20 0 38 -2.5t33 -7.5l-6 -54q-23 13 -61 13q-128 0 -128 -152v-41h161v-47h-161v-482h-60v482h-289v-482h-59v482z" />
    <glyph glyph-name="dotlessi.long" horiz-adv-x="232" 
d="M86 482h-144v47h203v-529h-59v482z" />
    <glyph glyph-name="i.long" horiz-adv-x="232" 
d="M86 482h-144v47h203v-529h-59v482zM70 701q0 20 13.5 34t32.5 14t32.5 -14t13.5 -34t-13.5 -34.5t-32.5 -14.5t-32.5 14.5t-13.5 34.5z" />
    <glyph glyph-name="dotlessij" horiz-adv-x="463" 
d="M86 529h59v-529h-59v529zM318 529h59v-587q0 -85 -36 -128.5t-104 -43.5q-37 0 -65 13l5 52q21 -14 55 -14q41 0 63.5 30t22.5 89v589z" />
    <glyph glyph-name="ijacute" horiz-adv-x="463" 
d="M86 529h59v-529h-59v529zM318 529h59v-587q0 -85 -36 -128.5t-104 -43.5q-37 0 -65 13l5 52q21 -14 55 -14q41 0 63.5 30t22.5 89v589zM175 797q18 -4 32 -15.5t21 -24.5l-133 -147l-31 23zM406 797q18 -4 32 -15.5t21 -24.5l-133 -147l-31 23z" />
    <glyph glyph-name="uni0327.cap" horiz-adv-x="0" 
d="M-20 6h45l-20 -75h2q48 0 76.5 -21t28.5 -59q0 -41 -32 -65.5t-91 -24.5q-21 0 -46 6t-39 14l6 47q13 -10 35 -17t44 -7q69 0 69 48q0 43 -68 43q-21 0 -41 -5z" />
    <glyph glyph-name="uni0326.cap" horiz-adv-x="0" 
d="M-35 -217h-45q20 30 34 70t21 85h59q-8 -43 -26 -83.5t-43 -71.5z" />
    <glyph glyph-name="uni0328.cap" horiz-adv-x="0" 
d="M36 12l40 -12q-98 -72 -98 -126q0 -20 12.5 -31t34.5 -11q30 0 52 18l6 -47q-14 -8 -33 -12.5t-35 -4.5q-43 0 -67 21t-24 58t29.5 75.5t82.5 71.5z" />
    <glyph glyph-name="uni0328.round" horiz-adv-x="0" 
d="M-24 -128q0 -19 12.5 -30t33.5 -11q33 0 54 18l6 -46q-13 -8 -33 -12.5t-37 -4.5q-41 0 -64.5 20.5t-23.5 56.5q0 38 29.5 80t84.5 78l57 3q-119 -85 -119 -152z" />
    <glyph glyph-name="uni0328.round.cap" horiz-adv-x="0" 
d="M45 19l62 8q-64 -46 -94 -83.5t-30 -68.5q0 -20 12.5 -31.5t33.5 -11.5q31 0 53 18l6 -47q-14 -8 -32.5 -12.5t-35.5 -4.5q-43 0 -67 21.5t-24 58.5q0 36 30.5 77t85.5 76z" />
    <glyph glyph-name="acutecomb.cap" horiz-adv-x="0" 
d="M73 987q17 -4 31 -16.5t21 -26.5l-140 -136l-31 27z" />
    <glyph glyph-name="uni030B.cap" horiz-adv-x="0" 
d="M6 987q34 -10 50 -39l-134 -141l-30 25zM171 987q34 -10 50 -39l-134 -141l-29 25z" />
    <glyph glyph-name="gravecomb.cap" horiz-adv-x="0" 
d="M-125 944q8 14 21 26.5t31 16.5l119 -152l-31 -27z" />
    <glyph glyph-name="uni0302.cap" horiz-adv-x="0" 
d="M-30 977h60l123 -146l-33 -25l-120 121l-120 -121l-33 25z" />
    <glyph glyph-name="tildecomb.cap" horiz-adv-x="0" 
d="M118 948l43 -10q-3 -50 -27 -79t-63 -29q-19 0 -37.5 8t-44.5 30q-23 20 -34 25.5t-25 5.5q-41 0 -47 -68l-43 10q3 50 27 78.5t63 28.5q19 0 38 -8t44 -29q23 -19 34.5 -25.5t24.5 -6.5q41 0 47 69z" />
    <glyph glyph-name="uni030C.cap" horiz-adv-x="0" 
d="M-153 964l33 25l120 -121l120 121l33 -25l-123 -145h-60z" />
    <glyph glyph-name="uni0315.short" horiz-adv-x="0" 
d="M-32 761q14 6 30 6q15 0 30 -6l-38 -162h-34z" />
    <glyph glyph-name="uni0304.cap" horiz-adv-x="0" 
d="M-147 903h294v-49h-294v49z" />
    <glyph glyph-name="uni0308.cap" horiz-adv-x="0" 
d="M-146 889q0 21 13.5 35t32.5 14t32.5 -14t13.5 -35q0 -19 -13.5 -33.5t-32.5 -14.5t-32.5 14.5t-13.5 33.5zM55 889q0 21 13.5 35t32.5 14t32 -14t13 -35q0 -19 -13 -33.5t-32 -14.5t-32.5 14.5t-13.5 33.5z" />
    <glyph glyph-name="uni0306.cap" horiz-adv-x="0" 
d="M0 862q92 0 94 98h48q3 -64 -35.5 -102.5t-106.5 -38.5t-106.5 38.5t-35.5 102.5h48q2 -98 94 -98z" />
    <glyph glyph-name="uni0307.cap" horiz-adv-x="0" 
d="M-47 889q0 20 14 34t33 14q20 0 33.5 -14t13.5 -34q0 -21 -13.5 -35t-33.5 -14q-19 0 -33 14.5t-14 34.5z" />
    <glyph glyph-name="dotbelowcomb.cap" horiz-adv-x="0" 
d="M-47 -139q0 21 14 35t33 14q20 0 33.5 -14t13.5 -35q0 -20 -13.5 -34t-33.5 -14q-19 0 -33 14t-14 34z" />
    <glyph glyph-name="uni030A.cap" horiz-adv-x="0" 
d="M0 783q-46 0 -77 28t-31 70q0 44 31 72t77 28q47 0 77.5 -28t30.5 -72q0 -42 -30.5 -70t-77.5 -28zM0 944q-28 0 -46.5 -17.5t-18.5 -45.5q0 -27 18.5 -44.5t46.5 -17.5q29 0 47 17.5t18 44.5q0 28 -18 45.5t-47 17.5z" />
    <glyph glyph-name="highdef" horiz-adv-x="0" 
d="M-25 -268l25 50l25 -50h-50zM0 996l-25 50h50z" />
    </font>
</defs>
</svg>
